  0
SECTION
  2
HEADER
  9
$ACADVER
  1
AC1015
  9
$ACADMAINTVER
 70
     6
  9
$DWGCODEPAGE
  3
ANSI_932
  9
$INSBASE
 10
0.0
 20
0.0
 30
0.0
  9
$EXTMIN
 10
-1.111111164093018
 20
0.0
 30
0.0
  9
$EXTMAX
 10
403.0
 20
284.0
 30
0.0
  9
$LIMMIN
 10
-1.111111164093018
 20
0.0
  9
$LIMMAX
 10
403.0
 20
284.0
  9
$ORTHOMODE
 70
     0
  9
$REGENMODE
 70
     1
  9
$FILLMODE
 70
     1
  9
$QTEXTMODE
 70
     0
  9
$MIRRTEXT
 70
     1
  9
$LTSCALE
 40
1.0
  9
$ATTMODE
 70
     1
  9
$TEXTSIZE
 40
2.5
  9
$TRACEWID
 40
1.0
  9
$TEXTSTYLE
  7
Standard
  9
$CLAYER
  8
0
  9
$CELTYPE
  6
ByLayer
  9
$CECOLOR
 62
   256
  9
$CELTSCALE
 40
1.0
  9
$DISPSILH
 70
     0
  9
$DIMSCALE
 40
1.0
  9
$DIMASZ
 40
2.5
  9
$DIMEXO
 40
0.625
  9
$DIMDLI
 40
3.75
  9
$DIMRND
 40
0.0
  9
$DIMDLE
 40
0.0
  9
$DIMEXE
 40
1.25
  9
$DIMTP
 40
0.0
  9
$DIMTM
 40
0.0
  9
$DIMTXT
 40
2.5
  9
$DIMCEN
 40
2.5
  9
$DIMTSZ
 40
0.0
  9
$DIMTOL
 70
     0
  9
$DIMLIM
 70
     0
  9
$DIMTIH
 70
     0
  9
$DIMTOH
 70
     0
  9
$DIMSE1
 70
     0
  9
$DIMSE2
 70
     0
  9
$DIMTAD
 70
     1
  9
$DIMZIN
 70
     8
  9
$DIMBLK
  1

  9
$DIMASO
 70
     1
  9
$DIMSHO
 70
     1
  9
$DIMPOST
  1

  9
$DIMAPOST
  1

  9
$DIMALT
 70
     0
  9
$DIMALTD
 70
     3
  9
$DIMALTF
 40
0.03937007874016
  9
$DIMLFAC
 40
1.0
  9
$DIMTOFL
 70
     1
  9
$DIMTVP
 40
0.0
  9
$DIMTIX
 70
     0
  9
$DIMSOXD
 70
     0
  9
$DIMSAH
 70
     0
  9
$DIMBLK1
  1

  9
$DIMBLK2
  1

  9
$DIMSTYLE
  2
ISO-25
  9
$DIMCLRD
 70
     0
  9
$DIMCLRE
 70
     0
  9
$DIMCLRT
 70
     0
  9
$DIMTFAC
 40
1.0
  9
$DIMGAP
 40
0.625
  9
$DIMJUST
 70
     0
  9
$DIMSD1
 70
     0
  9
$DIMSD2
 70
     0
  9
$DIMTOLJ
 70
     0
  9
$DIMTZIN
 70
     8
  9
$DIMALTZ
 70
     0
  9
$DIMALTTZ
 70
     0
  9
$DIMUPT
 70
     0
  9
$DIMDEC
 70
     2
  9
$DIMTDEC
 70
     2
  9
$DIMALTU
 70
     2
  9
$DIMALTTD
 70
     3
  9
$DIMTXSTY
  7
Standard
  9
$DIMAUNIT
 70
     0
  9
$DIMADEC
 70
     0
  9
$DIMALTRND
 40
0.0
  9
$DIMAZIN
 70
     0
  9
$DIMDSEP
 70
    44
  9
$DIMATFIT
 70
     3
  9
$DIMFRAC
 70
     0
  9
$DIMLDRBLK
  1

  9
$DIMLUNIT
 70
     2
  9
$DIMLWD
 70
    -2
  9
$DIMLWE
 70
    -2
  9
$DIMTMOVE
 70
     0
  9
$LUNITS
 70
     2
  9
$LUPREC
 70
     4
  9
$SKETCHINC
 40
1.0
  9
$FILLETRAD
 40
10.0
  9
$AUNITS
 70
     0
  9
$AUPREC
 70
     0
  9
$MENU
  1
.
  9
$ELEVATION
 40
0.0
  9
$PELEVATION
 40
0.0
  9
$THICKNESS
 40
0.0
  9
$LIMCHECK
 70
     0
  9
$CHAMFERA
 40
0.0
  9
$CHAMFERB
 40
0.0
  9
$CHAMFERC
 40
0.0
  9
$CHAMFERD
 40
0.0
  9
$SKPOLY
 70
     0
  9
$TDCREATE
 40
2459037.473640741
  9
$TDUCREATE
 40
2459037.098640741
  9
$TDUPDATE
 40
2459037.473641285
  9
$TDUUPDATE
 40
2459037.098641285
  9
$TDINDWG
 40
0.0000000116
  9
$TDUSRTIMER
 40
0.0000000116
  9
$USRTIMER
 70
     1
  9
$ANGBASE
 50
0.0
  9
$ANGDIR
 70
     0
  9
$PDMODE
 70
     0
  9
$PDSIZE
 40
0.0
  9
$PLINEWID
 40
0.0
  9
$SPLFRAME
 70
     0
  9
$SPLINETYPE
 70
     6
  9
$SPLINESEGS
 70
     8
  9
$HANDSEED
  5
325
  9
$SURFTAB1
 70
     6
  9
$SURFTAB2
 70
     6
  9
$SURFTYPE
 70
     6
  9
$SURFU
 70
     6
  9
$SURFV
 70
     6
  9
$UCSBASE
  2

  9
$UCSNAME
  2

  9
$UCSORG
 10
0.0
 20
0.0
 30
0.0
  9
$UCSXDIR
 10
1.0
 20
0.0
 30
0.0
  9
$UCSYDIR
 10
0.0
 20
1.0
 30
0.0
  9
$UCSORTHOREF
  2

  9
$UCSORTHOVIEW
 70
     0
  9
$UCSORGTOP
 10
0.0
 20
0.0
 30
0.0
  9
$UCSORGBOTTOM
 10
0.0
 20
0.0
 30
0.0
  9
$UCSORGLEFT
 10
0.0
 20
0.0
 30
0.0
  9
$UCSORGRIGHT
 10
0.0
 20
0.0
 30
0.0
  9
$UCSORGFRONT
 10
0.0
 20
0.0
 30
0.0
  9
$UCSORGBACK
 10
0.0
 20
0.0
 30
0.0
  9
$PUCSBASE
  2

  9
$PUCSNAME
  2

  9
$PUCSORG
 10
0.0
 20
0.0
 30
0.0
  9
$PUCSXDIR
 10
1.0
 20
0.0
 30
0.0
  9
$PUCSYDIR
 10
0.0
 20
1.0
 30
0.0
  9
$PUCSORTHOREF
  2

  9
$PUCSORTHOVIEW
 70
     0
  9
$PUCSORGTOP
 10
0.0
 20
0.0
 30
0.0
  9
$PUCSORGBOTTOM
 10
0.0
 20
0.0
 30
0.0
  9
$PUCSORGLEFT
 10
0.0
 20
0.0
 30
0.0
  9
$PUCSORGRIGHT
 10
0.0
 20
0.0
 30
0.0
  9
$PUCSORGFRONT
 10
0.0
 20
0.0
 30
0.0
  9
$PUCSORGBACK
 10
0.0
 20
0.0
 30
0.0
  9
$USERI1
 70
     0
  9
$USERI2
 70
     0
  9
$USERI3
 70
     0
  9
$USERI4
 70
     0
  9
$USERI5
 70
     0
  9
$USERR1
 40
0.0
  9
$USERR2
 40
0.0
  9
$USERR3
 40
0.0
  9
$USERR4
 40
0.0
  9
$USERR5
 40
0.0
  9
$WORLDVIEW
 70
     1
  9
$SHADEDGE
 70
     3
  9
$SHADEDIF
 70
    70
  9
$TILEMODE
 70
     1
  9
$MAXACTVP
 70
    64
  9
$PINSBASE
 10
0.0
 20
0.0
 30
0.0
  9
$PLIMCHECK
 70
     0
  9
$PEXTMIN
 10
1.000000000000000E+20
 20
1.000000000000000E+20
 30
1.000000000000000E+20
  9
$PEXTMAX
 10
-1.000000000000000E+20
 20
-1.000000000000000E+20
 30
-1.000000000000000E+20
  9
$PLIMMIN
 10
-1.111111164093018
 20
0.0
  9
$PLIMMAX
 10
403.0
 20
284.0
  9
$UNITMODE
 70
     0
  9
$VISRETAIN
 70
     1
  9
$PLINEGEN
 70
     0
  9
$PSLTSCALE
 70
     1
  9
$TREEDEPTH
 70
  3020
  9
$CMLSTYLE
  2
Standard
  9
$CMLJUST
 70
     0
  9
$CMLSCALE
 40
20.0
  9
$PROXYGRAPHICS
 70
     1
  9
$MEASUREMENT
 70
     1
  9
$CELWEIGHT
370
    -1
  9
$ENDCAPS
280
     0
  9
$JOINSTYLE
280
     0
  9
$LWDISPLAY
290
     0
  9
$INSUNITS
 70
     4
  9
$HYPERLINKBASE
  1

  9
$STYLESHEET
  1

  9
$XEDIT
290
     1
  9
$CEPSNTYPE
380
     0
  9
$PSTYLEMODE
290
     1
  9
$FINGERPRINTGUID
  2
{b1a3801e-3010-4409-8a29-19559b5b1381}
  9
$VERSIONGUID
  2
{FAEB1C32-E019-11D5-929B-00C0DF256EC4}
  9
$EXTNAMES
290
     1
  9
$PSVPSCALE
 40
0.0
  9
$OLESTARTUP
290
     0
  0
ENDSEC
  0
SECTION
  2
CLASSES
  0
CLASS
  1
ACDBDICTIONARYWDFLT
  2
AcDbDictionaryWithDefault
  3
ObjectDBX Classes
 90
        0
280
     0
281
     0
  0
CLASS
  1
VISUALSTYLE
  2
AcDbVisualStyle
  3
ObjectDBX Classes
 90
     4095
280
     0
281
     0
  0
CLASS
  1
MATERIAL
  2
AcDbMaterial
  3
ObjectDBX Classes
 90
     1153
280
     0
281
     0
  0
CLASS
  1
SCALE
  2
AcDbScale
  3
ObjectDBX Classes
 90
     1153
280
     0
281
     0
  0
CLASS
  1
TABLESTYLE
  2
AcDbTableStyle
  3
ObjectDBX Classes
 90
     4095
280
     0
281
     0
  0
CLASS
  1
MLEADERSTYLE
  2
AcDbMLeaderStyle
  3
ACDB_MLEADERSTYLE_CLASS
 90
     4095
280
     0
281
     0
  0
CLASS
  1
SUN
  2
AcDbSun
  3
SCENEOE
 90
     1153
280
     0
281
     0
  0
CLASS
  1
DICTIONARYVAR
  2
AcDbDictionaryVar
  3
ObjectDBX Classes
 90
        0
280
     0
281
     0
  0
CLASS
  1
ACDBPLACEHOLDER
  2
AcDbPlaceHolder
  3
ObjectDBX Classes
 90
        0
280
     0
281
     0
  0
CLASS
  1
LAYOUT
  2
AcDbLayout
  3
ObjectDBX Classes
 90
        0
280
     0
281
     0
  0
ENDSEC
  0
SECTION
  2
TABLES
  0
TABLE
  2
VPORT
  5
8
102
{ACAD_XDICTIONARY
360
2E7
102
}
330
0
100
AcDbSymbolTable
 70
     1
  0
VPORT
  5
29
330
8
100
AcDbSymbolTableRecord
100
AcDbViewportTableRecord
  2
*Active
 70
     0
 10
0.0
 20
0.0
 11
1.0
 21
1.0
 12
344.1869158878504
 22
148.5
 13
0.0
 23
0.0
 14
10.0
 24
10.0
 15
10.0
 25
10.0
 16
0.0
 26
0.0
 36
1.0
 17
0.0
 27
0.0
 37
0.0
 40
297.0
 41
1.972972972850329
 42
50.0
 43
0.0
 44
0.0
 50
0.0
 51
0.0
 71
     0
 72
   100
 73
     1
 74
     3
 75
     0
 76
     0
 77
     0
 78
     0
281
     0
 65
     1
110
0.0
120
0.0
130
0.0
111
1.0
121
0.0
131
0.0
112
0.0
122
1.0
132
0.0
 79
     0
146
0.0
  0
ENDTAB
  0
TABLE
  2
LTYPE
  5
5
330
0
100
AcDbSymbolTable
 70
     5
  0
LTYPE
  5
14
330
5
100
AcDbSymbolTableRecord
100
AcDbLinetypeTableRecord
  2
ByBlock
 70
     0
  3

 72
    65
 73
     0
 40
0.0
  0
LTYPE
  5
15
330
5
100
AcDbSymbolTableRecord
100
AcDbLinetypeTableRecord
  2
ByLayer
 70
     0
  3

 72
    65
 73
     0
 40
0.0
  0
LTYPE
  5
16
330
5
100
AcDbSymbolTableRecord
100
AcDbLinetypeTableRecord
  2
Continuous
 70
     0
  3
Solid line
 72
    65
 73
     0
 40
0.0
  0
LTYPE
  5
6E
330
5
100
AcDbSymbolTableRecord
100
AcDbLinetypeTableRecord
  2
CONTINOUS
 70
     0
  3
______________________________
 72
    65
 73
     0
 40
0.0
  0
LTYPE
  5
6F
330
5
100
AcDbSymbolTableRecord
100
AcDbLinetypeTableRecord
  2
DASHED
 70
     0
  3
__ __ __ __ __ __ __ __ __ __ __ __ __ __ __ __
 72
    65
 73
     2
 40
4.5
 49
3.0
 74
     0
 49
-1.5
 74
     0
  0
LTYPE
  5
70
330
5
100
AcDbSymbolTableRecord
100
AcDbLinetypeTableRecord
  2
PHANTOM
 70
     0
  3
______  __  __  ______  __  __  _____
 72
    65
 73
     6
 40
15.0
 49
7.5
 74
     0
 49
-1.5
 74
     0
 49
1.5
 74
     0
 49
-1.5
 74
     0
 49
1.5
 74
     0
 49
-1.5
 74
     0
  0
LTYPE
  5
71
330
5
100
AcDbSymbolTableRecord
100
AcDbLinetypeTableRecord
  2
CENTER
 70
     0
  3
____ _ ____ _ ____ _ ____ _ ____ _ ____
 72
    65
 73
     4
 40
12.0
 49
7.5
 74
     0
 49
-1.5
 74
     0
 49
1.5
 74
     0
 49
-1.5
 74
     0
  0
ENDTAB
  0
TABLE
  2
LAYER
  5
2
330
0
100
AcDbSymbolTable
 70
     2
  0
LAYER
  5
10
330
2
100
AcDbSymbolTableRecord
100
AcDbLayerTableRecord
  2
0
 70
     0
 62
     7
  6
Continuous
370
    -3
390
F
  0
LAYER
  5
22E
330
2
100
AcDbSymbolTableRecord
100
AcDbLayerTableRecord
  2
Defpoints
 70
     0
 62
     7
  6
Continuous
290
     0
370
    -3
390
F
  0
ENDTAB
  0
TABLE
  2
STYLE
  5
3
330
0
100
AcDbSymbolTable
 70
     1
  0
STYLE
  5
11
330
3
100
AcDbSymbolTableRecord
100
AcDbTextStyleTableRecord
  2
Standard
 70
     0
 40
0.0
 41
1.0
 50
0.0
 71
     0
 42
2.5
  3
ROMANS
  4
EXTFONT
  0
ENDTAB
  0
TABLE
  2
VIEW
  5
6
330
0
100
AcDbSymbolTable
 70
     0
  0
ENDTAB
  0
TABLE
  2
UCS
  5
7
330
0
100
AcDbSymbolTable
 70
     0
  0
ENDTAB
  0
TABLE
  2
APPID
  5
9
330
0
100
AcDbSymbolTable
 70
     2
  0
APPID
  5
12
330
9
100
AcDbSymbolTableRecord
100
AcDbRegAppTableRecord
  2
ACAD
 70
     0
  0
APPID
  5
321
330
9
100
AcDbSymbolTableRecord
100
AcDbRegAppTableRecord
  2
ACAD_MLEADERVER
 70
     0
  0
ENDTAB
  0
TABLE
  2
DIMSTYLE
  5
A
330
0
100
AcDbSymbolTable
 70
     1
100
AcDbDimStyleTable
  0
DIMSTYLE
105
27
102
{ACAD_REACTORS
330
227
330
246
330
253
330
260
330
26C
330
294
330
2AC
330
2C2
102
}
330
A
100
AcDbSymbolTableRecord
100
AcDbDimStyleTableRecord
  2
ISO-25
 70
     0
 41
2.5
 42
0.625
 43
3.75
 44
1.25
 73
     0
 74
     0
 77
     1
 78
     8
140
2.5
141
2.5
143
0.03937007874016
147
0.625
171
     3
172
     1
178
     0
271
     2
272
     2
274
     3
278
    44
283
     0
284
     8
340
11
  0
ENDTAB
  0
TABLE
  2
BLOCK_RECORD
  5
1
330
0
100
AcDbSymbolTable
 70
    12
  0
BLOCK_RECORD
  5
1F
330
1
100
AcDbSymbolTableRecord
100
AcDbBlockTableRecord
  2
*Model_Space
340
22
  0
BLOCK_RECORD
  5
1B
330
1
100
AcDbSymbolTableRecord
100
AcDbBlockTableRecord
  2
*Paper_Space
340
1E
  0
BLOCK_RECORD
  5
23
330
1
100
AcDbSymbolTableRecord
100
AcDbBlockTableRecord
  2
*Paper_Space0
340
26
  0
BLOCK_RECORD
  5
228
330
1
100
AcDbSymbolTableRecord
100
AcDbBlockTableRecord
  2
_Open
340
0
102
{BLKREFS
331
0
331
0
331
24E
331
24D
331
25B
331
25A
331
267
331
266
331
0
331
0
331
0
331
0
331
0
331
0
331
0
331
0
102
}
  0
BLOCK_RECORD
  5
22F
330
1
100
AcDbSymbolTableRecord
100
AcDbBlockTableRecord
  2
*D2
340
0
  0
BLOCK_RECORD
  5
247
330
1
100
AcDbSymbolTableRecord
100
AcDbBlockTableRecord
  2
*D3
340
0
  0
BLOCK_RECORD
  5
254
330
1
100
AcDbSymbolTableRecord
100
AcDbBlockTableRecord
  2
*D4
340
0
  0
BLOCK_RECORD
  5
261
330
1
100
AcDbSymbolTableRecord
100
AcDbBlockTableRecord
  2
*D5
340
0
  0
BLOCK_RECORD
  5
26D
330
1
100
AcDbSymbolTableRecord
100
AcDbBlockTableRecord
  2
*D6
340
0
  0
BLOCK_RECORD
  5
282
330
1
100
AcDbSymbolTableRecord
100
AcDbBlockTableRecord
  2
SYM0001
340
0
102
{BLKREFS
331
288
102
}
  0
BLOCK_RECORD
  5
28B
330
1
100
AcDbSymbolTableRecord
100
AcDbBlockTableRecord
  2
SYM0002
340
0
102
{BLKREFS
331
291
102
}
  0
BLOCK_RECORD
  5
295
330
1
100
AcDbSymbolTableRecord
100
AcDbBlockTableRecord
  2
*D9
340
0
  0
BLOCK_RECORD
  5
2AD
330
1
100
AcDbSymbolTableRecord
100
AcDbBlockTableRecord
  2
*D10
340
0
  0
BLOCK_RECORD
  5
2C3
330
1
100
AcDbSymbolTableRecord
100
AcDbBlockTableRecord
  2
*D11
340
0
  0
ENDTAB
  0
ENDSEC
  0
SECTION
  2
BLOCKS
  0
BLOCK
  5
20
330
1F
100
AcDbEntity
  8
0
100
AcDbBlockBegin
  2
*Model_Space
 70
     0
 10
0.0
 20
0.0
 30
0.0
  3
*Model_Space
  1

  0
ENDBLK
  5
21
330
1F
100
AcDbEntity
  8
0
100
AcDbBlockEnd
  0
BLOCK
  5
1C
330
1B
100
AcDbEntity
 67
     1
  8
0
100
AcDbBlockBegin
  2
*Paper_Space
 70
     0
 10
0.0
 20
0.0
 30
0.0
  3
*Paper_Space
  1

  0
ENDBLK
  5
1D
330
1B
100
AcDbEntity
 67
     1
  8
0
100
AcDbBlockEnd
  0
BLOCK
  5
24
330
23
100
AcDbEntity
  8
0
100
AcDbBlockBegin
  2
*Paper_Space0
 70
     0
 10
0.0
 20
0.0
 30
0.0
  3
*Paper_Space0
  1

  0
ENDBLK
  5
25
330
23
100
AcDbEntity
  8
0
100
AcDbBlockEnd
  0
BLOCK
  5
229
330
228
100
AcDbEntity
  8
0
100
AcDbBlockBegin
  2
_Open
 70
     0
 10
0.0
 20
0.0
 30
0.0
  3
_Open
  1

  0
LINE
  5
22B
330
228
100
AcDbEntity
  8
0
  6
ByBlock
 62
     0
370
    -2
100
AcDbLine
 10
-1.0
 20
0.166667
 30
0.0
 11
0.0
 21
0.0
 31
0.0
  0
LINE
  5
22C
330
228
100
AcDbEntity
  8
0
  6
ByBlock
 62
     0
370
    -2
100
AcDbLine
 10
-1.0
 20
-0.166667
 30
0.0
 11
0.0
 21
0.0
 31
0.0
  0
LINE
  5
22D
330
228
100
AcDbEntity
  8
0
  6
ByBlock
 62
     0
370
    -2
100
AcDbLine
 10
0.0
 20
0.0
 30
0.0
 11
-1.0
 21
0.0
 31
0.0
  0
ENDBLK
  5
22A
330
228
100
AcDbEntity
  8
0
100
AcDbBlockEnd
  0
BLOCK
  5
230
330
22F
100
AcDbEntity
  8
0
100
AcDbBlockBegin
  2
*D2
 70
     1
 10
0.0
 20
0.0
 30
0.0
  3
*D2
  1

  0
MTEXT
  5
23A
330
22F
100
AcDbEntity
  8
0
 62
     0
100
AcDbMText
 10
146.433271478309
 20
264.1995348950487
 30
0.0
 40
2.700000047683716
 41
0.0
 71
     5
 72
     1
  1
18
 73
     1
 44
1.0
  0
POINT
  5
23B
330
22F
100
AcDbEntity
  8
Defpoints
 62
     0
100
AcDbPoint
 10
135.7374142883358
 20
252.4400295452769
 30
0.0
  0
POINT
  5
23C
330
22F
100
AcDbEntity
  8
Defpoints
 62
     0
100
AcDbPoint
 10
137.5374142883358
 20
252.4400295452769
 30
0.0
  0
POINT
  5
23D
330
22F
100
AcDbEntity
  8
Defpoints
 62
     0
100
AcDbPoint
 10
137.5374142883358
 20
262.1745348592859
 30
0.0
  0
LINE
  5
23E
330
22F
100
AcDbEntity
  8
0
  6
Continuous
 62
     7
100
AcDbLine
 10
135.7374142883358
 20
254.9800295452769
 30
0.0
 11
135.7374142883358
 21
263.9745348592859
 31
0.0
  0
LINE
  5
23F
330
22F
100
AcDbEntity
  8
0
  6
Continuous
 62
     7
100
AcDbLine
 10
137.5374142883358
 20
254.9800295452769
 30
0.0
 11
137.5374142883358
 21
263.9745348592859
 31
0.0
  0
LINE
  5
240
330
22F
100
AcDbEntity
  8
0
  6
Continuous
 62
     7
100
AcDbLine
 10
129.3874142883358
 20
262.1745348592859
 30
0.0
 11
143.8874142883358
 21
262.1745348592859
 31
0.0
  0
LINE
  5
241
330
22F
100
AcDbEntity
  8
0
  6
Continuous
 62
     7
100
AcDbLine
 10
135.7374142883358
 20
262.1745348592859
 30
0.0
 11
132.6234142883358
 21
261.6255348592859
 31
0.0
  0
LINE
  5
242
330
22F
100
AcDbEntity
  8
0
  6
Continuous
 62
     7
100
AcDbLine
 10
135.7374142883358
 20
262.1745348592859
 30
0.0
 11
132.6234142883358
 21
262.7235348592858
 31
0.0
  0
LINE
  5
243
330
22F
100
AcDbEntity
  8
0
  6
Continuous
 62
     7
100
AcDbLine
 10
137.5374142883358
 20
262.1745348592859
 30
0.0
 11
140.6514142883358
 21
262.7235348592858
 31
0.0
  0
LINE
  5
244
330
22F
100
AcDbEntity
  8
0
  6
Continuous
 62
     7
100
AcDbLine
 10
137.5374142883358
 20
262.1745348592859
 30
0.0
 11
140.6514142883358
 21
261.6255348592859
 31
0.0
  0
LINE
  5
245
330
22F
100
AcDbEntity
  8
0
  6
Continuous
 62
     7
100
AcDbLine
 10
137.5374142883358
 20
262.1745348592859
 30
0.0
 11
144.7016829333515
 21
262.1745348592859
 31
0.0
  0
ENDBLK
  5
231
330
22F
100
AcDbEntity
  8
0
100
AcDbBlockEnd
  0
BLOCK
  5
248
330
247
100
AcDbEntity
  8
0
100
AcDbBlockBegin
  2
*D3
 70
     1
 10
0.0
 20
0.0
 30
0.0
  3
*D3
  1

  0
LINE
  5
24A
330
247
100
AcDbEntity
  8
0
 62
     0
370
    -2
100
AcDbLine
 10
59.80741428833581
 20
254.9800295452769
 30
0.0
 11
59.80741428833581
 21
263.9745348592859
 31
0.0
  0
LINE
  5
24B
330
247
100
AcDbEntity
  8
0
 62
     0
370
    -2
100
AcDbLine
 10
90.6074142883358
 20
254.9800295452769
 30
0.0
 11
90.6074142883358
 21
263.9745348592859
 31
0.0
  0
LINE
  5
24C
330
247
100
AcDbEntity
  8
0
 62
     0
370
    -2
100
AcDbLine
 10
62.9214142883358
 20
262.1745348592859
 30
0.0
 11
87.4934142883358
 21
262.1745348592859
 31
0.0
  0
INSERT
  5
24D
330
247
100
AcDbEntity
  8
0
 62
     0
370
    -2
100
AcDbBlockReference
  2
_Open
 10
59.80741428833581
 20
262.1745348592859
 30
0.0
 41
3.114
 42
3.114
 43
3.114
 50
180.0
  0
INSERT
  5
24E
330
247
100
AcDbEntity
  8
0
 62
     0
370
    -2
100
AcDbBlockReference
  2
_Open
 10
90.6074142883358
 20
262.1745348592859
 30
0.0
 41
3.114
 42
3.114
 43
3.114
  0
MTEXT
  5
24F
330
247
100
AcDbEntity
  8
0
 62
     0
100
AcDbMText
 10
75.2084142883358
 20
264.1995348950487
 30
0.0
 40
2.700000047683716
 41
0.0
 71
     5
 72
     1
  1
308
 73
     1
 44
1.0
  0
POINT
  5
250
330
247
100
AcDbEntity
  8
Defpoints
 62
     0
100
AcDbPoint
 10
59.80741428833581
 20
252.4400295452769
 30
0.0
  0
POINT
  5
251
330
247
100
AcDbEntity
  8
Defpoints
 62
     0
100
AcDbPoint
 10
90.6074142883358
 20
252.4400295452769
 30
0.0
  0
POINT
  5
252
330
247
100
AcDbEntity
  8
Defpoints
 62
     0
100
AcDbPoint
 10
90.6074142883358
 20
262.1745348592859
 30
0.0
  0
ENDBLK
  5
249
330
247
100
AcDbEntity
  8
0
100
AcDbBlockEnd
  0
BLOCK
  5
255
330
254
100
AcDbEntity
  8
0
100
AcDbBlockBegin
  2
*D4
 70
     1
 10
0.0
 20
0.0
 30
0.0
  3
*D4
  1

  0
LINE
  5
257
330
254
100
AcDbEntity
  8
0
 62
     0
370
    -2
100
AcDbLine
 10
93.04741428833582
 20
252.4400295452769
 30
0.0
 11
133.0069062096336
 21
252.440029545277
 31
0.0
  0
LINE
  5
258
330
254
100
AcDbEntity
  8
0
 62
     0
370
    -2
100
AcDbLine
 10
93.04741428833582
 20
62.8400295452769
 30
0.0
 11
133.0069062096337
 21
62.84002954527697
 31
0.0
  0
LINE
  5
259
330
254
100
AcDbEntity
  8
0
 62
     0
370
    -2
100
AcDbLine
 10
114.4595075396878
 20
249.326029545277
 30
0.0
 11
114.4595075396878
 21
65.95402954527694
 31
0.0
  0
INSERT
  5
25A
330
254
100
AcDbEntity
  8
0
 62
     0
370
    -2
100
AcDbBlockReference
  2
_Open
 10
114.4595075396878
 20
252.440029545277
 30
0.0
 41
3.114
 42
3.114
 43
3.114
 50
90.00000000000001
  0
INSERT
  5
25B
330
254
100
AcDbEntity
  8
0
 62
     0
370
    -2
100
AcDbBlockReference
  2
_Open
 10
114.4595075396878
 20
62.84002954527693
 30
0.0
 41
3.114
 42
3.114
 43
3.114
 50
270.0
  0
MTEXT
  5
25C
330
254
100
AcDbEntity
  8
0
 62
     0
100
AcDbMText
 10
112.434507503925
 20
157.3010412386505
 30
0.0
 40
2.700000047683716
 41
0.0
 71
     5
 72
     1
  1
1896
 11
-3.747588268776899E-16
 21
1.0
 31
0.0
 73
     1
 44
1.0
  0
POINT
  5
25D
330
254
100
AcDbEntity
  8
Defpoints
 62
     0
100
AcDbPoint
 10
90.50741428833581
 20
252.4400295452769
 30
0.0
  0
POINT
  5
25E
330
254
100
AcDbEntity
  8
Defpoints
 62
     0
100
AcDbPoint
 10
90.50741428833581
 20
62.84002954527689
 30
0.0
  0
POINT
  5
25F
330
254
100
AcDbEntity
  8
Defpoints
 62
     0
100
AcDbPoint
 10
114.4585075396878
 20
62.8400295452769
 30
0.0
  0
ENDBLK
  5
256
330
254
100
AcDbEntity
  8
0
100
AcDbBlockEnd
  0
BLOCK
  5
262
330
261
100
AcDbEntity
  8
0
100
AcDbBlockBegin
  2
*D5
 70
     1
 10
0.0
 20
0.0
 30
0.0
  3
*D5
  1

  0
LINE
  5
264
330
261
100
AcDbEntity
  8
0
 62
     0
370
    -2
100
AcDbLine
 10
84.8074142883358
 20
58.03630117562754
 30
0.0
 11
84.80741428833579
 21
51.71326256389009
 31
0.0
  0
LINE
  5
265
330
261
100
AcDbEntity
  8
0
 62
     0
370
    -2
100
AcDbLine
 10
68.72141428833581
 20
53.51326256389009
 30
0.0
 11
81.69341428833579
 21
53.51326256389009
 31
0.0
  0
INSERT
  5
266
330
261
100
AcDbEntity
  8
0
 62
     0
370
    -2
100
AcDbBlockReference
  2
_Open
 10
65.6074142883358
 20
53.51326256389009
 30
0.0
 41
3.114
 42
3.114
 43
3.114
 50
180.0
  0
INSERT
  5
267
330
261
100
AcDbEntity
  8
0
 62
     0
370
    -2
100
AcDbBlockReference
  2
_Open
 10
84.80741428833579
 20
53.51326256389009
 30
0.0
 41
3.114
 42
3.114
 43
3.114
  0
MTEXT
  5
268
330
261
100
AcDbEntity
  8
0
 62
     0
100
AcDbMText
 10
75.20841428833582
 20
55.53826259965287
 30
0.0
 40
2.700000047683716
 41
0.0
 71
     5
 72
     1
  1
192
 73
     1
 44
1.0
  0
POINT
  5
269
330
261
100
AcDbEntity
  8
Defpoints
 62
     0
100
AcDbPoint
 10
65.60741428833582
 20
60.17630117562753
 30
0.0
  0
POINT
  5
26A
330
261
100
AcDbEntity
  8
Defpoints
 62
     0
100
AcDbPoint
 10
84.8074142883358
 20
60.57630117562753
 30
0.0
  0
POINT
  5
26B
330
261
100
AcDbEntity
  8
Defpoints
 62
     0
100
AcDbPoint
 10
84.80741428833579
 20
53.51226256389009
 30
0.0
  0
ENDBLK
  5
263
330
261
100
AcDbEntity
  8
0
100
AcDbBlockEnd
  0
BLOCK
  5
26E
330
26D
100
AcDbEntity
  8
0
100
AcDbBlockBegin
  2
*D6
 70
     1
 10
0.0
 20
0.0
 30
0.0
  3
*D6
  1

  0
MTEXT
  5
277
330
26D
100
AcDbEntity
  8
0
 62
     0
100
AcDbMText
 10
99.6961286245721
 20
55.53826259965287
 30
0.0
 40
2.700000047683716
 41
0.0
 71
     5
 72
     1
  1
58
 73
     1
 44
1.0
  0
POINT
  5
278
330
26D
100
AcDbEntity
  8
Defpoints
 62
     0
100
AcDbPoint
 10
84.8074142883358
 20
60.57630117562753
 30
0.0
  0
POINT
  5
279
330
26D
100
AcDbEntity
  8
Defpoints
 62
     0
100
AcDbPoint
 10
90.6074142883358
 20
62.84002954527692
 30
0.0
  0
POINT
  5
27A
330
26D
100
AcDbEntity
  8
Defpoints
 62
     0
100
AcDbPoint
 10
90.60741428833579
 20
53.51226256389009
 30
0.0
  0
LINE
  5
27B
330
26D
100
AcDbEntity
  8
0
  6
Continuous
 62
     7
100
AcDbLine
 10
90.6074142883358
 20
60.30002954527692
 30
0.0
 11
90.6074142883358
 21
51.71226256389009
 31
0.0
  0
LINE
  5
27C
330
26D
100
AcDbEntity
  8
0
  6
Continuous
 62
     7
100
AcDbLine
 10
78.45741428833581
 20
53.51226256389009
 30
0.0
 11
96.9574142883358
 21
53.51226256389009
 31
0.0
  0
LINE
  5
27D
330
26D
100
AcDbEntity
  8
0
  6
Continuous
 62
     7
100
AcDbLine
 10
84.8074142883358
 20
53.51226256389009
 30
0.0
 11
81.6934142883358
 21
52.96326256389009
 31
0.0
  0
LINE
  5
27E
330
26D
100
AcDbEntity
  8
0
  6
Continuous
 62
     7
100
AcDbLine
 10
84.8074142883358
 20
53.51226256389009
 30
0.0
 11
81.6934142883358
 21
54.06126256389009
 31
0.0
  0
LINE
  5
27F
330
26D
100
AcDbEntity
  8
0
  6
Continuous
 62
     7
100
AcDbLine
 10
90.6074142883358
 20
53.51226256389009
 30
0.0
 11
93.72141428833581
 21
54.06126256389009
 31
0.0
  0
LINE
  5
280
330
26D
100
AcDbEntity
  8
0
  6
Continuous
 62
     7
100
AcDbLine
 10
90.6074142883358
 20
53.51226256389009
 30
0.0
 11
93.72141428833581
 21
52.96326256389009
 31
0.0
  0
LINE
  5
281
330
26D
100
AcDbEntity
  8
0
  6
Continuous
 62
     7
100
AcDbLine
 10
90.6074142883358
 20
53.51226256389009
 30
0.0
 11
98.56936260241481
 21
53.51226256389009
 31
0.0
  0
ENDBLK
  5
26F
330
26D
100
AcDbEntity
  8
0
100
AcDbBlockEnd
  0
BLOCK
  5
289
330
282
100
AcDbEntity
  8
0
100
AcDbBlockBegin
  2
SYM0001
 70
     0
 10
0.0
 20
0.0
 30
0.0
  3
SYM0001
  1

  0
LINE
  5
283
330
282
100
AcDbEntity
  8
0
  6
Continuous
 62
     7
100
AcDbLine
 10
0.0
 20
0.0
 30
0.0
 11
33.8835223139474
 21
-26.58045537825313
 31
0.0
  0
LINE
  5
284
330
282
100
AcDbEntity
  8
0
  6
Continuous
 62
     7
100
AcDbLine
 10
0.0
 20
0.0
 30
0.0
 11
2.788931339192601
 21
-1.490053349806431
 31
0.0
  0
LINE
  5
285
330
282
100
AcDbEntity
  8
0
  6
Continuous
 62
     7
100
AcDbLine
 10
0.0
 20
0.0
 30
0.0
 11
2.111230495618173
 21
-2.353954713747044
 31
0.0
  0
LINE
  5
286
330
282
100
AcDbEntity
  8
0
  6
Continuous
 62
     7
100
AcDbLine
 10
33.88352231394734
 20
-26.58045537825319
 30
0.0
 11
50.23191195593671
 21
-26.58045537825316
 31
0.0
  0
MTEXT
  5
287
330
282
100
AcDbEntity
  8
0
 62
     7
100
AcDbMText
 10
35.6140548573573
 20
-25.90545536633218
 30
0.0
 40
2.700000047683716
 41
0.0
 71
     7
 72
     1
  1
{\W0.833333;\Q15;Ｍ４タップ}
 73
     1
 44
1.0
  0
ENDBLK
  5
28A
330
282
100
AcDbEntity
  8
0
100
AcDbBlockEnd
  0
BLOCK
  5
292
330
28B
100
AcDbEntity
  8
0
100
AcDbBlockBegin
  2
SYM0002
 70
     0
 10
0.0
 20
0.0
 30
0.0
  3
SYM0002
  1

  0
LINE
  5
28C
330
28B
100
AcDbEntity
  8
0
  6
Continuous
 62
     7
100
AcDbLine
 10
0.0
 20
0.0
 30
0.0
 11
17.28263979600472
 21
-12.0862524367873
 31
0.0
  0
LINE
  5
28D
330
28B
100
AcDbEntity
  8
0
  6
Continuous
 62
     7
100
AcDbLine
 10
0.0
 20
0.0
 30
0.0
 11
2.866520512442932
 21
-1.33471238540141
 31
0.0
  0
LINE
  5
28E
330
28B
100
AcDbEntity
  8
0
  6
Continuous
 62
     7
100
AcDbLine
 10
0.0
 20
0.0
 30
0.0
 11
2.237264091222684
 21
-2.234512561192169
 31
0.0
  0
LINE
  5
28F
330
28B
100
AcDbEntity
  8
0
  6
Continuous
 62
     7
100
AcDbLine
 10
17.28263979600472
 20
-12.0862524367873
 30
0.0
 11
45.75272254610323
 21
-12.08625243678732
 31
0.0
  0
MTEXT
  5
290
330
28B
100
AcDbEntity
  8
0
 62
     7
100
AcDbMText
 10
20.33486549520752
 20
-11.41125242486639
 30
0.0
 40
2.700000047683716
 41
0.0
 71
     7
 72
     1
  1
{\W0.833333;\Q15;６－クッションゴム}
 73
     1
 44
1.0
  0
ENDBLK
  5
293
330
28B
100
AcDbEntity
  8
0
100
AcDbBlockEnd
  0
BLOCK
  5
296
330
295
100
AcDbEntity
  8
0
100
AcDbBlockBegin
  2
*D9
 70
     1
 10
0.0
 20
0.0
 30
0.0
  3
*D9
  1

  0
MTEXT
  5
2A0
330
295
100
AcDbEntity
  8
0
 62
     0
100
AcDbMText
 10
112.434507503925
 20
53.39588673525009
 30
0.0
 40
2.700000047683716
 41
0.0
 71
     5
 72
     1
  1
18
 11
0.0
 21
1.0
 31
0.0
 73
     1
 44
1.0
  0
POINT
  5
2A1
330
295
100
AcDbEntity
  8
Defpoints
 62
     0
100
AcDbPoint
 10
90.60741428833582
 20
42.70002954527689
 30
0.0
  0
POINT
  5
2A2
330
295
100
AcDbEntity
  8
Defpoints
 62
     0
100
AcDbPoint
 10
90.60741428833582
 20
44.5000295452769
 30
0.0
  0
POINT
  5
2A3
330
295
100
AcDbEntity
  8
Defpoints
 62
     0
100
AcDbPoint
 10
114.4585075396878
 20
44.5000295452769
 30
0.0
  0
LINE
  5
2A4
330
295
100
AcDbEntity
  8
0
  6
Continuous
 62
     7
100
AcDbLine
 10
93.14741428833582
 20
42.70002954527689
 30
0.0
 11
116.2585075396878
 21
42.70002954527689
 31
0.0
  0
LINE
  5
2A5
330
295
100
AcDbEntity
  8
0
  6
Continuous
 62
     7
100
AcDbLine
 10
93.14741428833582
 20
44.5000295452769
 30
0.0
 11
116.2585075396878
 21
44.5000295452769
 31
0.0
  0
LINE
  5
2A6
330
295
100
AcDbEntity
  8
0
  6
Continuous
 62
     7
100
AcDbLine
 10
114.4585075396878
 20
36.35002954527689
 30
0.0
 11
114.4585075396878
 21
50.8500295452769
 31
0.0
  0
LINE
  5
2A7
330
295
100
AcDbEntity
  8
0
  6
Continuous
 62
     7
100
AcDbLine
 10
114.4585075396878
 20
42.70002954527689
 30
0.0
 11
115.0075075396878
 21
39.58602954527689
 31
0.0
  0
LINE
  5
2A8
330
295
100
AcDbEntity
  8
0
  6
Continuous
 62
     7
100
AcDbLine
 10
114.4585075396878
 20
42.70002954527689
 30
0.0
 11
113.9095075396878
 21
39.58602954527689
 31
0.0
  0
LINE
  5
2A9
330
295
100
AcDbEntity
  8
0
  6
Continuous
 62
     7
100
AcDbLine
 10
114.4585075396878
 20
44.5000295452769
 30
0.0
 11
113.9095075396878
 21
47.6140295452769
 31
0.0
  0
LINE
  5
2AA
330
295
100
AcDbEntity
  8
0
  6
Continuous
 62
     7
100
AcDbLine
 10
114.4585075396878
 20
44.5000295452769
 30
0.0
 11
115.0075075396878
 21
47.6140295452769
 31
0.0
  0
LINE
  5
2AB
330
295
100
AcDbEntity
  8
0
  6
Continuous
 62
     7
100
AcDbLine
 10
114.4585075396878
 20
44.5000295452769
 30
0.0
 11
114.4585075396878
 21
51.1287829601334
 31
0.0
  0
ENDBLK
  5
297
330
295
100
AcDbEntity
  8
0
100
AcDbBlockEnd
  0
BLOCK
  5
2AE
330
2AD
100
AcDbEntity
  8
0
100
AcDbBlockBegin
  2
*D10
 70
     1
 10
0.0
 20
0.0
 30
0.0
  3
*D10
  1

  0
MTEXT
  5
2B7
330
2AD
100
AcDbEntity
  8
0
 62
     0
100
AcDbMText
 10
62.70841428833582
 20
55.53826259965287
 30
0.0
 40
2.700000047683716
 41
0.0
 71
     5
 72
     1
  1
58
 73
     1
 44
1.0
  0
POINT
  5
2B8
330
2AD
100
AcDbEntity
  8
Defpoints
 62
     0
100
AcDbPoint
 10
59.80741428833581
 20
62.84002954527695
 30
0.0
  0
POINT
  5
2B9
330
2AD
100
AcDbEntity
  8
Defpoints
 62
     0
100
AcDbPoint
 10
65.60741428833583
 20
60.57630117562753
 30
0.0
  0
POINT
  5
2BA
330
2AD
100
AcDbEntity
  8
Defpoints
 62
     0
100
AcDbPoint
 10
65.60741428833582
 20
53.51226256389009
 30
0.0
  0
LINE
  5
2BB
330
2AD
100
AcDbEntity
  8
0
  6
Continuous
 62
     7
100
AcDbLine
 10
59.80741428833581
 20
60.30002954527695
 30
0.0
 11
59.80741428833581
 21
51.71226256389009
 31
0.0
  0
LINE
  5
2BC
330
2AD
100
AcDbEntity
  8
0
  6
Continuous
 62
     7
100
AcDbLine
 10
65.60741428833583
 20
58.03630117562754
 30
0.0
 11
65.60741428833583
 21
51.71226256389009
 31
0.0
  0
LINE
  5
2BD
330
2AD
100
AcDbEntity
  8
0
  6
Continuous
 62
     7
100
AcDbLine
 10
53.4574142883358
 20
53.51226256389009
 30
0.0
 11
71.95741428833583
 21
53.51226256389009
 31
0.0
  0
LINE
  5
2BE
330
2AD
100
AcDbEntity
  8
0
  6
Continuous
 62
     7
100
AcDbLine
 10
59.80741428833581
 20
53.51226256389009
 30
0.0
 11
56.69341428833581
 21
52.96326256389009
 31
0.0
  0
LINE
  5
2BF
330
2AD
100
AcDbEntity
  8
0
  6
Continuous
 62
     7
100
AcDbLine
 10
59.80741428833581
 20
53.51226256389009
 30
0.0
 11
56.69341428833581
 21
54.06126256389009
 31
0.0
  0
LINE
  5
2C0
330
2AD
100
AcDbEntity
  8
0
  6
Continuous
 62
     7
100
AcDbLine
 10
65.60741428833583
 20
53.51226256389009
 30
0.0
 11
68.72141428833584
 21
54.06126256389009
 31
0.0
  0
LINE
  5
2C1
330
2AD
100
AcDbEntity
  8
0
  6
Continuous
 62
     7
100
AcDbLine
 10
65.60741428833583
 20
53.51226256389009
 30
0.0
 11
68.72141428833584
 21
52.96326256389009
 31
0.0
  0
ENDBLK
  5
2AF
330
2AD
100
AcDbEntity
  8
0
100
AcDbBlockEnd
  0
BLOCK
  5
2C4
330
2C3
100
AcDbEntity
  8
0
100
AcDbBlockBegin
  2
*D11
 70
     1
 10
0.0
 20
0.0
 30
0.0
  3
*D11
  1

  0
MTEXT
  5
2CE
330
2C3
100
AcDbEntity
  8
0
 62
     0
100
AcDbMText
 10
148.4818429409403
 20
55.53826259965287
 30
0.0
 40
2.700000047683716
 41
0.0
 71
     5
 72
     1
  1
19.2
 73
     1
 44
1.0
  0
POINT
  5
2CF
330
2C3
100
AcDbEntity
  8
Defpoints
 62
     0
100
AcDbPoint
 10
135.7374142883358
 20
62.84002954527689
 30
0.0
  0
POINT
  5
2D0
330
2C3
100
AcDbEntity
  8
Defpoints
 62
     0
100
AcDbPoint
 10
137.6574142883358
 20
61.84002954527692
 30
0.0
  0
POINT
  5
2D1
330
2C3
100
AcDbEntity
  8
Defpoints
 62
     0
100
AcDbPoint
 10
137.6574142883358
 20
53.51226256389009
 30
0.0
  0
LINE
  5
2D2
330
2C3
100
AcDbEntity
  8
0
  6
Continuous
 62
     7
100
AcDbLine
 10
135.7374142883358
 20
60.30002954527689
 30
0.0
 11
135.7374142883358
 21
51.71226256389009
 31
0.0
  0
LINE
  5
2D3
330
2C3
100
AcDbEntity
  8
0
  6
Continuous
 62
     7
100
AcDbLine
 10
137.6574142883358
 20
59.30002954527692
 30
0.0
 11
137.6574142883358
 21
51.71226256389009
 31
0.0
  0
LINE
  5
2D4
330
2C3
100
AcDbEntity
  8
0
  6
Continuous
 62
     7
100
AcDbLine
 10
129.3874142883358
 20
53.51226256389009
 30
0.0
 11
144.0074142883358
 21
53.51226256389009
 31
0.0
  0
LINE
  5
2D5
330
2C3
100
AcDbEntity
  8
0
  6
Continuous
 62
     7
100
AcDbLine
 10
135.7374142883358
 20
53.51226256389009
 30
0.0
 11
132.6234142883358
 21
52.96326256389009
 31
0.0
  0
LINE
  5
2D6
330
2C3
100
AcDbEntity
  8
0
  6
Continuous
 62
     7
100
AcDbLine
 10
135.7374142883358
 20
53.51226256389009
 30
0.0
 11
132.6234142883358
 21
54.06126256389009
 31
0.0
  0
LINE
  5
2D7
330
2C3
100
AcDbEntity
  8
0
  6
Continuous
 62
     7
100
AcDbLine
 10
137.6574142883358
 20
53.51226256389009
 30
0.0
 11
140.7714142883358
 21
54.06126256389009
 31
0.0
  0
LINE
  5
2D8
330
2C3
100
AcDbEntity
  8
0
  6
Continuous
 62
     7
100
AcDbLine
 10
137.6574142883358
 20
53.51226256389009
 30
0.0
 11
140.7714142883358
 21
52.96326256389009
 31
0.0
  0
LINE
  5
2D9
330
2C3
100
AcDbEntity
  8
0
  6
Continuous
 62
     7
100
AcDbLine
 10
137.6574142883358
 20
53.51226256389009
 30
0.0
 11
149.7681496646018
 21
53.51226256389009
 31
0.0
  0
ENDBLK
  5
2C5
330
2C3
100
AcDbEntity
  8
0
100
AcDbBlockEnd
  0
ENDSEC
  0
SECTION
  2
ENTITIES
  0
POINT
  5
72
330
1F
100
AcDbEntity
  8
0
 62
     7
100
AcDbPoint
 10
0.0
 20
284.0
 30
0.0
  0
POINT
  5
73
330
1F
100
AcDbEntity
  8
0
 62
     7
100
AcDbPoint
 10
257.625
 20
279.0
 30
0.0
  0
POINT
  5
74
330
1F
100
AcDbEntity
  8
0
 62
     7
100
AcDbPoint
 10
348.875
 20
279.0
 30
0.0
  0
POINT
  5
75
330
1F
100
AcDbEntity
  8
0
 62
     7
100
AcDbPoint
 10
299.75
 20
279.0
 30
0.0
  0
POINT
  5
76
330
1F
100
AcDbEntity
  8
0
 62
     7
100
AcDbPoint
 10
250.625
 20
279.0
 30
0.0
  0
POINT
  5
77
330
1F
100
AcDbEntity
  8
0
 62
     7
100
AcDbPoint
 10
201.5
 20
279.0
 30
0.0
  0
POINT
  5
78
330
1F
100
AcDbEntity
  8
0
 62
     7
100
AcDbPoint
 10
152.375
 20
279.0
 30
0.0
  0
POINT
  5
79
330
1F
100
AcDbEntity
  8
0
 62
     7
100
AcDbPoint
 10
103.25
 20
279.0
 30
0.0
  0
POINT
  5
7A
330
1F
100
AcDbEntity
  8
0
 62
     7
100
AcDbPoint
 10
54.125
 20
279.0
 30
0.0
  0
POINT
  5
7B
330
1F
100
AcDbEntity
  8
0
 62
     7
100
AcDbPoint
 10
5.0
 20
279.0
 30
0.0
  0
POINT
  5
7C
330
1F
100
AcDbEntity
  8
0
 62
     7
100
AcDbPoint
 10
398.0
 20
279.0
 30
0.0
  0
POINT
  5
7D
330
1F
100
AcDbEntity
  8
0
 62
     7
100
AcDbPoint
 10
398.0
 20
279.0
 30
0.0
  0
POINT
  5
7E
330
1F
100
AcDbEntity
  8
0
 62
     7
100
AcDbPoint
 10
398.0
 20
233.3333333333333
 30
0.0
  0
POINT
  5
7F
330
1F
100
AcDbEntity
  8
0
 62
     7
100
AcDbPoint
 10
398.0
 20
187.6666666666667
 30
0.0
  0
POINT
  5
80
330
1F
100
AcDbEntity
  8
0
 62
     7
100
AcDbPoint
 10
398.0
 20
142.0
 30
0.0
  0
POINT
  5
81
330
1F
100
AcDbEntity
  8
0
 62
     7
100
AcDbPoint
 10
398.0
 20
96.33333333333334
 30
0.0
  0
POINT
  5
82
330
1F
100
AcDbEntity
  8
0
 62
     7
100
AcDbPoint
 10
398.0
 20
50.66666666666669
 30
0.0
  0
POINT
  5
83
330
1F
100
AcDbEntity
  8
0
 62
     7
100
AcDbPoint
 10
398.0
 20
5.000000000000028
 30
0.0
  0
POINT
  5
84
330
1F
100
AcDbEntity
  8
0
 62
     7
100
AcDbPoint
 10
333.75
 20
15.0
 30
0.0
  0
POINT
  5
85
330
1F
100
AcDbEntity
  8
0
 62
     7
100
AcDbPoint
 10
15.68516679833374
 20
17.34281636024127
 30
0.0
  0
POINT
  5
86
330
1F
100
AcDbEntity
  8
0
 62
     7
100
AcDbPoint
 10
15.23601066503869
 20
22.29976838552138
 30
0.0
  0
POINT
  5
87
330
1F
100
AcDbEntity
  8
0
 62
     7
100
AcDbPoint
 10
7.417717609882146
 20
17.34281636024127
 30
0.0
  0
POINT
  5
88
330
1F
100
AcDbEntity
  8
0
 62
     7
100
AcDbPoint
 10
7.270897339488727
 20
22.64715695633092
 30
0.0
  0
POINT
  5
89
330
1F
100
AcDbEntity
  8
0
 62
     7
100
AcDbPoint
 10
263.625
 20
279.0
 30
0.0
  0
POINT
  5
8A
330
1F
100
AcDbEntity
  8
0
 62
     7
100
AcDbPoint
 10
348.0
 20
279.0
 30
0.0
  0
POINT
  5
8B
330
1F
100
AcDbEntity
  8
0
 62
     7
100
AcDbPoint
 10
398.0
 20
279.0
 30
0.0
  0
POINT
  5
8C
330
1F
100
AcDbEntity
  8
0
 62
     7
100
AcDbPoint
 10
245.75
 20
13.25
 30
0.0
  0
POINT
  5
8D
330
1F
100
AcDbEntity
  8
0
 62
     7
100
AcDbPoint
 10
253.0
 20
10.0
 30
0.0
  0
POINT
  5
8E
330
1F
100
AcDbEntity
  8
0
 62
     7
100
AcDbPoint
 10
7.417717609882146
 20
12.81540370942253
 30
0.0
  0
POINT
  5
8F
330
1F
100
AcDbEntity
  8
0
 62
     7
100
AcDbPoint
 10
245.75
 20
23.25
 30
0.0
  0
POINT
  5
90
330
1F
100
AcDbEntity
  8
0
 62
     7
100
AcDbPoint
 10
253.0
 20
20.0
 30
0.0
  0
POINT
  5
91
330
1F
100
AcDbEntity
  8
0
 62
     7
100
AcDbPoint
 10
7.417717609882146
 20
7.500614945417936
 30
0.0
  0
POINT
  5
92
330
1F
100
AcDbEntity
  8
0
 62
     7
100
AcDbPoint
 10
15.48832277003729
 20
12.42171565282959
 30
0.0
  0
POINT
  5
93
330
1F
100
AcDbEntity
  8
0
 62
     7
100
AcDbPoint
 10
15.88201082663022
 20
7.69745897371439
 30
0.0
  0
POINT
  5
94
330
1F
100
AcDbEntity
  8
0
 62
     7
100
AcDbPoint
 10
333.75
 20
30.0
 30
0.0
  0
POINT
  5
95
330
1F
100
AcDbEntity
  8
0
 62
     7
100
AcDbPoint
 10
336.5
 20
13.25
 30
0.0
  0
POINT
  5
96
330
1F
100
AcDbEntity
  8
0
 62
     7
100
AcDbPoint
 10
338.25
 20
9.0
 30
0.0
  0
POINT
  5
97
330
1F
100
AcDbEntity
  8
0
 62
     7
100
AcDbPoint
 10
0.0
 20
0.0
 30
0.0
  0
POINT
  5
98
330
1F
100
AcDbEntity
  8
0
 62
     7
100
AcDbPoint
 10
403.0
 20
0.0
 30
0.0
  0
POINT
  5
99
330
1F
100
AcDbEntity
  8
0
 62
     7
100
AcDbPoint
 10
403.0
 20
284.0
 30
0.0
  0
POINT
  5
9A
330
1F
100
AcDbEntity
  8
0
 62
     7
100
AcDbPoint
 10
1.0
 20
2.5
 30
0.0
  0
POINT
  5
9B
330
1F
100
AcDbEntity
  8
0
 62
     7
100
AcDbPoint
 10
345.4375
 20
20.0
 30
0.0
  0
POINT
  5
9C
330
1F
100
AcDbEntity
  8
0
 62
     7
100
AcDbPoint
 10
342.4612191565195
 20
20.0
 30
0.0
  0
POINT
  5
9D
330
1F
100
AcDbEntity
  8
0
 62
     7
100
AcDbPoint
 10
345.4375
 20
20.0
 30
0.0
  0
POINT
  5
9E
330
1F
100
AcDbEntity
  8
0
 62
     7
100
AcDbPoint
 10
7.270897339488727
 20
22.64715695633092
 30
0.0
  0
POINT
  5
9F
330
1F
100
AcDbEntity
  8
0
 62
     7
100
AcDbPoint
 10
191.0574142883358
 20
62.84002954527689
 30
0.0
  0
POINT
  5
A0
330
1F
100
AcDbEntity
  8
0
 62
     7
100
AcDbPoint
 10
210.2574142883358
 20
62.84002954527689
 30
0.0
  0
POINT
  5
A1
330
1F
100
AcDbEntity
  8
0
 62
     7
100
AcDbPoint
 10
200.6574142883358
 20
251.4400295452769
 30
0.0
  0
POINT
  5
A2
330
1F
100
AcDbEntity
  8
0
 62
     7
100
AcDbPoint
 10
344.757186462954
 20
209.2122215230848
 30
0.0
  0
POINT
  5
A3
330
1F
100
AcDbEntity
  8
0
 62
     7
100
AcDbPoint
 10
331.257186462954
 20
209.2122215230848
 30
0.0
  0
POINT
  5
A4
330
1F
100
AcDbEntity
  8
0
 62
     7
100
AcDbPoint
 10
317.757186462954
 20
209.2122215230848
 30
0.0
  0
POINT
  5
A5
330
1F
100
AcDbEntity
  8
0
 62
     7
100
AcDbPoint
 10
241.4534754297999
 20
13.14125258160001
 30
0.0
  0
LINE
  5
A6
330
1F
100
AcDbEntity
  8
0
  6
Continuous
 62
     7
100
AcDbLine
 10
5.0
 20
279.0
 30
0.0
 11
398.0
 21
279.0
 31
0.0
  0
LINE
  5
A7
330
1F
100
AcDbEntity
  8
0
  6
Continuous
 62
     7
100
AcDbLine
 10
5.0
 20
5.0
 30
0.0
 11
398.0
 21
5.0
 31
0.0
  0
LINE
  5
A8
330
1F
100
AcDbEntity
  8
0
  6
Continuous
 62
     7
100
AcDbLine
 10
5.0
 20
279.0
 30
0.0
 11
5.0
 21
5.0
 31
0.0
  0
LINE
  5
A9
330
1F
100
AcDbEntity
  8
0
  6
Continuous
 62
     7
100
AcDbLine
 10
398.0
 20
279.0
 30
0.0
 11
398.0
 21
5.0
 31
0.0
  0
LINE
  5
AA
330
1F
100
AcDbEntity
  8
0
  6
Continuous
 62
     7
100
AcDbLine
 10
54.125
 20
284.0
 30
0.0
 11
54.125
 21
279.0
 31
0.0
  0
LINE
  5
AB
330
1F
100
AcDbEntity
  8
0
  6
Continuous
 62
     7
100
AcDbLine
 10
201.5
 20
284.0
 30
0.0
 11
201.5
 21
279.0
 31
0.0
  0
LINE
  5
AC
330
1F
100
AcDbEntity
  8
0
  6
Continuous
 62
     7
100
AcDbLine
 10
152.375
 20
284.0
 30
0.0
 11
152.375
 21
279.0
 31
0.0
  0
LINE
  5
AD
330
1F
100
AcDbEntity
  8
0
  6
Continuous
 62
     7
100
AcDbLine
 10
103.25
 20
284.0
 30
0.0
 11
103.25
 21
279.0
 31
0.0
  0
LINE
  5
AE
330
1F
100
AcDbEntity
  8
0
  6
Continuous
 62
     7
100
AcDbLine
 10
250.625
 20
284.0
 30
0.0
 11
250.625
 21
279.0
 31
0.0
  0
LINE
  5
AF
330
1F
100
AcDbEntity
  8
0
  6
Continuous
 62
     7
100
AcDbLine
 10
299.75
 20
284.0
 30
0.0
 11
299.75
 21
279.0
 31
0.0
  0
LINE
  5
B0
330
1F
100
AcDbEntity
  8
0
  6
Continuous
 62
     7
100
AcDbLine
 10
348.875
 20
284.0
 30
0.0
 11
348.875
 21
279.0
 31
0.0
  0
LINE
  5
B1
330
1F
100
AcDbEntity
  8
0
  6
Continuous
 62
     7
100
AcDbLine
 10
13.0
 20
25.0
 30
0.0
 11
13.0
 21
5.0
 31
0.0
  0
LINE
  5
B2
330
1F
100
AcDbEntity
  8
0
  6
Continuous
 62
     7
100
AcDbLine
 10
82.25
 20
25.0
 30
0.0
 11
82.25
 21
5.0
 31
0.0
  0
LINE
  5
B3
330
1F
100
AcDbEntity
  8
0
  6
Continuous
 62
     7
100
AcDbLine
 10
159.5
 20
25.0
 30
0.0
 11
159.5
 21
5.0
 31
0.0
  0
LINE
  5
B4
330
1F
100
AcDbEntity
  8
0
  6
Continuous
 62
     7
100
AcDbLine
 10
101.5625
 20
25.0
 30
0.0
 11
101.5625
 21
23.3
 31
0.0
  0
LINE
  5
B5
330
1F
100
AcDbEntity
  8
0
  6
Continuous
 62
     7
100
AcDbLine
 10
5.0
 20
5.000000000000028
 30
0.0
 11
0.0
 21
5.000000000000028
 31
0.0
  0
LINE
  5
B6
330
1F
100
AcDbEntity
  8
0
  6
Continuous
 62
     7
100
AcDbLine
 10
5.0
 20
50.66666666666669
 30
0.0
 11
0.0
 21
50.66666666666669
 31
0.0
  0
LINE
  5
B7
330
1F
100
AcDbEntity
  8
0
  6
Continuous
 62
     7
100
AcDbLine
 10
5.0
 20
96.33333333333334
 30
0.0
 11
0.0
 21
96.33333333333334
 31
0.0
  0
LINE
  5
B8
330
1F
100
AcDbEntity
  8
0
  6
Continuous
 62
     7
100
AcDbLine
 10
5.0
 20
142.0
 30
0.0
 11
0.0
 21
142.0
 31
0.0
  0
LINE
  5
B9
330
1F
100
AcDbEntity
  8
0
  6
Continuous
 62
     7
100
AcDbLine
 10
5.0
 20
187.6666666666667
 30
0.0
 11
0.0
 21
187.6666666666667
 31
0.0
  0
LINE
  5
BA
330
1F
100
AcDbEntity
  8
0
  6
Continuous
 62
     7
100
AcDbLine
 10
5.0
 20
233.3333333333333
 30
0.0
 11
0.0
 21
233.3333333333333
 31
0.0
  0
LINE
  5
BB
330
1F
100
AcDbEntity
  8
0
  6
Continuous
 62
     7
100
AcDbLine
 10
357.125
 20
25.0
 30
0.0
 11
357.125
 21
15.0
 31
0.0
  0
LINE
  5
BC
330
1F
100
AcDbEntity
  8
0
  6
Continuous
 62
     7
100
AcDbLine
 10
5.0
 20
15.0
 30
0.0
 11
82.25
 21
15.0
 31
0.0
  0
LINE
  5
BD
330
1F
100
AcDbEntity
  8
0
  6
Continuous
 62
     7
100
AcDbLine
 10
380.5
 20
30.0
 30
0.0
 11
380.5
 21
5.0
 31
0.0
  0
LINE
  5
BE
330
1F
100
AcDbEntity
  8
0
  6
Continuous
 62
     7
100
AcDbLine
 10
140.1875
 20
25.0
 30
0.0
 11
140.1875
 21
23.3
 31
0.0
  0
LINE
  5
BF
330
1F
100
AcDbEntity
  8
0
  6
Continuous
 62
     7
100
AcDbLine
 10
82.25
 20
25.0
 30
0.0
 11
398.0
 21
25.0
 31
0.0
  0
LINE
  5
C0
330
1F
100
AcDbEntity
  8
0
  6
Continuous
 62
     7
100
AcDbLine
 10
5.0
 20
25.0
 30
0.0
 11
82.25
 21
25.0
 31
0.0
  0
LINE
  5
C1
330
1F
100
AcDbEntity
  8
0
  6
Continuous
 62
     7
100
AcDbLine
 10
120.875
 20
25.0
 30
0.0
 11
120.875
 21
23.3
 31
0.0
  0
LINE
  5
C2
330
1F
100
AcDbEntity
  8
0
  6
Continuous
 62
     7
100
AcDbLine
 10
243.5
 20
15.0
 30
0.0
 11
398.0
 21
15.0
 31
0.0
  0
LINE
  5
C3
330
1F
100
AcDbEntity
  8
0
  6
Continuous
 62
     7
100
AcDbLine
 10
82.25
 20
25.0
 30
0.0
 11
82.25
 21
5.0
 31
0.0
  0
LINE
  5
C4
330
1F
100
AcDbEntity
  8
0
  6
Continuous
 62
     7
100
AcDbLine
 10
5.0
 20
20.0
 30
0.0
 11
82.25
 21
20.0
 31
0.0
  0
LINE
  5
C5
330
1F
100
AcDbEntity
  8
0
  6
Continuous
 62
     7
100
AcDbLine
 10
5.0
 20
10.0
 30
0.0
 11
82.25
 21
10.0
 31
0.0
  0
LINE
  5
C6
330
1F
100
AcDbEntity
  8
0
  6
Continuous
 62
     7
100
AcDbLine
 10
62.15000000000001
 20
15.0
 30
0.0
 11
62.15000000000001
 21
5.0
 31
0.0
  0
LINE
  5
C7
330
1F
100
AcDbEntity
  8
0
  6
Continuous
 62
     7
100
AcDbLine
 10
70.15
 20
15.0
 30
0.0
 11
70.15
 21
5.0
 31
0.0
  0
LINE
  5
C8
330
1F
100
AcDbEntity
  8
0
  6
Continuous
 62
     7
100
AcDbLine
 10
140.1875
 20
6.699999999999989
 30
0.0
 11
140.1875
 21
5.0
 31
0.0
  0
LINE
  5
C9
330
1F
100
AcDbEntity
  8
0
  6
Continuous
 62
     7
100
AcDbLine
 10
101.5625
 20
6.699999999999989
 30
0.0
 11
101.5625
 21
5.0
 31
0.0
  0
LINE
  5
CA
330
1F
100
AcDbEntity
  8
0
  6
Continuous
 62
     7
100
AcDbLine
 10
120.875
 20
6.699999999999989
 30
0.0
 11
120.875
 21
5.0
 31
0.0
  0
LINE
  5
CB
330
1F
100
AcDbEntity
  8
0
  6
Continuous
 62
     7
100
AcDbLine
 10
333.75
 20
30.0
 30
0.0
 11
333.75
 21
5.0
 31
0.0
  0
LINE
  5
CC
330
1F
100
AcDbEntity
  8
0
  6
Continuous
 62
     7
100
AcDbLine
 10
243.5
 20
25.0
 30
0.0
 11
243.5
 21
5.0
 31
0.0
  0
LINE
  5
CD
330
1F
100
AcDbEntity
  8
0
  6
Continuous
 62
     7
100
AcDbLine
 10
159.5
 20
25.0
 30
0.0
 11
159.5
 21
5.0
 31
0.0
  0
LINE
  5
CE
330
1F
100
AcDbEntity
  8
0
  6
Continuous
 62
     7
100
AcDbLine
 10
333.75
 20
30.0
 30
0.0
 11
398.0
 21
30.0
 31
0.0
  0
LINE
  5
CF
330
1F
100
AcDbEntity
  8
0
  6
CENTER
 62
     7
100
AcDbLine
 10
339.7684739164864
 20
20.0
 30
0.0
 11
351.1065260835136
 21
20.0
 31
0.0
  0
LINE
  5
D0
330
1F
100
AcDbEntity
  8
0
  6
CENTER
 62
     7
100
AcDbLine
 10
342.4612191565195
 20
23.23200000000001
 30
0.0
 11
342.4612191565195
 21
16.768
 31
0.0
  0
LINE
  5
D1
330
1F
100
AcDbEntity
  8
0
  6
Continuous
 62
     7
100
AcDbLine
 10
346.4612191565196
 20
19.0
 30
0.0
 11
346.4612191565196
 21
21.0
 31
0.0
  0
LINE
  5
D2
330
1F
100
AcDbEntity
  8
0
  6
Continuous
 62
     7
100
AcDbLine
 10
350.4612191565196
 20
22.0
 30
0.0
 11
350.4612191565196
 21
18.0
 31
0.0
  0
LINE
  5
D3
330
1F
100
AcDbEntity
  8
0
  6
Continuous
 62
     7
100
AcDbLine
 10
346.4612191565195
 20
20.99999999999999
 30
0.0
 11
350.4612191565195
 21
21.99999999999999
 31
0.0
  0
LINE
  5
D4
330
1F
100
AcDbEntity
  8
0
  6
Continuous
 62
     7
100
AcDbLine
 10
346.4612191565195
 20
19.0
 30
0.0
 11
350.4612191565196
 21
17.99999999999991
 31
0.0
  0
LINE
  5
D5
330
1F
100
AcDbEntity
  8
0
  6
Continuous
 62
     7
100
AcDbLine
 10
59.80741428833581
 20
272.4600295452769
 30
0.0
 11
59.80741428833581
 21
270.6600295452769
 31
0.0
  0
LINE
  5
D6
330
1F
100
AcDbEntity
  8
0
  6
Continuous
 62
     7
100
AcDbLine
 10
59.80741428833581
 20
252.4400295452769
 30
0.0
 11
90.6074142883358
 21
252.4400295452769
 31
0.0
  0
LINE
  5
D7
330
1F
100
AcDbEntity
  8
0
  6
Continuous
 62
     7
100
AcDbLine
 10
135.7374142883358
 20
62.84002954527689
 30
0.0
 11
137.5374142883358
 21
62.84002954527689
 31
0.0
  0
LINE
  5
D8
330
1F
100
AcDbEntity
  8
0
  6
Continuous
 62
     7
100
AcDbLine
 10
90.6074142883358
 20
252.4400295452769
 30
0.0
 11
90.6074142883358
 21
62.84002954527692
 31
0.0
  0
LINE
  5
D9
330
1F
100
AcDbEntity
  8
0
  6
Continuous
 62
     7
100
AcDbLine
 10
137.5374142883358
 20
252.4400295452769
 30
0.0
 11
137.5374142883358
 21
61.84002954527689
 31
0.0
  0
LINE
  5
DA
330
1F
100
AcDbEntity
  8
0
  6
Continuous
 62
     7
100
AcDbLine
 10
135.7374142883358
 20
252.4400295452769
 30
0.0
 11
135.7374142883358
 21
62.84002954527689
 31
0.0
  0
LINE
  5
DB
330
1F
100
AcDbEntity
  8
0
  6
Continuous
 62
     7
100
AcDbLine
 10
135.7374142883358
 20
252.4400295452769
 30
0.0
 11
137.5374142883358
 21
252.4400295452769
 31
0.0
  0
LINE
  5
DC
330
1F
100
AcDbEntity
  8
0
  6
Continuous
 62
     7
100
AcDbLine
 10
59.80741428833581
 20
62.84002954527689
 30
0.0
 11
90.6074142883358
 21
62.84002954527689
 31
0.0
  0
LINE
  5
DD
330
1F
100
AcDbEntity
  8
0
  6
Continuous
 62
     7
100
AcDbLine
 10
64.15741428833577
 20
62.14002954527692
 30
0.0
 11
64.45741428833581
 21
61.84002954527693
 31
0.0
  0
LINE
  5
DE
330
1F
100
AcDbEntity
  8
0
  6
CENTER
 62
     7
100
AcDbLine
 10
65.60741428833583
 20
64.95883610941765
 30
0.0
 11
65.60741428833583
 21
60.57630117562753
 31
0.0
  0
LINE
  5
DF
330
1F
100
AcDbEntity
  8
0
  6
Continuous
 62
     7
100
AcDbLine
 10
83.3574142883358
 20
62.84002954527692
 30
0.0
 11
83.3574142883358
 21
62.14002954527693
 31
0.0
  0
LINE
  5
E0
330
1F
100
AcDbEntity
  8
0
  6
Continuous
 62
     7
100
AcDbLine
 10
83.65741428833581
 20
61.84002954527689
 30
0.0
 11
85.95741428833585
 21
61.84002954527689
 31
0.0
  0
LINE
  5
E1
330
1F
100
AcDbEntity
  8
0
  6
Continuous
 62
     7
100
AcDbLine
 10
83.35741428833582
 20
62.14002954527699
 30
0.0
 11
83.65741428833584
 21
61.84002954527699
 31
0.0
  0
LINE
  5
E2
330
1F
100
AcDbEntity
  8
0
  6
Continuous
 62
     7
100
AcDbLine
 10
86.25741428833585
 20
62.14002954527692
 30
0.0
 11
85.9574142883359
 21
61.84002954527693
 31
0.0
  0
LINE
  5
E3
330
1F
100
AcDbEntity
  8
0
  6
Continuous
 62
     7
100
AcDbLine
 10
67.05741428833582
 20
62.84002954527692
 30
0.0
 11
67.05741428833582
 21
62.14002954527693
 31
0.0
  0
LINE
  5
E4
330
1F
100
AcDbEntity
  8
0
  6
Continuous
 62
     7
100
AcDbLine
 10
64.15741428833581
 20
62.84002954527692
 30
0.0
 11
64.15741428833581
 21
62.14002954527693
 31
0.0
  0
LINE
  5
E5
330
1F
100
AcDbEntity
  8
0
  6
Continuous
 62
     7
100
AcDbLine
 10
86.25741428833581
 20
62.84002954527692
 30
0.0
 11
86.25741428833581
 21
62.14002954527693
 31
0.0
  0
LINE
  5
E6
330
1F
100
AcDbEntity
  8
0
  6
Continuous
 62
     7
100
AcDbLine
 10
64.45741428833584
 20
61.84002954527689
 30
0.0
 11
66.75741428833587
 21
61.84002954527689
 31
0.0
  0
LINE
  5
E7
330
1F
100
AcDbEntity
  8
0
  6
Continuous
 62
     7
100
AcDbLine
 10
67.05741428833586
 20
62.14002954527693
 30
0.0
 11
66.75741428833591
 21
61.84002954527693
 31
0.0
  0
LINE
  5
E8
330
1F
100
AcDbEntity
  8
0
  6
Continuous
 62
     7
100
AcDbLine
 10
211.7074142883358
 20
62.84002954527689
 30
0.0
 11
216.0574142883358
 21
62.84002954527689
 31
0.0
  0
LINE
  5
E9
330
1F
100
AcDbEntity
  8
0
  6
Continuous
 62
     7
100
AcDbLine
 10
187.1574142883358
 20
250.5400295452769
 30
0.0
 11
214.1574142883358
 21
250.5400295452769
 31
0.0
  0
LINE
  5
EA
330
1F
100
AcDbEntity
  8
0
  6
CENTER
 62
     7
100
AcDbLine
 10
210.2574142883358
 20
64.95883610941765
 30
0.0
 11
210.2574142883358
 21
60.57630117562753
 31
0.0
  0
LINE
  5
EB
330
1F
100
AcDbEntity
  8
0
  6
CENTER
 62
     7
100
AcDbLine
 10
191.0574142883358
 20
64.35021336304244
 30
0.0
 11
191.0574142883358
 21
60.57630117562753
 31
0.0
  0
LINE
  5
EC
330
1F
100
AcDbEntity
  8
0
  6
Continuous
 62
     7
100
AcDbLine
 10
187.1574142883358
 20
250.5400295452769
 30
0.0
 11
187.1574142883358
 21
62.84002954527685
 31
0.0
  0
LINE
  5
ED
330
1F
100
AcDbEntity
  8
0
  6
Continuous
 62
     7
100
AcDbLine
 10
214.1574142883359
 20
250.5400295452769
 30
0.0
 11
214.1574142883359
 21
62.84002954527686
 31
0.0
  0
LINE
  5
EE
330
1F
100
AcDbEntity
  8
0
  6
Continuous
 62
     7
100
AcDbLine
 10
185.2574142883358
 20
62.84002954527689
 30
0.0
 11
189.6074142883358
 21
62.84002954527689
 31
0.0
  0
LINE
  5
EF
330
1F
100
AcDbEntity
  8
0
  6
Continuous
 62
     7
100
AcDbLine
 10
216.0574142883358
 20
252.4400295452769
 30
0.0
 11
216.0574142883358
 21
62.84002954527692
 31
0.0
  0
LINE
  5
F0
330
1F
100
AcDbEntity
  8
0
  6
Continuous
 62
     7
100
AcDbLine
 10
209.1074142883358
 20
61.84002954527689
 30
0.0
 11
211.4074142883358
 21
61.84002954527689
 31
0.0
  0
LINE
  5
F1
330
1F
100
AcDbEntity
  8
0
  6
Continuous
 62
     7
100
AcDbLine
 10
211.7074142883358
 20
62.96002954527688
 30
0.0
 11
211.7074142883358
 21
62.14002954527693
 31
0.0
  0
LINE
  5
F2
330
1F
100
AcDbEntity
  8
0
  6
Continuous
 62
     7
100
AcDbLine
 10
208.8074142883358
 20
62.96002954527688
 30
0.0
 11
208.8074142883358
 21
62.14002954527693
 31
0.0
  0
LINE
  5
F3
330
1F
100
AcDbEntity
  8
0
  6
Continuous
 62
     7
100
AcDbLine
 10
189.6074142883358
 20
62.96002954527688
 30
0.0
 11
189.6074142883358
 21
62.14002954527693
 31
0.0
  0
LINE
  5
F4
330
1F
100
AcDbEntity
  8
0
  6
Continuous
 62
     7
100
AcDbLine
 10
189.6074142883358
 20
62.1400295452769
 30
0.0
 11
189.9074142883358
 21
61.84002954527692
 31
0.0
  0
LINE
  5
F5
330
1F
100
AcDbEntity
  8
0
  6
Continuous
 62
     7
100
AcDbLine
 10
185.2574142883358
 20
252.4400295452769
 30
0.0
 11
216.0574142883358
 21
252.4400295452769
 31
0.0
  0
LINE
  5
F6
330
1F
100
AcDbEntity
  8
0
  6
Continuous
 62
     7
100
AcDbLine
 10
185.2574142883358
 20
252.4400295452769
 30
0.0
 11
185.2574142883358
 21
62.84002954527692
 31
0.0
  0
LINE
  5
F7
330
1F
100
AcDbEntity
  8
0
  6
Continuous
 62
     7
100
AcDbLine
 10
59.80741428833581
 20
270.6600295452769
 30
0.0
 11
90.60741428833582
 21
270.6600295452769
 31
0.0
  0
LINE
  5
F8
330
1F
100
AcDbEntity
  8
0
  6
Continuous
 62
     7
100
AcDbLine
 10
59.80741428833581
 20
272.4600295452769
 30
0.0
 11
90.60741428833582
 21
272.4600295452769
 31
0.0
  0
LINE
  5
F9
330
1F
100
AcDbEntity
  8
0
  6
Continuous
 62
     7
100
AcDbLine
 10
90.6074142883358
 20
272.4600295452769
 30
0.0
 11
90.6074142883358
 21
270.6600295452769
 31
0.0
  0
LINE
  5
FA
330
1F
100
AcDbEntity
  8
0
  6
Continuous
 62
     7
100
AcDbLine
 10
59.80741428833581
 20
252.440029545277
 30
0.0
 11
59.80741428833581
 21
62.84002954527695
 31
0.0
  0
LINE
  5
FB
330
1F
100
AcDbEntity
  8
0
  6
Continuous
 62
     7
100
AcDbLine
 10
192.5074142883358
 20
62.84002954527689
 30
0.0
 11
208.8074142883358
 21
62.84002954527689
 31
0.0
  0
LINE
  5
FC
330
1F
100
AcDbEntity
  8
0
  6
Continuous
 62
     7
100
AcDbLine
 10
208.8074142883358
 20
62.1400295452769
 30
0.0
 11
209.1074142883358
 21
61.84002954527692
 31
0.0
  0
LINE
  5
FD
330
1F
100
AcDbEntity
  8
0
  6
Continuous
 62
     7
100
AcDbLine
 10
192.5074142883358
 20
62.96002954527688
 30
0.0
 11
192.5074142883358
 21
62.1400295452769
 31
0.0
  0
LINE
  5
FE
330
1F
100
AcDbEntity
  8
0
  6
Continuous
 62
     7
100
AcDbLine
 10
189.9074142883358
 20
61.84002954527689
 30
0.0
 11
192.2074142883358
 21
61.84002954527689
 31
0.0
  0
LINE
  5
FF
330
1F
100
AcDbEntity
  8
0
  6
Continuous
 62
     7
100
AcDbLine
 10
192.2074142883359
 20
61.84002954527692
 30
0.0
 11
192.5074142883359
 21
62.14002954527686
 31
0.0
  0
LINE
  5
100
330
1F
100
AcDbEntity
  8
0
  6
Continuous
 62
     7
100
AcDbLine
 10
211.7074142883356
 20
62.14002954527714
 30
0.0
 11
211.4074142883356
 21
61.84002954527716
 31
0.0
  0
LINE
  5
101
330
1F
100
AcDbEntity
  8
0
  6
Continuous
 62
     7
100
AcDbLine
 10
187.1574142883358
 20
62.96002954527687
 30
0.0
 11
214.1574142883359
 21
62.96002954527687
 31
0.0
  0
LINE
  5
102
330
1F
100
AcDbEntity
  8
0
  6
CENTER
 62
     7
100
AcDbLine
 10
84.80741428833583
 20
64.95883610941765
 30
0.0
 11
84.80741428833583
 21
60.57630117562753
 31
0.0
  0
LINE
  5
103
330
1F
100
AcDbEntity
  8
0
  6
CENTER
 62
     7
100
AcDbLine
 10
200.6574142883358
 20
253.9718356155886
 30
0.0
 11
200.6574142883358
 21
58.91353867246064
 31
0.0
  0
LINE
  5
104
330
1F
100
AcDbEntity
  8
0
  6
CENTER
 62
     7
100
AcDbLine
 10
200.1284142883358
 20
251.4400295452769
 30
0.0
 11
201.1864142883358
 21
251.4400295452769
 31
0.0
  0
LINE
  5
105
330
1F
100
AcDbEntity
  8
0
  6
CENTER
 62
     7
100
AcDbLine
 10
75.20741428833581
 20
253.9718356155886
 30
0.0
 11
75.20741428833581
 21
58.91353867246067
 31
0.0
  0
LINE
  5
106
330
1F
100
AcDbEntity
  8
0
  6
Continuous
 62
     7
100
AcDbLine
 10
64.15741428833581
 20
272.5800295452769
 30
0.0
 11
64.15741428833581
 21
272.4600295452769
 31
0.0
  0
LINE
  5
107
330
1F
100
AcDbEntity
  8
0
  6
Continuous
 62
     7
100
AcDbLine
 10
67.05741428833582
 20
272.5800295452769
 30
0.0
 11
67.05741428833582
 21
272.4600295452769
 31
0.0
  0
LINE
  5
108
330
1F
100
AcDbEntity
  8
0
  6
Continuous
 62
     7
100
AcDbLine
 10
64.15741428833581
 20
272.5800295452769
 30
0.0
 11
64.32474929672159
 21
272.5800295452769
 31
0.0
  0
LINE
  5
109
330
1F
100
AcDbEntity
  8
0
  6
Continuous
 62
     7
100
AcDbLine
 10
86.25741428833581
 20
272.5800295452769
 30
0.0
 11
86.09007927995003
 21
272.5800295452769
 31
0.0
  0
LINE
  5
10A
330
1F
100
AcDbEntity
  8
0
  6
Continuous
 62
     7
100
AcDbLine
 10
86.25741428833581
 20
272.5800295452769
 30
0.0
 11
86.25741428833581
 21
272.4600295452769
 31
0.0
  0
LINE
  5
10B
330
1F
100
AcDbEntity
  8
0
  6
Continuous
 62
     7
100
AcDbLine
 10
83.3574142883358
 20
272.5800295452769
 30
0.0
 11
83.3574142883358
 21
272.4600295452769
 31
0.0
  0
LINE
  5
10C
330
1F
100
AcDbEntity
  8
0
  6
CENTER
 62
     7
100
AcDbLine
 10
75.20741428833581
 20
274.5541060957129
 30
0.0
 11
75.20741428833581
 21
268.7176743780476
 31
0.0
  0
LINE
  5
10D
330
1F
100
AcDbEntity
  8
0
  6
Continuous
 62
     7
100
AcDbLine
 10
59.80741428833581
 20
42.70002954527689
 30
0.0
 11
59.80741428833581
 21
44.5000295452769
 31
0.0
  0
LINE
  5
10E
330
1F
100
AcDbEntity
  8
0
  6
Continuous
 62
     7
100
AcDbLine
 10
64.15741428833581
 20
42.58002954527689
 30
0.0
 11
67.05741428833582
 21
42.58002954527689
 31
0.0
  0
LINE
  5
10F
330
1F
100
AcDbEntity
  8
0
  6
Continuous
 62
     7
100
AcDbLine
 10
64.15741428833581
 20
42.58002954527689
 30
0.0
 11
64.15741428833581
 21
42.70002954527689
 31
0.0
  0
LINE
  5
110
330
1F
100
AcDbEntity
  8
0
  6
Continuous
 62
     7
100
AcDbLine
 10
90.6074142883358
 20
42.70002954527689
 30
0.0
 11
90.6074142883358
 21
44.5000295452769
 31
0.0
  0
LINE
  5
111
330
1F
100
AcDbEntity
  8
0
  6
Continuous
 62
     7
100
AcDbLine
 10
59.80741428833581
 20
42.70002954527689
 30
0.0
 11
90.60741428833582
 21
42.70002954527689
 31
0.0
  0
LINE
  5
112
330
1F
100
AcDbEntity
  8
0
  6
Continuous
 62
     7
100
AcDbLine
 10
59.80741428833581
 20
44.5000295452769
 30
0.0
 11
90.60741428833582
 21
44.5000295452769
 31
0.0
  0
LINE
  5
113
330
1F
100
AcDbEntity
  8
0
  6
Continuous
 62
     7
100
AcDbLine
 10
86.25741428833581
 20
42.58002954527689
 30
0.0
 11
86.25741428833581
 21
42.70002954527689
 31
0.0
  0
LINE
  5
114
330
1F
100
AcDbEntity
  8
0
  6
Continuous
 62
     7
100
AcDbLine
 10
86.25741428833581
 20
42.58002954527689
 30
0.0
 11
83.3574142883358
 21
42.58002954527689
 31
0.0
  0
LINE
  5
115
330
1F
100
AcDbEntity
  8
0
  6
Continuous
 62
     7
100
AcDbLine
 10
67.05741428833582
 20
42.58002954527689
 30
0.0
 11
67.05741428833582
 21
42.70002954527689
 31
0.0
  0
LINE
  5
116
330
1F
100
AcDbEntity
  8
0
  6
Continuous
 62
     7
100
AcDbLine
 10
83.3574142883358
 20
42.58002954527689
 30
0.0
 11
83.3574142883358
 21
42.70002954527689
 31
0.0
  0
LINE
  5
117
330
1F
100
AcDbEntity
  8
0
  6
CENTER
 62
     7
100
AcDbLine
 10
75.20741428833581
 20
40.60595299484095
 30
0.0
 11
75.20741428833581
 21
46.44238471250623
 31
0.0
  0
LINE
  5
118
330
1F
100
AcDbEntity
  8
0
  6
Continuous
 62
     7
100
AcDbLine
 10
307.4115910647196
 20
181.6080245900158
 30
0.0
 11
365.3972353848074
 21
181.6080245900158
 31
0.0
  0
LINE
  5
119
330
1F
100
AcDbEntity
  8
0
  6
Continuous
 62
     7
100
AcDbLine
 10
294.6976942340869
 20
224.2695175092756
 30
0.0
 11
380.1842476182734
 21
224.2695175092756
 31
0.0
  0
LINE
  5
11A
330
1F
100
AcDbEntity
  8
0
  6
Continuous
 62
     7
100
AcDbLine
 10
294.6976942340869
 20
224.2695175092756
 30
0.0
 11
294.6976942340869
 21
155.5691326958722
 31
0.0
  0
LINE
  5
11B
330
1F
100
AcDbEntity
  8
0
  6
Continuous
 62
     7
100
AcDbLine
 10
380.1842476182734
 20
224.2695175092756
 30
0.0
 11
380.1842476182734
 21
155.5691326958722
 31
0.0
  0
LINE
  5
11C
330
1F
100
AcDbEntity
  8
0
  6
Continuous
 62
     7
100
AcDbLine
 10
147.5277214872624
 20
39.19926873857402
 30
0.0
 11
205.5133658073502
 21
39.19926873857402
 31
0.0
  0
LINE
  5
11D
330
1F
100
AcDbEntity
  8
0
  6
Continuous
 62
     7
100
AcDbLine
 10
65.10741428833582
 20
62.84002954527689
 30
0.0
 11
65.10741428833582
 21
62.79002954527689
 31
0.0
  0
LINE
  5
11E
330
1F
100
AcDbEntity
  8
0
  6
Continuous
 62
     7
100
AcDbLine
 10
66.10741428833582
 20
62.84002954527689
 30
0.0
 11
66.10741428833582
 21
62.79002954527689
 31
0.0
  0
LINE
  5
11F
330
1F
100
AcDbEntity
  8
0
  6
Continuous
 62
     7
100
AcDbLine
 10
65.25741428833582
 20
62.64002954527689
 30
0.0
 11
65.95741428833581
 21
62.64002954527689
 31
0.0
  0
LINE
  5
120
330
1F
100
AcDbEntity
  8
0
  6
Continuous
 62
     7
100
AcDbLine
 10
84.30741428833582
 20
62.84002954527689
 30
0.0
 11
84.30741428833582
 21
62.79002954527689
 31
0.0
  0
LINE
  5
121
330
1F
100
AcDbEntity
  8
0
  6
Continuous
 62
     7
100
AcDbLine
 10
84.45741428833583
 20
62.64002954527689
 30
0.0
 11
85.15741428833581
 21
62.64002954527689
 31
0.0
  0
LINE
  5
122
330
1F
100
AcDbEntity
  8
0
  6
Continuous
 62
     7
100
AcDbLine
 10
85.30741428833582
 20
62.84002954527689
 30
0.0
 11
85.30741428833582
 21
62.79002954527689
 31
0.0
  0
LINE
  5
123
330
1F
100
AcDbEntity
  8
0
  6
Continuous
 62
     7
100
AcDbLine
 10
137.6574142883358
 20
62.96002954527689
 30
0.0
 11
137.6574142883358
 21
61.84002954527692
 31
0.0
  0
LINE
  5
124
330
1F
100
AcDbEntity
  8
0
  6
Continuous
 62
     7
100
AcDbLine
 10
137.6574142883358
 20
62.96002954527688
 30
0.0
 11
137.5374142883358
 21
62.96002954527688
 31
0.0
  0
LINE
  5
125
330
1F
100
AcDbEntity
  8
0
  6
Continuous
 62
     7
100
AcDbLine
 10
137.6574142883358
 20
61.84002954527689
 30
0.0
 11
137.5374142883358
 21
61.84002954527689
 31
0.0
  0
LINE
  5
126
330
1F
100
AcDbEntity
  8
0
  6
Continuous
 62
     7
100
AcDbLine
 10
137.5374142883358
 20
251.9400295452769
 30
0.0
 11
137.5874142883358
 21
251.9400295452769
 31
0.0
  0
LINE
  5
127
330
1F
100
AcDbEntity
  8
0
  6
Continuous
 62
     7
100
AcDbLine
 10
137.7374142883358
 20
251.0900295452769
 30
0.0
 11
137.7374142883358
 21
251.790029545277
 31
0.0
  0
LINE
  5
128
330
1F
100
AcDbEntity
  8
0
  6
Continuous
 62
     7
100
AcDbLine
 10
137.5374142883358
 20
250.9400295452769
 30
0.0
 11
137.5874142883358
 21
250.9400295452769
 31
0.0
  0
LINE
  5
129
330
1F
100
AcDbEntity
  8
0
  6
Continuous
 62
     7
100
AcDbLine
 10
137.5374142883358
 20
64.74002954527688
 30
0.0
 11
137.5874142883358
 21
64.74002954527688
 31
0.0
  0
LINE
  5
12A
330
1F
100
AcDbEntity
  8
0
  6
Continuous
 62
     7
100
AcDbLine
 10
137.7374142883358
 20
63.89002954527686
 30
0.0
 11
137.7374142883358
 21
64.5900295452769
 31
0.0
  0
LINE
  5
12B
330
1F
100
AcDbEntity
  8
0
  6
Continuous
 62
     7
100
AcDbLine
 10
137.5374142883358
 20
63.74002954527688
 30
0.0
 11
137.5874142883358
 21
63.74002954527688
 31
0.0
  0
LINE
  5
12C
330
1F
100
AcDbEntity
  8
0
  6
Continuous
 62
     7
100
AcDbLine
 10
137.1374142883358
 20
62.84002954527689
 30
0.0
 11
137.1374142883358
 21
62.79002954527689
 31
0.0
  0
LINE
  5
12D
330
1F
100
AcDbEntity
  8
0
  6
Continuous
 62
     7
100
AcDbLine
 10
136.2874142883358
 20
62.64002954527689
 30
0.0
 11
136.9874142883358
 21
62.64002954527689
 31
0.0
  0
LINE
  5
12E
330
1F
100
AcDbEntity
  8
0
  6
Continuous
 62
     7
100
AcDbLine
 10
136.1374142883358
 20
62.84002954527689
 30
0.0
 11
136.1374142883358
 21
62.79002954527689
 31
0.0
  0
LINE
  5
12F
330
1F
100
AcDbEntity
  8
0
  6
Continuous
 62
     7
100
AcDbLine
 10
64.3074142883358
 20
272.4600295452769
 30
0.0
 11
64.3074142883358
 21
272.510029545277
 31
0.0
  0
LINE
  5
130
330
1F
100
AcDbEntity
  8
0
  6
Continuous
 62
     7
100
AcDbLine
 10
65.15741428833573
 20
272.660029545277
 30
0.0
 11
64.45741428833574
 21
272.660029545277
 31
0.0
  0
LINE
  5
131
330
1F
100
AcDbEntity
  8
0
  6
Continuous
 62
     7
100
AcDbLine
 10
65.3074142883358
 20
272.4600295452769
 30
0.0
 11
65.3074142883358
 21
272.510029545277
 31
0.0
  0
LINE
  5
132
330
1F
100
AcDbEntity
  8
0
  6
Continuous
 62
     7
100
AcDbLine
 10
86.10741428833582
 20
272.4600295452769
 30
0.0
 11
86.10741428833582
 21
272.510029545277
 31
0.0
  0
LINE
  5
133
330
1F
100
AcDbEntity
  8
0
  6
Continuous
 62
     7
100
AcDbLine
 10
85.2574142883359
 20
272.660029545277
 30
0.0
 11
85.95741428833588
 21
272.660029545277
 31
0.0
  0
LINE
  5
134
330
1F
100
AcDbEntity
  8
0
  6
Continuous
 62
     7
100
AcDbLine
 10
85.10741428833582
 20
272.4600295452769
 30
0.0
 11
85.10741428833582
 21
272.510029545277
 31
0.0
  0
LINE
  5
135
330
1F
100
AcDbEntity
  8
0
  6
Continuous
 62
     7
100
AcDbLine
 10
65.29007927995008
 20
272.5800295452769
 30
0.0
 11
67.05741428833582
 21
272.5800295452769
 31
0.0
  0
LINE
  5
136
330
1F
100
AcDbEntity
  8
0
  6
Continuous
 62
     7
100
AcDbLine
 10
85.12474929672155
 20
272.5800295452769
 30
0.0
 11
83.3574142883358
 21
272.5800295452769
 31
0.0
  0
LINE
  5
137
330
1F
100
AcDbEntity
  8
0
  6
Continuous
 62
     7
100
AcDbLine
 10
60.40741428833581
 20
272.4600295452769
 30
0.0
 11
60.40741428833581
 21
272.510029545277
 31
0.0
  0
LINE
  5
138
330
1F
100
AcDbEntity
  8
0
  6
Continuous
 62
     7
100
AcDbLine
 10
61.25741428833573
 20
272.660029545277
 30
0.0
 11
60.55741428833574
 21
272.660029545277
 31
0.0
  0
LINE
  5
139
330
1F
100
AcDbEntity
  8
0
  6
Continuous
 62
     7
100
AcDbLine
 10
61.40741428833581
 20
272.4600295452769
 30
0.0
 11
61.40741428833581
 21
272.510029545277
 31
0.0
  0
LINE
  5
13A
330
1F
100
AcDbEntity
  8
0
  6
Continuous
 62
     7
100
AcDbLine
 10
89.1574142883359
 20
272.660029545277
 30
0.0
 11
89.85741428833589
 21
272.660029545277
 31
0.0
  0
LINE
  5
13B
330
1F
100
AcDbEntity
  8
0
  6
Continuous
 62
     7
100
AcDbLine
 10
89.00741428833581
 20
272.4600295452769
 30
0.0
 11
89.00741428833581
 21
272.510029545277
 31
0.0
  0
LINE
  5
13C
330
1F
100
AcDbEntity
  8
0
  6
Continuous
 62
     7
100
AcDbLine
 10
90.00741428833581
 20
272.4600295452769
 30
0.0
 11
90.00741428833581
 21
272.510029545277
 31
0.0
  0
LINE
  5
13D
330
1F
100
AcDbEntity
  8
0
  6
Continuous
 62
     7
100
AcDbLine
 10
294.6976942340869
 20
155.5691326958722
 30
0.0
 11
380.1842476182734
 21
155.5691326958722
 31
0.0
  0
LINE
  5
13E
330
1F
100
AcDbEntity
  8
0
  6
CENTER
 62
     7
100
AcDbLine
 10
331.257186462954
 20
209.8662215230848
 30
0.0
 11
331.257186462954
 21
208.5582215230848
 31
0.0
  0
LINE
  5
13F
330
1F
100
AcDbEntity
  8
0
  6
Continuous
 62
     7
100
AcDbLine
 10
315.857186462954
 20
210.4622215230848
 30
0.0
 11
315.857186462954
 21
208.7122215230848
 31
0.0
  0
LINE
  5
140
330
1F
100
AcDbEntity
  8
0
  6
Continuous
 62
     7
100
AcDbLine
 10
315.857186462954
 20
196.6900632637512
 30
0.0
 11
315.857186462954
 21
194.4900632637512
 31
0.0
  0
LINE
  5
141
330
1F
100
AcDbEntity
  8
0
  6
Continuous
 62
     7
100
AcDbLine
 10
346.657186462954
 20
196.6900632637512
 30
0.0
 11
346.657186462954
 21
194.4900632637512
 31
0.0
  0
LINE
  5
142
330
1F
100
AcDbEntity
  8
0
  6
CENTER
 62
     7
100
AcDbLine
 10
330.603186462954
 20
209.2122215230848
 30
0.0
 11
331.911186462954
 21
209.2122215230848
 31
0.0
  0
LINE
  5
143
330
1F
100
AcDbEntity
  8
0
  6
Continuous
 62
     7
100
AcDbLine
 10
315.857186462954
 20
196.6900632637512
 30
0.0
 11
346.657186462954
 21
196.6900632637512
 31
0.0
  0
LINE
  5
144
330
1F
100
AcDbEntity
  8
0
  6
CENTER
 62
     7
100
AcDbLine
 10
331.2571864629541
 20
197.1790080865834
 30
0.0
 11
331.2571864629541
 21
193.8678512163791
 31
0.0
  0
LINE
  5
145
330
1F
100
AcDbEntity
  8
0
  6
Continuous
 62
     7
100
AcDbLine
 10
346.3571864629541
 20
194.1900632637512
 30
0.0
 11
346.6571864629541
 21
194.4900632637512
 31
0.0
  0
LINE
  5
146
330
1F
100
AcDbEntity
  8
0
  6
Continuous
 62
     7
100
AcDbLine
 10
315.8571864629541
 20
194.4900632637512
 30
0.0
 11
316.1571864629541
 21
194.1900632637512
 31
0.0
  0
LINE
  5
147
330
1F
100
AcDbEntity
  8
0
  6
Continuous
 62
     7
100
AcDbLine
 10
361.8452784544736
 20
194.4600632637606
 30
0.0
 11
361.6152784544736
 21
194.4600632637606
 31
0.0
  0
LINE
  5
148
330
1F
100
AcDbEntity
  8
0
  6
Continuous
 62
     7
100
AcDbLine
 10
361.8452784544736
 20
194.1900632637513
 30
0.0
 11
361.8452784544736
 21
196.6900632637512
 31
0.0
  0
LINE
  5
149
330
1F
100
AcDbEntity
  8
0
  6
Continuous
 62
     7
100
AcDbLine
 10
361.8452784544736
 20
196.6900632637512
 30
0.0
 11
359.7952784544736
 21
196.6900632637512
 31
0.0
  0
LINE
  5
14A
330
1F
100
AcDbEntity
  8
0
  6
Continuous
 62
     7
100
AcDbLine
 10
361.8452784544736
 20
194.1900632637606
 30
0.0
 11
361.6152784544736
 21
194.1900632637606
 31
0.0
  0
LINE
  5
14B
330
1F
100
AcDbEntity
  8
0
  6
Continuous
 62
     7
100
AcDbLine
 10
359.7952784544736
 20
196.4600632637513
 30
0.0
 11
359.7952784544736
 21
196.6900632637512
 31
0.0
  0
LINE
  5
14C
330
1F
100
AcDbEntity
  8
0
  6
Continuous
 62
     7
100
AcDbLine
 10
360.0952784544736
 20
196.4600632637513
 30
0.0
 11
360.0952784544736
 21
196.6900632637512
 31
0.0
  0
LINE
  5
14D
330
1F
100
AcDbEntity
  8
0
  6
Continuous
 62
     7
100
AcDbLine
 10
346.6571864629539
 20
208.7122215230849
 30
0.0
 11
346.3571864629539
 21
208.412221523085
 31
0.0
  0
LINE
  5
14E
330
1F
100
AcDbEntity
  8
0
  6
Continuous
 62
     7
100
AcDbLine
 10
315.857186462954
 20
208.7122215230847
 30
0.0
 11
316.1571864629541
 21
208.4122215230847
 31
0.0
  0
LINE
  5
14F
330
1F
100
AcDbEntity
  8
0
  6
CENTER
 62
     7
100
AcDbLine
 10
330.5924060328605
 20
195.3000632637513
 30
0.0
 11
332.0252930957944
 21
195.3000632637513
 31
0.0
  0
LINE
  5
150
330
1F
100
AcDbEntity
  8
0
  6
Continuous
 62
     7
100
AcDbLine
 10
331.5071864629541
 20
195.5500632637513
 30
0.0
 11
331.5071864629541
 21
195.0500632637513
 31
0.0
  0
LINE
  5
151
330
1F
100
AcDbEntity
  8
0
  6
Continuous
 62
     7
100
AcDbLine
 10
346.357186462954
 20
196.6900632637512
 30
0.0
 11
346.357186462954
 21
196.4600632637513
 31
0.0
  0
LINE
  5
152
330
1F
100
AcDbEntity
  8
0
  6
CENTER
 62
     7
100
AcDbLine
 10
317.757186462954
 20
209.8662215230848
 30
0.0
 11
317.757186462954
 21
208.5582215230848
 31
0.0
  0
LINE
  5
153
330
1F
100
AcDbEntity
  8
0
  6
CENTER
 62
     7
100
AcDbLine
 10
344.103186462954
 20
209.2122215230848
 30
0.0
 11
345.411186462954
 21
209.2122215230848
 31
0.0
  0
LINE
  5
154
330
1F
100
AcDbEntity
  8
0
  6
Continuous
 62
     7
100
AcDbLine
 10
331.2571864629541
 20
196.0000632637513
 30
0.0
 11
331.2571864629541
 21
196.0000632637513
 31
0.0
  0
LINE
  5
155
330
1F
100
AcDbEntity
  8
0
  6
CENTER
 62
     7
100
AcDbLine
 10
360.5952784544736
 20
195.83760322747
 30
0.0
 11
360.5952784544736
 21
197.3278586829458
 31
0.0
  0
LINE
  5
156
330
1F
100
AcDbEntity
  8
0
  6
Continuous
 62
     7
100
AcDbLine
 10
316.157186462954
 20
194.1900632637512
 30
0.0
 11
346.357186462954
 21
194.1900632637512
 31
0.0
  0
LINE
  5
157
330
1F
100
AcDbEntity
  8
0
  6
CENTER
 62
     7
100
AcDbLine
 10
317.103186462954
 20
209.2122215230848
 30
0.0
 11
318.411186462954
 21
209.2122215230848
 31
0.0
  0
LINE
  5
158
330
1F
100
AcDbEntity
  8
0
  6
Continuous
 62
     7
100
AcDbLine
 10
316.157186462954
 20
208.4122215230848
 30
0.0
 11
346.357186462954
 21
208.4122215230848
 31
0.0
  0
LINE
  5
159
330
1F
100
AcDbEntity
  8
0
  6
Continuous
 62
     7
100
AcDbLine
 10
331.0071864629541
 20
195.5500632637513
 30
0.0
 11
331.0071864629541
 21
195.0500632637513
 31
0.0
  0
LINE
  5
15A
330
1F
100
AcDbEntity
  8
0
  6
Continuous
 62
     7
100
AcDbLine
 10
331.2571864629541
 20
195.0000632637513
 30
0.0
 11
331.2571864629541
 21
195.0000632637513
 31
0.0
  0
LINE
  5
15B
330
1F
100
AcDbEntity
  8
0
  6
Continuous
 62
     7
100
AcDbLine
 10
316.157186462954
 20
196.6900632637512
 30
0.0
 11
316.157186462954
 21
196.4600632637513
 31
0.0
  0
LINE
  5
15C
330
1F
100
AcDbEntity
  8
0
  6
Continuous
 62
     7
100
AcDbLine
 10
346.657186462954
 20
210.4622215230849
 30
0.0
 11
315.857186462954
 21
210.4622215230849
 31
0.0
  0
LINE
  5
15D
330
1F
100
AcDbEntity
  8
0
  6
CENTER
 62
     7
100
AcDbLine
 10
344.757186462954
 20
209.8662215230848
 30
0.0
 11
344.757186462954
 21
208.5582215230848
 31
0.0
  0
LINE
  5
15E
330
1F
100
AcDbEntity
  8
0
  6
CENTER
 62
     7
100
AcDbLine
 10
361.0966333153644
 20
195.5000632637513
 30
0.0
 11
362.606449518688
 21
195.5000632637513
 31
0.0
  0
LINE
  5
15F
330
1F
100
AcDbEntity
  8
0
  6
DASHED
 62
     7
100
AcDbLine
 10
315.857186462954
 20
210.2322215230849
 30
0.0
 11
346.657186462954
 21
210.2322215230849
 31
0.0
  0
LINE
  5
160
330
1F
100
AcDbEntity
  8
0
  6
Continuous
 62
     7
100
AcDbLine
 10
361.6152784544736
 20
196.4600632637513
 30
0.0
 11
359.7952784544736
 21
196.4600632637513
 31
0.0
  0
LINE
  5
161
330
1F
100
AcDbEntity
  8
0
  6
Continuous
 62
     7
100
AcDbLine
 10
361.6152784544736
 20
194.1900632637606
 30
0.0
 11
361.6152784544736
 21
196.4600632637513
 31
0.0
  0
LINE
  5
162
330
1F
100
AcDbEntity
  8
0
  6
Continuous
 62
     7
100
AcDbLine
 10
315.857186462954
 20
196.4600632637513
 30
0.0
 11
346.657186462954
 21
196.4600632637513
 31
0.0
  0
LINE
  5
163
330
1F
100
AcDbEntity
  8
0
  6
Continuous
 62
     7
100
AcDbLine
 10
346.657186462954
 20
210.4622215230848
 30
0.0
 11
346.657186462954
 21
208.7122215230848
 31
0.0
  0
LINE
  5
164
330
1F
100
AcDbEntity
  8
0
  6
Continuous
 62
     7
100
AcDbLine
 10
323.157186462954
 20
210.4622215230849
 30
0.0
 11
323.157186462954
 21
210.0122215230849
 31
0.0
  0
LINE
  5
165
330
1F
100
AcDbEntity
  8
0
  6
Continuous
 62
     7
100
AcDbLine
 10
342.357186462954
 20
210.4622215230849
 30
0.0
 11
342.357186462954
 21
210.0122215230849
 31
0.0
  0
LINE
  5
166
330
1F
100
AcDbEntity
  8
0
  6
Continuous
 62
     7
100
AcDbLine
 10
320.157186462954
 20
210.4622215230849
 30
0.0
 11
320.157186462954
 21
210.0122215230849
 31
0.0
  0
LINE
  5
167
330
1F
100
AcDbEntity
  8
0
  6
Continuous
 62
     7
100
AcDbLine
 10
342.357186462954
 20
196.4600632637513
 30
0.0
 11
342.357186462954
 21
196.1600632637513
 31
0.0
  0
LINE
  5
168
330
1F
100
AcDbEntity
  8
0
  6
Continuous
 62
     7
100
AcDbLine
 10
339.357186462954
 20
210.4622215230849
 30
0.0
 11
339.357186462954
 21
210.0122215230849
 31
0.0
  0
LINE
  5
169
330
1F
100
AcDbEntity
  8
0
  6
Continuous
 62
     7
100
AcDbLine
 10
342.357186462954
 20
196.1600632637513
 30
0.0
 11
339.357186462954
 21
196.1600632637513
 31
0.0
  0
LINE
  5
16A
330
1F
100
AcDbEntity
  8
0
  6
Continuous
 62
     7
100
AcDbLine
 10
342.357186462954
 20
210.0122215230849
 30
0.0
 11
339.357186462954
 21
210.0122215230849
 31
0.0
  0
LINE
  5
16B
330
1F
100
AcDbEntity
  8
0
  6
Continuous
 62
     7
100
AcDbLine
 10
320.157186462954
 20
210.2322215230849
 30
0.0
 11
323.157186462954
 21
210.2322215230849
 31
0.0
  0
LINE
  5
16C
330
1F
100
AcDbEntity
  8
0
  6
Continuous
 62
     7
100
AcDbLine
 10
339.357186462954
 20
210.2322215230849
 30
0.0
 11
342.357186462954
 21
210.2322215230849
 31
0.0
  0
LINE
  5
16D
330
1F
100
AcDbEntity
  8
0
  6
Continuous
 62
     7
100
AcDbLine
 10
320.157186462954
 20
196.1600632637513
 30
0.0
 11
323.157186462954
 21
196.1600632637513
 31
0.0
  0
LINE
  5
16E
330
1F
100
AcDbEntity
  8
0
  6
Continuous
 62
     7
100
AcDbLine
 10
320.157186462954
 20
196.4600632637513
 30
0.0
 11
320.157186462954
 21
196.1600632637513
 31
0.0
  0
LINE
  5
16F
330
1F
100
AcDbEntity
  8
0
  6
Continuous
 62
     7
100
AcDbLine
 10
339.357186462954
 20
196.4600632637513
 30
0.0
 11
339.357186462954
 21
196.1600632637513
 31
0.0
  0
LINE
  5
170
330
1F
100
AcDbEntity
  8
0
  6
Continuous
 62
     7
100
AcDbLine
 10
320.157186462954
 20
210.0122215230849
 30
0.0
 11
323.157186462954
 21
210.0122215230849
 31
0.0
  0
LINE
  5
171
330
1F
100
AcDbEntity
  8
0
  6
Continuous
 62
     7
100
AcDbLine
 10
323.157186462954
 20
196.4600632637513
 30
0.0
 11
323.157186462954
 21
196.1600632637513
 31
0.0
  0
LINE
  5
172
330
1F
100
AcDbEntity
  8
0
  6
Continuous
 62
     3
100
AcDbLine
 10
167.4814672997001
 20
14.28010936443334
 30
0.0
 11
171.8195633392926
 21
15.32159407841527
 31
0.0
  0
LINE
  5
173
330
1F
100
AcDbEntity
  8
0
  6
Continuous
 62
     3
100
AcDbLine
 10
163.3596369278902
 20
17.94355278887925
 30
0.0
 11
162.1353283183375
 21
18.23748328056789
 31
0.0
  0
LINE
  5
174
330
1F
100
AcDbEntity
  8
0
  6
Continuous
 62
     3
100
AcDbLine
 10
166.8814672997
 20
8.778866662799999
 30
0.0
 11
166.8814672997
 21
13.19005838748512
 31
0.0
  0
LWPOLYLINE
  5
175
330
1F
100
AcDbEntity
  8
0
  6
Continuous
 62
     3
100
AcDbPolyline
 90
        2
 70
     0
 43
0.018
 10
168.0814672997
 20
13.19005838748507
 10
168.0814672997
 20
8.778866662799999
  0
LINE
  5
176
330
1F
100
AcDbEntity
  8
0
  6
Continuous
 62
     3
100
AcDbLine
 10
167.4814672997001
 20
16.23409823240007
 30
0.0
 11
173.1655760236999
 21
17.59873200140002
 31
0.0
  0
LINE
  5
177
330
1F
100
AcDbEntity
  8
0
  6
Continuous
 62
     3
100
AcDbLine
 10
167.4814672997004
 20
15.00000000000004
 30
0.0
 11
172.3919353977001
 21
16.17889908749998
 31
0.0
  0
LINE
  5
178
330
1F
100
AcDbEntity
  8
0
  6
Continuous
 62
     3
100
AcDbLine
 10
167.4814672997001
 20
16.23409823240009
 30
0.0
 11
161.7973585757004
 21
17.59873200140003
 31
0.0
  0
LWPOLYLINE
  5
179
330
1F
100
AcDbEntity
  8
0
  6
Continuous
 62
     3
100
AcDbPolyline
 90
        2
 70
     0
 43
0.018
 10
168.7814672997
 20
10.12019467601421
 10
168.7814672997
 20
8.886694838305557
  0
LINE
  5
17A
330
1F
100
AcDbEntity
  8
0
  6
Continuous
 62
     3
100
AcDbLine
 10
167.481467300094
 20
16.9539888680622
 30
0.0
 11
166.8814672997
 21
17.09803612359316
 31
0.0
  0
LINE
  5
17B
330
1F
100
AcDbEntity
  8
0
  6
Continuous
 62
     3
100
AcDbLine
 10
166.8814672997
 20
17.09803612342578
 30
0.0
 11
166.8814672997
 21
20.18095191583249
 31
0.0
  0
LINE
  5
17C
330
1F
100
AcDbEntity
  8
0
  6
Continuous
 62
     3
100
AcDbLine
 10
168.0814672997
 20
17.0980361234226
 30
0.0
 11
168.0814672997
 21
20.20613018404959
 31
0.0
  0
LINE
  5
17D
330
1F
100
AcDbEntity
  8
0
  6
Continuous
 62
     7
100
AcDbLine
 10
195.7258232625325
 20
17.77733558952787
 30
0.0
 11
196.3076477286659
 21
17.46702920759007
 31
0.0
  0
LINE
  5
17E
330
1F
100
AcDbEntity
  8
0
  6
Continuous
 62
     7
100
AcDbLine
 10
194.6517132294152
 20
17.882056079352
 30
0.0
 11
196.8264313183683
 21
17.882056079352
 31
0.0
  0
LINE
  5
17F
330
1F
100
AcDbEntity
  8
0
  6
Continuous
 62
     7
100
AcDbLine
 10
201.0427935638189
 20
15.34846391750235
 30
0.0
 11
203.9406125974305
 21
15.34846391750235
 31
0.0
  0
LINE
  5
180
330
1F
100
AcDbEntity
  8
0
  6
Continuous
 62
     7
100
AcDbLine
 10
203.9406125974304
 20
15.7248177312467
 30
0.0
 11
203.9406125974304
 21
15.34846391750235
 31
0.0
  0
LINE
  5
181
330
1F
100
AcDbEntity
  8
0
  6
Continuous
 62
     7
100
AcDbLine
 10
201.0427935638188
 20
15.7248177312467
 30
0.0
 11
201.0427935638188
 21
15.34846391750235
 31
0.0
  0
LINE
  5
182
330
1F
100
AcDbEntity
  8
0
  6
Continuous
 62
     7
100
AcDbLine
 10
201.0427935638189
 20
15.7248177312467
 30
0.0
 11
203.9406125974305
 21
15.7248177312467
 31
0.0
  0
LINE
  5
183
330
1F
100
AcDbEntity
  8
0
  6
Continuous
 62
     7
100
AcDbLine
 10
201.0427935638189
 20
16.19846391750235
 30
0.0
 11
203.9406125974305
 21
16.19846391750235
 31
0.0
  0
LINE
  5
184
330
1F
100
AcDbEntity
  8
0
  6
Continuous
 62
     7
100
AcDbLine
 10
203.9406125974304
 20
16.5748177312467
 30
0.0
 11
203.9406125974304
 21
16.19846391750235
 31
0.0
  0
LINE
  5
185
330
1F
100
AcDbEntity
  8
0
  6
Continuous
 62
     7
100
AcDbLine
 10
201.0427935638188
 20
16.5748177312467
 30
0.0
 11
201.0427935638188
 21
16.19846391750235
 31
0.0
  0
LINE
  5
186
330
1F
100
AcDbEntity
  8
0
  6
Continuous
 62
     7
100
AcDbLine
 10
201.0427935638189
 20
16.5748177312467
 30
0.0
 11
203.9406125974305
 21
16.5748177312467
 31
0.0
  0
LINE
  5
187
330
1F
100
AcDbEntity
  8
0
  6
Continuous
 62
     3
100
AcDbLine
 10
167.4814672996998
 20
15.00000000000005
 30
0.0
 11
162.5709992017001
 21
16.17889908749999
 31
0.0
  0
LINE
  5
188
330
1F
100
AcDbEntity
  8
0
  6
Continuous
 62
     3
100
AcDbLine
 10
171.7848516160296
 20
17.98714003452652
 30
0.0
 11
173.0021642689933
 21
18.27939094567661
 31
0.0
  0
LINE
  5
189
330
1F
100
AcDbEntity
  8
0
  6
Continuous
 62
     3
100
AcDbLine
 10
167.4814672997014
 20
16.95398886796792
 30
0.0
 11
168.0814672997
 21
17.0980361234226
 31
0.0
  0
LINE
  5
18A
330
1F
100
AcDbEntity
  8
0
  6
Continuous
 62
     3
100
AcDbLine
 10
168.0814672997
 20
13.19005838748507
 30
0.0
 11
171.7300126632808
 21
14.06599663084309
 31
0.0
  0
LINE
  5
18B
330
1F
100
AcDbEntity
  8
0
  6
Continuous
 62
     3
100
AcDbLine
 10
166.1814672997
 20
8.886694838305534
 30
0.0
 11
166.1814672997
 21
10.12019467601419
 31
0.0
  0
LINE
  5
18C
330
1F
100
AcDbEntity
  8
0
  6
Continuous
 62
     3
100
AcDbLine
 10
167.4814672997001
 20
14.28010936443334
 30
0.0
 11
163.1433712601075
 21
15.32159407841531
 31
0.0
  0
LINE
  5
18D
330
1F
100
AcDbEntity
  8
0
  6
Continuous
 62
     3
100
AcDbLine
 10
166.8814672997
 20
13.19005838748513
 30
0.0
 11
163.2329219361193
 21
14.06599663084314
 31
0.0
  0
CIRCLE
  5
18E
330
1F
100
AcDbEntity
  8
0
  6
Continuous
 62
     7
100
AcDbCircle
 10
342.4612191565195
 20
20.0
 30
0.0
 40
2.0
  0
CIRCLE
  5
18F
330
1F
100
AcDbEntity
  8
0
  6
Continuous
 62
     7
100
AcDbCircle
 10
342.4612191565195
 20
20.0
 30
0.0
 40
1.0
  0
CIRCLE
  5
190
330
1F
100
AcDbEntity
  8
0
  6
Continuous
 62
     7
100
AcDbCircle
 10
200.6574142883358
 20
251.4400295452769
 30
0.0
 40
0.2
  0
CIRCLE
  5
191
330
1F
100
AcDbEntity
  8
0
  6
Continuous
 62
     7
100
AcDbCircle
 10
200.6574142883358
 20
251.4400295452769
 30
0.0
 40
0.16
  0
CIRCLE
  5
192
330
1F
100
AcDbEntity
  8
0
  6
Continuous
 62
     7
100
AcDbCircle
 10
200.6574142883358
 20
251.4400295452769
 30
0.0
 40
0.4
  0
CIRCLE
  5
193
330
1F
100
AcDbEntity
  8
0
  6
Continuous
 62
     7
100
AcDbCircle
 10
186.3574142883358
 20
64.24002954527688
 30
0.0
 40
0.5
  0
CIRCLE
  5
194
330
1F
100
AcDbEntity
  8
0
  6
Continuous
 62
     7
100
AcDbCircle
 10
214.9574142883358
 20
64.24002954527688
 30
0.0
 40
0.5
  0
CIRCLE
  5
195
330
1F
100
AcDbEntity
  8
0
  6
Continuous
 62
     7
100
AcDbCircle
 10
190.2574142883358
 20
251.4400295452769
 30
0.0
 40
0.5
  0
CIRCLE
  5
196
330
1F
100
AcDbEntity
  8
0
  6
Continuous
 62
     7
100
AcDbCircle
 10
211.0574142883358
 20
251.4400295452769
 30
0.0
 40
0.5
  0
CIRCLE
  5
197
330
1F
100
AcDbEntity
  8
0
  6
Continuous
 62
     7
100
AcDbCircle
 10
65.60741428833582
 20
43.60002954527689
 30
0.0
 40
0.5
  0
CIRCLE
  5
198
330
1F
100
AcDbEntity
  8
0
  6
Continuous
 62
     7
100
AcDbCircle
 10
84.8074142883358
 20
43.60002954527689
 30
0.0
 40
0.5
  0
ARC
  5
199
330
1F
100
AcDbEntity
  8
0
  6
Continuous
 62
     7
100
AcDbCircle
 10
65.25741428833582
 20
62.79002954527689
 30
0.0
 40
0.15
100
AcDbArc
 50
180.0
 51
270.0
  0
ARC
  5
19A
330
1F
100
AcDbEntity
  8
0
  6
Continuous
 62
     7
100
AcDbCircle
 10
65.95741428833581
 20
62.79002954527689
 30
0.0
 40
0.15
100
AcDbArc
 50
270.0
 51
0.0
  0
ARC
  5
19B
330
1F
100
AcDbEntity
  8
0
  6
Continuous
 62
     7
100
AcDbCircle
 10
85.15741428833581
 20
62.79002954527689
 30
0.0
 40
0.15
100
AcDbArc
 50
270.0
 51
0.0
  0
ARC
  5
19C
330
1F
100
AcDbEntity
  8
0
  6
Continuous
 62
     7
100
AcDbCircle
 10
84.45741428833583
 20
62.79002954527689
 30
0.0
 40
0.15
100
AcDbArc
 50
180.0
 51
270.0
  0
ARC
  5
19D
330
1F
100
AcDbEntity
  8
0
  6
Continuous
 62
     7
100
AcDbCircle
 10
137.5874142883358
 20
251.790029545277
 30
0.0
 40
0.15
100
AcDbArc
 50
0.0
 51
90.00000000000001
  0
ARC
  5
19E
330
1F
100
AcDbEntity
  8
0
  6
Continuous
 62
     7
100
AcDbCircle
 10
137.5874142883358
 20
251.0900295452769
 30
0.0
 40
0.15
100
AcDbArc
 50
270.0
 51
0.0
  0
ARC
  5
19F
330
1F
100
AcDbEntity
  8
0
  6
Continuous
 62
     7
100
AcDbCircle
 10
137.5874142883358
 20
64.5900295452769
 30
0.0
 40
0.15
100
AcDbArc
 50
0.0
 51
90.00000000000001
  0
ARC
  5
1A0
330
1F
100
AcDbEntity
  8
0
  6
Continuous
 62
     7
100
AcDbCircle
 10
137.5874142883358
 20
63.89002954527686
 30
0.0
 40
0.15
100
AcDbArc
 50
270.0
 51
0.0
  0
ARC
  5
1A1
330
1F
100
AcDbEntity
  8
0
  6
Continuous
 62
     7
100
AcDbCircle
 10
136.9874142883358
 20
62.79002954527689
 30
0.0
 40
0.15
100
AcDbArc
 50
270.0
 51
0.0
  0
ARC
  5
1A2
330
1F
100
AcDbEntity
  8
0
  6
Continuous
 62
     7
100
AcDbCircle
 10
136.2874142883358
 20
62.79002954527689
 30
0.0
 40
0.15
100
AcDbArc
 50
180.0
 51
270.0
  0
ARC
  5
1A3
330
1F
100
AcDbEntity
  8
0
  6
Continuous
 62
     7
100
AcDbCircle
 10
64.45741428833584
 20
272.510029545277
 30
0.0
 40
0.15
100
AcDbArc
 50
90.00000000000001
 51
180.0
  0
ARC
  5
1A4
330
1F
100
AcDbEntity
  8
0
  6
Continuous
 62
     7
100
AcDbCircle
 10
65.15741428833583
 20
272.510029545277
 30
0.0
 40
0.15
100
AcDbArc
 50
0.000000000000051
 51
90.00000000000001
  0
ARC
  5
1A5
330
1F
100
AcDbEntity
  8
0
  6
Continuous
 62
     7
100
AcDbCircle
 10
85.95741428833578
 20
272.510029545277
 30
0.0
 40
0.15
100
AcDbArc
 50
0.0
 51
90.00000000000001
  0
ARC
  5
1A6
330
1F
100
AcDbEntity
  8
0
  6
Continuous
 62
     7
100
AcDbCircle
 10
85.2574142883358
 20
272.510029545277
 30
0.0
 40
0.15
100
AcDbArc
 50
90.00000000000001
 51
180.0
  0
ARC
  5
1A7
330
1F
100
AcDbEntity
  8
0
  6
Continuous
 62
     7
100
AcDbCircle
 10
60.55741428833584
 20
272.510029545277
 30
0.0
 40
0.15
100
AcDbArc
 50
90.00000000000001
 51
180.0
  0
ARC
  5
1A8
330
1F
100
AcDbEntity
  8
0
  6
Continuous
 62
     7
100
AcDbCircle
 10
61.25741428833583
 20
272.510029545277
 30
0.0
 40
0.15
100
AcDbArc
 50
0.000000000000051
 51
90.00000000000001
  0
ARC
  5
1A9
330
1F
100
AcDbEntity
  8
0
  6
Continuous
 62
     7
100
AcDbCircle
 10
89.85741428833578
 20
272.510029545277
 30
0.0
 40
0.15
100
AcDbArc
 50
0.0
 51
90.00000000000001
  0
ARC
  5
1AA
330
1F
100
AcDbEntity
  8
0
  6
Continuous
 62
     7
100
AcDbCircle
 10
89.15741428833579
 20
272.510029545277
 30
0.0
 40
0.15
100
AcDbArc
 50
90.00000000000001
 51
180.0
  0
ARC
  5
1AB
330
1F
100
AcDbEntity
  8
0
  6
Continuous
 62
     7
100
AcDbCircle
 10
331.2571864629541
 20
195.0500632637513
 30
0.0
 40
0.25
100
AcDbArc
 50
270.0
 51
0.0
  0
ARC
  5
1AC
330
1F
100
AcDbEntity
  8
0
  6
Continuous
 62
     7
100
AcDbCircle
 10
331.2571864629541
 20
195.5500632637513
 30
0.0
 40
0.25
100
AcDbArc
 50
90.00000000000001
 51
180.0
  0
ARC
  5
1AD
330
1F
100
AcDbEntity
  8
0
  6
Continuous
 62
     7
100
AcDbCircle
 10
331.2571864629541
 20
195.5500632637513
 30
0.0
 40
0.25
100
AcDbArc
 50
0.0
 51
90.00000000000001
  0
ARC
  5
1AE
330
1F
100
AcDbEntity
  8
0
  6
Continuous
 62
     7
100
AcDbCircle
 10
331.2571864629541
 20
195.0500632637513
 30
0.0
 40
0.25
100
AcDbArc
 50
180.0
 51
270.0
  0
CIRCLE
  5
1AF
330
1F
100
AcDbEntity
  8
0
  6
DASHED
 62
     7
100
AcDbCircle
 10
344.757186462954
 20
209.2122215230848
 30
0.0
 40
0.4
  0
CIRCLE
  5
1B0
330
1F
100
AcDbEntity
  8
0
  6
DASHED
 62
     7
100
AcDbCircle
 10
331.257186462954
 20
209.2122215230848
 30
0.0
 40
0.4
  0
CIRCLE
  5
1B1
330
1F
100
AcDbEntity
  8
0
  6
Continuous
 62
     7
100
AcDbCircle
 10
331.257186462954
 20
209.2122215230848
 30
0.0
 40
0.2
  0
CIRCLE
  5
1B2
330
1F
100
AcDbEntity
  8
0
  6
Continuous
 62
     7
100
AcDbCircle
 10
317.757186462954
 20
209.2122215230848
 30
0.0
 40
0.2
  0
CIRCLE
  5
1B3
330
1F
100
AcDbEntity
  8
0
  6
DASHED
 62
     7
100
AcDbCircle
 10
317.757186462954
 20
209.2122215230848
 30
0.0
 40
0.4
  0
CIRCLE
  5
1B4
330
1F
100
AcDbEntity
  8
0
  6
Continuous
 62
     7
100
AcDbCircle
 10
344.757186462954
 20
209.2122215230848
 30
0.0
 40
0.2
  0
ARC
  5
1B5
330
1F
100
AcDbEntity
  8
0
  6
Continuous
 62
     3
100
AcDbCircle
 10
167.5866518354377
 20
15.18043046596782
 30
0.0
 40
5.050000000000036
100
AcDbArc
 50
98.02704419569329
 51
146.8280891718668
  0
ARC
  5
1B6
330
1F
100
AcDbEntity
  8
0
  6
Continuous
 62
     3
100
AcDbCircle
 10
167.4814672997
 20
15.0
 30
0.0
 40
4.350000000000007
100
AcDbArc
 50
347.6012852708641
 51
4.239726358387829
  0
ARC
  5
1B7
330
1F
100
AcDbEntity
  8
0
  6
Continuous
 62
     3
100
AcDbCircle
 10
167.4814672997
 20
15.0
 30
0.0
 40
4.350000000000027
100
AcDbArc
 50
175.7602736416114
 51
192.3987147291351
  0
ARC
  5
1B8
330
1F
100
AcDbEntity
  8
0
  6
Continuous
 62
     3
100
AcDbCircle
 10
167.4814672997
 20
15.0
 30
0.0
 40
6.250000000000019
100
AcDbArc
 50
155.4304750266
 51
257.9948271692462
  0
ARC
  5
1B9
330
1F
100
AcDbEntity
  8
0
  6
Continuous
 62
     3
100
AcDbCircle
 10
167.4814672997
 20
15.0
 30
0.0
 40
5.050000000000007
100
AcDbArc
 50
284.917369472353
 51
13.49999999999998
  0
ARC
  5
1BA
330
1F
100
AcDbEntity
  8
0
  6
Continuous
 62
     3
100
AcDbCircle
 10
167.4814672997
 20
15.0
 30
0.0
 40
5.050000000000027
100
AcDbArc
 50
166.5
 51
255.0826305276471
  0
ARC
  5
1BB
330
1F
100
AcDbEntity
  8
0
  6
Continuous
 62
     3
100
AcDbCircle
 10
167.5866518354377
 20
15.18043046596782
 30
0.0
 40
6.250000000000036
100
AcDbArc
 50
29.75170300503294
 51
150.7166867709
  0
ARC
  5
1BC
330
1F
100
AcDbEntity
  8
0
  6
Continuous
 62
     3
100
AcDbCircle
 10
167.4814672997
 20
15.0
 30
0.0
 40
6.249999999999996
100
AcDbArc
 50
282.0051728307538
 51
24.56952497340001
  0
ARC
  5
1BD
330
1F
100
AcDbEntity
  8
0
  6
Continuous
 62
     3
100
AcDbCircle
 10
167.4814672997
 20
15.0
 30
0.0
 40
6.250000000000009
100
AcDbArc
 50
264.4911213288
 51
275.5088786712
  0
ARC
  5
1BE
330
1F
100
AcDbEntity
  8
0
  6
Continuous
 62
     3
100
AcDbCircle
 10
167.5866518354377
 20
15.18043046596782
 30
0.0
 40
5.050000000000036
100
AcDbArc
 50
33.76473677473652
 51
84.37695057486742
  0
LWPOLYLINE
  5
1BF
330
1F
100
AcDbEntity
  8
0
  6
Continuous
 62
     7
100
AcDbPolyline
 90
        2
 70
     0
 43
0.0
 10
196.3076477286658
 20
17.4670292075901
 10
196.8264313183683
 20
17.882056079352
  0
LWPOLYLINE
  5
1C0
330
1F
100
AcDbEntity
  8
0
  6
Continuous
 62
     7
100
AcDbPolyline
 90
       28
 70
     0
 43
0.0
 10
197.4304438095907
 20
18.262056079352
 10
197.5098361118814
 20
18.30175223049741
 10
197.7480130187536
 20
17.9444868701891
 10
196.7159130889741
 20
17.2696523007179
 10
196.914393844701
 20
17.11086769613645
 10
196.7556092401195
 20
16.952083091555
 10
197.9464937744804
 20
16.952083091555
 10
197.9464937744804
 20
14.21304866252485
 10
197.8671014721897
 20
14.05426405794341
 10
197.7480130187536
 20
13.97487175565265
 10
197.4701399607361
 20
13.89547945336195
 10
197.033482298137
 20
13.81608715107121
 10
197.033482298137
 20
14.09396020908876
 10
196.914393844701
 20
14.33213711596095
 10
197.3907476584453
 20
14.33213711596095
 10
197.4304438095907
 20
14.41152941825165
 10
197.4304438095907
 20
14.8481870808507
 10
196.5174323332473
 20
14.8481870808507
 10
196.5174323332473
 20
13.9351756045073
 10
196.0410785195029
 20
13.9351756045073
 10
196.0410785195029
 20
14.8481870808507
 10
195.3265477988864
 20
14.8481870808507
 10
195.3265477988864
 20
13.89547945336195
 10
194.7708016828513
 20
13.89547945336195
 10
194.7708016828513
 20
16.952083091555
 10
196.2395592752297
 20
16.952083091555
 10
195.4853324034679
 20
17.46813305644475
 10
195.7258232625325
 20
17.77733558952787
  0
LWPOLYLINE
  5
1C1
330
1F
100
AcDbEntity
  8
0
  6
Continuous
 62
     7
100
AcDbPolyline
 90
        3
 70
     0
 43
0.0
 10
194.6517132294152
 20
17.89004357814293
 10
194.6517132294152
 20
18.262056079352
 10
197.4304438095907
 20
18.262056079352
  0
LWPOLYLINE
  5
1C2
330
1F
100
AcDbEntity
  8
0
  6
Continuous
 62
     7
100
AcDbPolyline
 90
       17
 70
     0
 43
0.0
 10
239.3495794190956
 20
18.5002329862242
 10
239.3495794190956
 20
16.55512158010135
 10
238.1586948847347
 20
16.55512158010135
 10
238.1586948847347
 20
16.0390716152116
 10
239.3495794190956
 20
16.0390716152116
 10
239.3495794190956
 20
13.6969986976351
 10
237.7220372221356
 20
13.6969986976351
 10
237.7220372221356
 20
13.14125258160001
 10
241.4534754297999
 20
13.14125258160001
 10
241.4534754297999
 20
13.6969986976351
 10
239.9450216862761
 20
13.6969986976351
 10
239.9450216862761
 20
16.0390716152116
 10
241.2549946740731
 20
16.0390716152116
 10
241.2549946740731
 20
16.55512158010135
 10
239.9450216862761
 20
16.55512158010135
 10
239.9450216862761
 20
18.5002329862242
 10
239.3495794190956
 20
18.5002329862242
  0
LWPOLYLINE
  5
1C3
330
1F
100
AcDbEntity
  8
0
  6
Continuous
 62
     7
100
AcDbPolyline
 90
       26
 70
     0
 43
0.0
 10
236.7296334435015
 20
18.5002329862242
 10
236.7296334435015
 20
17.5078292075901
 10
235.9357104205942
 20
17.5078292075901
 10
235.9357104205942
 20
16.99177924270035
 10
237.5235564664088
 20
16.99177924270035
 10
237.1265949549552
 20
16.43603312666526
 10
236.6899372923562
 20
15.9596793129209
 10
236.2135834786118
 20
15.52302165032186
 10
235.7372296648674
 20
15.1657562900136
 10
236.0547988740303
 20
14.64970632512385
 10
236.3723680831933
 20
14.88788323199605
 10
236.7296334435015
 20
15.1657562900136
 10
236.7296334435015
 20
12.9427718258732
 10
237.2853795595367
 20
12.9427718258732
 10
237.2853795595367
 20
15.32454089459505
 10
237.6029487686996
 20
14.96727553428675
 10
237.9205179778625
 20
14.64970632512385
 10
238.2777833381708
 20
15.12606013886825
 10
237.4441641641181
 20
15.9596793129209
 10
237.9205179778625
 20
16.5948177312467
 10
238.3174794893161
 20
17.15056384728179
 10
237.9602141290078
 20
17.5078292075901
 10
237.8808218267171
 20
17.5078292075901
 10
237.2853795595367
 20
17.5078292075901
 10
237.2853795595367
 20
18.5002329862242
 10
236.7296334435015
 20
18.5002329862242
  0
LWPOLYLINE
  5
1C4
330
1F
100
AcDbEntity
  8
0
  6
Continuous
 62
     7
100
AcDbPolyline
 90
       22
 70
     0
 43
0.0
 10
229.9018954464988
 20
14.88788323199605
 10
229.9018954464988
 20
15.40393319688575
 10
235.0623950953962
 20
15.40393319688575
 10
235.0623950953962
 20
14.88788323199605
 10
232.1248799106393
 20
14.88788323199605
 10
231.9263991549124
 20
14.53061787168775
 10
231.6485260968949
 20
13.9351756045073
 10
231.4897414923134
 20
13.61760639534435
 10
232.4821452709475
 20
13.73669484878045
 10
233.514245200727
 20
13.89547945336195
 10
233.077587538128
 20
14.41152941825165
 10
233.514245200727
 20
14.72909862741461
 10
234.1493836190529
 20
14.014567906798
 10
234.7845220373787
 20
13.22064488389071
 10
234.268472072489
 20
12.86337952358245
 10
233.8715105610353
 20
13.4588217907629
 10
231.8073107014763
 20
13.14125258160001
 10
230.2591608068071
 20
12.90307567472779
 10
230.0606800510803
 20
13.53821409305365
 10
230.894299225133
 20
13.577910244199
 10
231.4103491900227
 20
14.88788323199605
 10
229.9018954464988
 20
14.88788323199605
  0
LWPOLYLINE
  5
1C5
330
1F
100
AcDbEntity
  8
0
  6
Continuous
 62
     7
100
AcDbPolyline
 90
       28
 70
     0
 43
0.0
 10
229.5843262373359
 20
16.2375523709384
 10
229.9415915976442
 20
16.43603312666526
 10
230.2591608068071
 20
16.67421003353746
 10
230.9339953762783
 20
17.19025999842714
 10
231.6088299457495
 20
17.825398416753
 10
232.2439683640754
 20
18.5796252885149
 10
232.8791067824012
 20
18.38114453278811
 10
232.7600183289651
 20
18.262056079352
 10
232.9981952358373
 20
17.98418302133445
 10
233.2760682938548
 20
17.7063099633169
 10
233.5539413518724
 20
17.42843690529936
 10
233.8715105610353
 20
17.19025999842714
 10
234.2287759213436
 20
16.952083091555
 10
234.5860412816519
 20
16.71390618468281
 10
235.3799643045592
 20
16.31694467322915
 10
235.2608758511231
 20
16.19785621979305
 10
235.141787397687
 20
16.07876776635695
 10
235.0623950953962
 20
15.9596793129209
 10
234.9830027931055
 20
15.80089470833941
 10
234.4272566770704
 20
16.11846391750235
 10
233.8715105610353
 20
16.47572927781061
 10
233.8715105610353
 20
15.99937546406625
 10
230.894299225133
 20
15.99937546406625
 10
230.894299225133
 20
16.43603312666526
 10
230.4179454113886
 20
16.07876776635695
 10
229.9018954464988
 20
15.76119855719406
 10
229.7431108419174
 20
16.07876776635695
 10
229.5843262373359
 20
16.2375523709384
  0
LWPOLYLINE
  5
1C6
330
1F
100
AcDbEntity
  8
0
  6
Continuous
 62
     7
100
AcDbPolyline
 90
        8
 70
     0
 43
0.0
 10
233.7921182587446
 20
16.515425428956
 10
233.3951567472909
 20
16.8329946381189
 10
233.0378913869826
 20
17.19025999842714
 10
232.7203221778197
 20
17.5078292075901
 10
232.4027529686568
 20
17.90479071904375
 10
231.6882222480403
 20
17.15056384728179
 10
231.013387678569
 20
16.515425428956
 10
233.7921182587446
 20
16.515425428956
  0
LWPOLYLINE
  5
1C7
330
1F
100
AcDbEntity
  8
0
  6
Continuous
 62
     7
100
AcDbPolyline
 90
       13
 70
     0
 43
0.0
 10
223.9077766235488
 20
15.99937546406625
 10
223.9077766235488
 20
15.48332549917651
 10
224.9795727044736
 20
15.48332549917651
 10
224.9795727044736
 20
13.9351756045073
 10
223.6695997166766
 20
13.73669484878045
 10
223.7886881701127
 20
13.14125258160001
 10
226.7262033548697
 20
13.61760639534435
 10
226.7262033548697
 20
14.17335251137946
 10
225.5353188205088
 20
13.97487175565265
 10
225.5353188205088
 20
15.48332549917651
 10
226.4880264479975
 20
15.48332549917651
 10
226.4880264479975
 20
15.99937546406625
 10
223.9077766235488
 20
15.99937546406625
  0
LWPOLYLINE
  5
1C8
330
1F
100
AcDbEntity
  8
0
  6
Continuous
 62
     7
100
AcDbPolyline
 90
        5
 70
     0
 43
0.0
 10
227.8376955869399
 20
18.42084068393346
 10
227.520126377777
 20
18.06357532362521
 10
228.2346570983935
 20
17.46813305644475
 10
228.5919224587018
 20
17.825398416753
 10
227.8376955869399
 20
18.42084068393346
  0
LWPOLYLINE
  5
1C9
330
1F
100
AcDbEntity
  8
0
  6
Continuous
 62
     7
100
AcDbPolyline
 90
       39
 70
     0
 43
0.0
 10
226.7262033548697
 20
18.46053683507885
 10
226.7262033548697
 20
17.38874075415401
 10
223.709295867822
 20
17.38874075415401
 10
223.709295867822
 20
16.87269078926425
 10
226.7262033548697
 20
16.87269078926425
 10
226.8055956571604
 20
16.0390716152116
 10
226.9246841105965
 20
15.2848447434497
 10
227.083468715178
 20
14.61001017397844
 10
227.3216456220502
 20
13.97487175565265
 10
227.5598225289223
 20
13.53821409305365
 10
227.7186071335038
 20
13.3397333373268
 10
227.8376955869399
 20
13.18094873274536
 10
227.9964801915213
 20
13.10155643045466
 10
228.1552647961028
 20
12.98246797701855
 10
228.3140494006843
 20
12.9427718258732
 10
228.4728340052657
 20
12.9427718258732
 10
228.5522263075564
 20
12.9427718258732
 10
228.6316186098472
 20
12.98246797701855
 10
228.7904032144286
 20
13.14125258160001
 10
228.9491878190101
 20
13.41912563961755
 10
229.1476685747369
 20
13.89547945336195
 10
228.8697955167194
 20
14.014567906798
 10
228.5919224587018
 20
14.21304866252485
 10
228.4728340052657
 20
13.6969986976351
 10
228.4331378541204
 20
13.61760639534435
 10
228.3537455518296
 20
13.577910244199
 10
228.1949609472482
 20
13.61760639534435
 10
228.0758724938121
 20
13.73669484878045
 10
227.9170878892306
 20
13.9351756045073
 10
227.7979994357945
 20
14.2527448136702
 10
227.5995186800677
 20
14.80849092970531
 10
227.4407340754862
 20
15.44362934803114
 10
227.3613417731955
 20
16.11846391750235
 10
227.3216456220502
 20
16.87269078926425
 10
228.9888839701555
 20
16.87269078926425
 10
228.9888839701555
 20
17.38874075415401
 10
227.3216456220502
 20
17.38874075415401
 10
227.3216456220502
 20
18.46053683507885
 10
226.7262033548697
 20
18.46053683507885
  0
LWPOLYLINE
  5
1CA
330
1F
100
AcDbEntity
  8
0
  6
Continuous
 62
     7
100
AcDbPolyline
 90
       69
 70
     0
 43
0.0
 10
218.270923160907
 20
18.5002329862242
 10
218.270923160907
 20
17.30934845186331
 10
217.4373039868544
 20
17.30934845186331
 10
217.4373039868544
 20
16.79329848697355
 10
218.270923160907
 20
16.79329848697355
 10
218.1121385563256
 20
16.31694467322915
 10
217.8739616494534
 20
15.8405908594848
 10
217.5960885914358
 20
15.32454089459505
 10
217.2785193822729
 20
14.80849092970531
 10
217.397607835709
 20
14.4909217205424
 10
217.5166962891451
 20
14.09396020908876
 10
218.270923160907
 20
15.40393319688575
 10
218.270923160907
 20
12.9427718258732
 10
218.7869731257968
 20
12.9427718258732
 10
218.7869731257968
 20
15.52302165032186
 10
219.1839346372504
 20
15.08636398772286
 10
219.461807695268
 20
15.48332549917651
 10
219.461807695268
 20
15.44362934803114
 10
220.6923883807743
 20
15.44362934803114
 10
220.2954268693206
 20
15.04666783657751
 10
219.898465357867
 20
14.61001017397844
 10
219.461807695268
 20
14.2527448136702
 10
218.9854538815236
 20
13.89547945336195
 10
219.2236307883958
 20
13.6969986976351
 10
219.4221115441226
 20
13.49851794190825
 10
219.7793769044309
 20
13.77639099992586
 10
220.1366422647392
 20
14.09396020908876
 10
220.5336037761928
 20
14.451225569397
 10
220.9305652876465
 20
14.8481870808507
 10
220.9305652876465
 20
12.9427718258732
 10
221.4466152525362
 20
12.9427718258732
 10
221.4466152525362
 20
14.80849092970531
 10
221.9626652174259
 20
14.21304866252485
 10
222.5978036357518
 20
13.577910244199
 10
222.7962843914786
 20
13.81608715107121
 10
223.1138536006415
 20
13.97487175565265
 10
222.6771959380425
 20
14.33213711596095
 10
222.2802344265889
 20
14.6894024762692
 10
221.9229690662806
 20
15.08636398772286
 10
221.645096008263
 20
15.44362934803114
 10
222.835980542624
 20
15.44362934803114
 10
222.835980542624
 20
15.9596793129209
 10
221.4466152525362
 20
15.9596793129209
 10
221.4466152525362
 20
16.87269078926425
 10
222.5184113334611
 20
16.87269078926425
 10
222.5184113334611
 20
17.38874075415401
 10
221.4466152525362
 20
17.38874075415401
 10
221.4466152525362
 20
18.46053683507885
 10
220.9305652876465
 20
18.46053683507885
 10
220.9305652876465
 20
17.38874075415401
 10
220.2954268693206
 20
17.38874075415401
 10
220.4939076250475
 20
17.9444868701891
 10
219.9381615090124
 20
18.06357532362521
 10
219.6602884509948
 20
17.19025999842714
 10
219.3427192418319
 20
16.43603312666526
 10
219.8587692067216
 20
16.2375523709384
 10
220.1366422647392
 20
16.87269078926425
 10
220.9305652876465
 20
16.87269078926425
 10
220.9305652876465
 20
15.9596793129209
 10
219.461807695268
 20
15.9596793129209
 10
219.461807695268
 20
15.56271780146721
 10
219.2236307883958
 20
15.80089470833941
 10
218.7869731257968
 20
16.31694467322915
 10
218.7869731257968
 20
16.79329848697355
 10
219.3824153929772
 20
16.79329848697355
 10
219.3824153929772
 20
17.30934845186331
 10
218.7869731257968
 20
17.30934845186331
 10
218.7869731257968
 20
18.5002329862242
 10
218.270923160907
 20
18.5002329862242
  0
LWPOLYLINE
  5
1CB
330
1F
100
AcDbEntity
  8
0
  6
Continuous
 62
     7
100
AcDbPolyline
 90
       73
 70
     0
 43
0.0
 10
213.1898158143004
 20
17.5078292075901
 10
213.1898158143004
 20
18.5002329862242
 10
213.6661696280448
 20
18.5002329862242
 10
213.6661696280448
 20
17.5078292075901
 10
214.341004197516
 20
17.5078292075901
 10
214.341004197516
 20
18.5002329862242
 10
214.8173580112603
 20
18.5002329862242
 10
214.8173580112603
 20
17.5078292075901
 10
215.0555349181325
 20
17.5078292075901
 10
215.6112810341676
 20
18.42084068393346
 10
216.1273309990574
 20
18.14296762591595
 10
215.650977185313
 20
17.5078292075901
 10
216.7624694173832
 20
17.5078292075901
 10
216.7624694173832
 20
17.0314753938457
 10
215.4524964295862
 20
17.0314753938457
 10
215.1349272204233
 20
16.43603312666526
 10
216.3258117547842
 20
16.43603312666526
 10
216.3258117547842
 20
15.9596793129209
 10
214.2616118952252
 20
15.9596793129209
 10
214.2616118952252
 20
15.6024139526126
 10
216.0082425456213
 20
15.6024139526126
 10
216.0082425456213
 20
15.1657562900136
 10
214.2616118952252
 20
15.1657562900136
 10
214.2616118952252
 20
14.76879477855996
 10
216.6433809639471
 20
14.76879477855996
 10
216.6433809639471
 20
14.29244096481555
 10
214.8967503135511
 20
14.29244096481555
 10
215.3334079761501
 20
14.05426405794341
 10
215.8097617898944
 20
13.81608715107121
 10
216.3258117547842
 20
13.61760639534435
 10
216.8815578708193
 20
13.4588217907629
 10
216.7624694173832
 20
13.3794294884722
 10
216.6433809639471
 20
13.2603410350361
 10
216.6036848128017
 20
13.10155643045466
 10
216.5639886616564
 20
12.98246797701855
 10
215.8494579410398
 20
13.22064488389071
 10
215.2540156738593
 20
13.53821409305365
 10
214.6982695578242
 20
13.85578330221656
 10
214.2616118952252
 20
14.2527448136702
 10
214.2616118952252
 20
12.90307567472779
 10
213.7058657791901
 20
12.90307567472779
 10
213.7058657791901
 20
14.13365636023411
 10
213.1898158143004
 20
13.77639099992586
 10
212.6340696982653
 20
13.49851794190825
 10
212.0783235822302
 20
13.22064488389071
 10
211.5225774661951
 20
13.0221641281639
 10
211.403489012759
 20
13.22064488389071
 10
211.2447044081775
 20
13.49851794190825
 10
211.7607543730673
 20
13.65730254648975
 10
212.2371081868116
 20
13.81608715107121
 10
212.713462000556
 20
14.05426405794341
 10
213.150119663155
 20
14.29244096481555
 10
211.3637928616136
 20
14.29244096481555
 10
211.3637928616136
 20
14.76879477855996
 10
213.7058657791901
 20
14.76879477855996
 10
213.7058657791901
 20
15.1657562900136
 10
212.0783235822302
 20
15.1657562900136
 10
212.0783235822302
 20
15.6024139526126
 10
213.7058657791901
 20
15.6024139526126
 10
213.7058657791901
 20
15.9596793129209
 10
211.7210582219219
 20
15.9596793129209
 10
211.7210582219219
 20
16.43603312666526
 10
212.8325504539921
 20
16.43603312666526
 10
212.5943735471199
 20
17.0314753938457
 10
211.2844005593229
 20
17.0314753938457
 10
211.2844005593229
 20
17.5078292075901
 10
212.3958927913931
 20
17.5078292075901
 10
211.9195389776487
 20
18.06357532362521
 10
212.3165004891024
 20
18.38114453278811
 10
212.5943735471199
 20
18.06357532362521
 10
212.8722466051375
 20
17.7063099633169
 10
212.5149812448292
 20
17.5078292075901
 10
213.1898158143004
 20
17.5078292075901
  0
LWPOLYLINE
  5
1CC
330
1F
100
AcDbEntity
  8
0
  6
Continuous
 62
     7
100
AcDbPolyline
 90
        5
 70
     0
 43
0.0
 10
214.8570541624057
 20
17.0314753938457
 10
213.1898158143004
 20
17.0314753938457
 10
213.4279927211726
 20
16.43603312666526
 10
214.5394849532428
 20
16.43603312666526
 10
214.8570541624057
 20
17.0314753938457
  0
LWPOLYLINE
  5
1CD
330
1F
100
AcDbEntity
  8
0
  6
Continuous
 62
     7
100
AcDbPolyline
 90
       13
 70
     0
 43
0.0
 10
205.5681547943904
 20
17.98418302133445
 10
205.5681547943904
 20
17.46813305644475
 10
207.5529623516586
 20
17.46813305644475
 10
207.5529623516586
 20
13.9351756045073
 10
205.2108894340821
 20
13.9351756045073
 10
205.2108894340821
 20
13.3397333373268
 10
210.530173687561
 20
13.3397333373268
 10
210.530173687561
 20
13.9351756045073
 10
208.1087084676937
 20
13.9351756045073
 10
208.1087084676937
 20
17.46813305644475
 10
210.212604478398
 20
17.46813305644475
 10
210.212604478398
 20
17.98418302133445
 10
205.5681547943904
 20
17.98418302133445
  0
LWPOLYLINE
  5
1CE
330
1F
100
AcDbEntity
  8
0
  6
Continuous
 62
     7
100
AcDbPolyline
 90
        9
 70
     0
 43
0.0
 10
201.0030974126735
 20
12.90307567472779
 10
201.0030974126735
 20
14.88788323199605
 10
204.0200048997212
 20
14.88788323199605
 10
204.0200048997212
 20
12.9427718258732
 10
203.4245626325407
 20
12.9427718258732
 10
203.4245626325407
 20
13.18094873274536
 10
201.5191473775632
 20
13.18094873274536
 10
201.5191473775632
 20
12.90307567472779
 10
201.0030974126735
 20
12.90307567472779
  0
LWPOLYLINE
  5
1CF
330
1F
100
AcDbEntity
  8
0
  6
Continuous
 62
     7
100
AcDbPolyline
 90
        5
 70
     0
 43
0.0
 10
200.4870474477837
 20
16.99177924270035
 10
200.4870474477837
 20
17.46813305644475
 10
204.5360548646109
 20
17.46813305644475
 10
204.5360548646109
 20
16.99177924270035
 10
200.4870474477837
 20
16.99177924270035
  0
LWPOLYLINE
  5
1D0
330
1F
100
AcDbEntity
  8
0
  6
Continuous
 62
     7
100
AcDbPolyline
 90
        5
 70
     0
 43
0.0
 10
201.0427935638188
 20
17.925398416753
 10
201.0427935638188
 20
18.40175223049741
 10
203.9803087485758
 20
18.40175223049741
 10
203.9803087485758
 20
17.925398416753
 10
201.0427935638188
 20
17.925398416753
  0
LWPOLYLINE
  5
1D1
330
1F
100
AcDbEntity
  8
0
  6
Continuous
 62
     7
100
AcDbPolyline
 90
       13
 70
     0
 43
0.0
 10
198.7801129485331
 20
15.80089470833941
 10
199.1770744599867
 20
16.43603312666526
 10
199.4946436691496
 20
17.11086769613645
 10
199.8122128783125
 20
17.825398416753
 10
200.0503897851847
 20
18.5796252885149
 10
200.6061359012198
 20
18.38114453278811
 10
200.1297820874755
 20
17.0711715449911
 10
200.1297820874755
 20
12.90307567472779
 10
199.5740359714404
 20
12.90307567472779
 10
199.5740359714404
 20
15.9596793129209
 10
199.3358590645682
 20
15.6024139526126
 10
199.097682157696
 20
15.32454089459505
 10
198.7801129485331
 20
15.80089470833941
  0
LWPOLYLINE
  5
1D2
330
1F
100
AcDbEntity
  8
0
  6
Continuous
 62
     7
100
AcDbPolyline
 90
        5
 70
     0
 43
0.0
 10
203.4245626325407
 20
14.41152941825165
 10
201.5191473775632
 20
14.41152941825165
 10
201.5191473775632
 20
13.6969986976351
 10
203.4245626325407
 20
13.6969986976351
 10
203.4245626325407
 20
14.41152941825165
  0
LWPOLYLINE
  5
1D3
330
1F
100
AcDbEntity
  8
0
  6
Continuous
 62
     7
100
AcDbPolyline
 90
        5
 70
     0
 43
0.0
 10
197.4304438095907
 20
15.6818062549033
 10
196.5174323332473
 20
15.6818062549033
 10
196.5174323332473
 20
15.20545244115895
 10
197.4304438095907
 20
15.20545244115895
 10
197.4304438095907
 20
15.6818062549033
  0
LWPOLYLINE
  5
1D4
330
1F
100
AcDbEntity
  8
0
  6
Continuous
 62
     7
100
AcDbPolyline
 90
        5
 70
     0
 43
0.0
 10
196.0410785195029
 20
15.6818062549033
 10
195.3265477988864
 20
15.6818062549033
 10
195.3265477988864
 20
15.20545244115895
 10
196.0410785195029
 20
15.20545244115895
 10
196.0410785195029
 20
15.6818062549033
  0
LWPOLYLINE
  5
1D5
330
1F
100
AcDbEntity
  8
0
  6
Continuous
 62
     7
100
AcDbPolyline
 90
       21
 70
     0
 43
0.0
 10
192.8256902767284
 20
15.6818062549033
 10
192.8256902767284
 20
16.19785621979305
 10
194.0959671133801
 20
16.19785621979305
 10
194.0959671133801
 20
14.09396020908876
 10
194.4532324736884
 20
13.89547945336195
 10
194.850193985142
 20
13.6969986976351
 10
195.286851647741
 20
13.61760639534435
 10
195.7632054614854
 20
13.577910244199
 10
198.4228475882248
 20
13.577910244199
 10
198.3037591347887
 20
13.30003718618145
 10
198.224366832498
 20
13.06186027930925
 10
195.9219900660669
 20
13.06186027930925
 10
195.3662439500317
 20
13.14125258160001
 10
194.850193985142
 20
13.22064488389071
 10
194.3738401713976
 20
13.41912563961755
 10
193.976878659944
 20
13.65730254648975
 10
193.0241710324552
 20
12.90307567472779
 10
192.7066018232923
 20
13.4588217907629
 10
193.540220997345
 20
13.97487175565265
 10
193.540220997345
 20
15.6818062549033
 10
192.8256902767284
 20
15.6818062549033
  0
LWPOLYLINE
  5
1D6
330
1F
100
AcDbEntity
  8
0
  6
Continuous
 62
     7
100
AcDbPolyline
 90
        5
 70
     0
 43
0.0
 10
197.4304438095907
 20
16.515425428956
 10
196.5174323332473
 20
16.515425428956
 10
196.5174323332473
 20
16.07876776635695
 10
197.4304438095907
 20
16.07876776635695
 10
197.4304438095907
 20
16.515425428956
  0
LWPOLYLINE
  5
1D7
330
1F
100
AcDbEntity
  8
0
  6
Continuous
 62
     7
100
AcDbPolyline
 90
        7
 70
     0
 43
0.0
 10
193.0638671836006
 20
17.9444868701891
 10
193.3814363927635
 20
18.38114453278811
 10
193.8577902065079
 20
18.10327147477056
 10
194.2944478691069
 20
17.7460061144623
 10
193.8974863576532
 20
17.2696523007179
 10
193.5005248461996
 20
17.66661381217155
 10
193.0638671836006
 20
17.9444868701891
  0
LWPOLYLINE
  5
1D8
330
1F
100
AcDbEntity
  8
0
  6
Continuous
 62
     7
100
AcDbPolyline
 90
        5
 70
     0
 43
0.0
 10
196.0410785195029
 20
16.515425428956
 10
195.3265477988864
 20
16.515425428956
 10
195.3265477988864
 20
16.07876776635695
 10
196.0410785195029
 20
16.07876776635695
 10
196.0410785195029
 20
16.515425428956
  0
LWPOLYLINE
  5
1D9
330
1F
100
AcDbEntity
  8
0
  6
Continuous
 62
     7
100
AcDbPolyline
 90
       14
 70
     0
 43
0.0
 10
189.0148597667734
 20
18.34144838164276
 10
189.0148597667734
 20
13.0221641281639
 10
189.6896943362446
 20
13.0221641281639
 10
189.6896943362446
 20
15.99937546406625
 10
190.3248327545704
 20
15.76119855719406
 10
190.8408827194602
 20
15.52302165032186
 10
191.3172365332046
 20
15.2848447434497
 10
191.9523749515304
 20
14.88788323199605
 10
192.3096403118387
 20
15.52302165032186
 10
191.5554134400767
 20
15.88028701063015
 10
191.0790596263324
 20
16.11846391750235
 10
189.6896943362446
 20
16.63451388239205
 10
189.6896943362446
 20
18.34144838164276
 10
189.0148597667734
 20
18.34144838164276
  0
LWPOLYLINE
  5
1DA
330
1F
100
AcDbEntity
  8
0
  6
Continuous
 62
     7
100
AcDbPolyline
 90
       24
 70
     0
 43
0.0
 10
186.6727868491969
 20
17.62691766102621
 10
186.5536983957608
 20
17.5872215098808
 10
181.9886410140439
 20
17.5872215098808
 10
181.9886410140439
 20
16.99177924270035
 10
186.0376484308711
 20
16.99177924270035
 10
185.2040292568184
 20
16.07876776635695
 10
184.7673715942194
 20
15.6818062549033
 10
184.3704100827658
 20
15.2848447434497
 10
183.6161832110038
 20
15.9596793129209
 10
183.3780063041316
 20
16.11846391750235
 10
182.9413486415326
 20
15.6818062549033
 10
183.6161832110038
 20
15.12606013886825
 10
184.1322331758936
 20
14.64970632512385
 10
184.608586989638
 20
14.13365636023411
 10
185.1246369545277
 20
13.49851794190825
 10
185.6406869194174
 20
13.9351756045073
 10
185.1643331056731
 20
14.451225569397
 10
184.7673715942194
 20
14.88788323199605
 10
185.2834215591091
 20
15.32454089459505
 10
185.7994715239989
 20
15.8405908594848
 10
186.3155214888886
 20
16.3566408243745
 10
186.8315714537784
 20
16.99177924270035
 10
187.0300522095052
 20
17.11086769613645
 10
186.6727868491969
 20
17.62691766102621
  0
LWPOLYLINE
  5
1DB
330
1F
100
AcDbEntity
  8
0
  6
Continuous
 62
     7
100
AcDbPolyline
 90
       20
 70
     0
 43
0.0
 10
177.7014566903445
 20
18.38114453278811
 10
177.0663182720187
 20
18.262056079352
 10
177.3441913300362
 20
16.8329946381189
 10
175.6769529819309
 20
16.515425428956
 10
175.7563452842217
 20
15.9199831617755
 10
177.4632797834723
 20
16.2772485220838
 10
178.0587220506528
 20
12.98246797701855
 10
178.6938604689786
 20
13.10155643045466
 10
178.0587220506528
 20
16.39633697551991
 10
179.9641373056303
 20
16.79329848697355
 10
179.4480873407406
 20
16.11846391750235
 10
178.8526450735601
 20
15.40393319688575
 10
179.2893027361591
 20
15.00697168543216
 10
179.9641373056303
 20
15.80089470833941
 10
180.7580603285376
 20
16.8329946381189
 10
180.9565410842644
 20
17.0314753938457
 10
180.4404911193747
 20
17.5078292075901
 10
180.361098817084
 20
17.42843690529936
 10
177.9396335972167
 20
16.952083091555
 10
177.7014566903445
 20
18.38114453278811
  0
MTEXT
  5
1DC
330
1F
100
AcDbEntity
  8
0
 62
     7
100
AcDbMText
 10
6.467717621803075
 20
11.46540368558067
 30
0.0
 40
2.700000047683716
 41
0.0
 71
     7
 72
     1
  1
{\W0.833333;色}
 73
     1
 44
1.0
  0
MTEXT
  5
1DD
330
1F
100
AcDbEntity
  8
0
 62
     7
100
AcDbMText
 10
6.942717615842611
 20
15.99281633639941
 30
0.0
 40
2.700000047683716
 41
0.0
 71
     7
 72
     1
  1
{\W0.833333;仕上}
 73
     1
 44
1.0
  0
MTEXT
  5
1DE
330
1F
100
AcDbEntity
  8
0
 62
     7
100
AcDbMText
 10
1.526773674472395
 20
255.1002468897384
 30
0.0
 40
2.700000047683716
 41
0.0
 71
     7
 72
     1
  1
{\W1;A}
 73
     1
 44
1.0
  0
MTEXT
  5
1DF
330
1F
100
AcDbEntity
  8
0
 62
     7
100
AcDbMText
 10
6.795897345449191
 20
21.29715693248906
 30
0.0
 40
2.700000047683716
 41
0.0
 71
     7
 72
     1
  1
{\W0.833333;材質}
 73
     1
 44
1.0
  0
MTEXT
  5
1E0
330
1F
100
AcDbEntity
  8
0
 62
     7
100
AcDbMText
 10
245.3101851940155
 20
22.0
 30
0.0
 40
2.5
 41
0.0
 71
     7
 72
     1
  1
{\W0.833333;件名}
 73
     1
 44
1.0
  0
MTEXT
  5
1E1
330
1F
100
AcDbEntity
  8
0
 62
     7
100
AcDbMText
 10
245.3101851940155
 20
12.0
 30
0.0
 40
2.5
 41
0.0
 71
     7
 72
     1
  1
{\W0.833333;名称}
 73
     1
 44
1.0
  0
MTEXT
  5
1E2
330
1F
100
AcDbEntity
  8
0
 62
     7
100
AcDbMText
 10
29.0192592711802
 20
280.1758106757466
 30
0.0
 40
2.700000047683716
 41
0.0
 71
     7
 72
     1
  1
{\W1;1}
 73
     1
 44
1.0
  0
MTEXT
  5
1E3
330
1F
100
AcDbEntity
  8
0
 62
     7
100
AcDbMText
 10
78.1442592711802
 20
280.1758106757466
 30
0.0
 40
2.700000047683716
 41
0.0
 71
     7
 72
     1
  1
{\W1;2}
 73
     1
 44
1.0
  0
MTEXT
  5
1E4
330
1F
100
AcDbEntity
  8
0
 62
     7
100
AcDbMText
 10
127.2692592711802
 20
280.1758106757466
 30
0.0
 40
2.700000047683716
 41
0.0
 71
     7
 72
     1
  1
{\W1;3}
 73
     1
 44
1.0
  0
MTEXT
  5
1E5
330
1F
100
AcDbEntity
  8
0
 62
     7
100
AcDbMText
 10
176.3942592711802
 20
280.1758106757466
 30
0.0
 40
2.700000047683716
 41
0.0
 71
     7
 72
     1
  1
{\W1;4}
 73
     1
 44
1.0
  0
MTEXT
  5
1E6
330
1F
100
AcDbEntity
  8
0
 62
     7
100
AcDbMText
 10
225.5192592711802
 20
280.1758106757466
 30
0.0
 40
2.700000047683716
 41
0.0
 71
     7
 72
     1
  1
{\W1;5}
 73
     1
 44
1.0
  0
MTEXT
  5
1E7
330
1F
100
AcDbEntity
  8
0
 62
     7
100
AcDbMText
 10
274.6442592711802
 20
280.1758106757466
 30
0.0
 40
2.700000047683716
 41
0.0
 71
     7
 72
     1
  1
{\W1;6}
 73
     1
 44
1.0
  0
MTEXT
  5
1E8
330
1F
100
AcDbEntity
  8
0
 62
     7
100
AcDbMText
 10
323.7692592711802
 20
280.1758106757466
 30
0.0
 40
2.700000047683716
 41
0.0
 71
     7
 72
     1
  1
{\W1;7}
 73
     1
 44
1.0
  0
MTEXT
  5
1E9
330
1F
100
AcDbEntity
  8
0
 62
     7
100
AcDbMText
 10
372.8942592711802
 20
280.1758106757466
 30
0.0
 40
2.700000047683716
 41
0.0
 71
     7
 72
     1
  1
{\W1;8}
 73
     1
 44
1.0
  0
MTEXT
  5
1EA
330
1F
100
AcDbEntity
  8
0
 62
     7
100
AcDbMText
 10
1.526773674472395
 20
209.4335802230717
 30
0.0
 40
2.700000047683716
 41
0.0
 71
     7
 72
     1
  1
{\W1;B}
 73
     1
 44
1.0
  0
MTEXT
  5
1EB
330
1F
100
AcDbEntity
  8
0
 62
     7
100
AcDbMText
 10
1.526773674472395
 20
163.7669135564051
 30
0.0
 40
2.700000047683716
 41
0.0
 71
     7
 72
     1
  1
{\W1;C}
 73
     1
 44
1.0
  0
MTEXT
  5
1EC
330
1F
100
AcDbEntity
  8
0
 62
     7
100
AcDbMText
 10
1.526773674472395
 20
118.1002468897384
 30
0.0
 40
2.700000047683716
 41
0.0
 71
     7
 72
     1
  1
{\W1;D}
 73
     1
 44
1.0
  0
MTEXT
  5
1ED
330
1F
100
AcDbEntity
  8
0
 62
     7
100
AcDbMText
 10
1.526773674472395
 20
72.43358022307171
 30
0.0
 40
2.700000047683716
 41
0.0
 71
     7
 72
     1
  1
{\W1;E}
 73
     1
 44
1.0
  0
MTEXT
  5
1EE
330
1F
100
AcDbEntity
  8
0
 62
     7
100
AcDbMText
 10
1.526773674472395
 20
26.76691355640506
 30
0.0
 40
2.700000047683716
 41
0.0
 71
     7
 72
     1
  1
{\W1;F}
 73
     1
 44
1.0
  0
MTEXT
  5
1EF
330
1F
100
AcDbEntity
  8
0
 62
     7
100
AcDbMText
 10
366.6108992326722
 20
17.29291908537675
 30
0.0
 40
3.200000047683716
 41
0.0
 71
     7
 72
     1
  1
{\W1;A3}
 73
     1
 44
1.0
  0
MTEXT
  5
1F0
330
1F
100
AcDbEntity
  8
0
 62
     7
100
AcDbMText
 10
141.9976851940155
 20
22.0
 30
0.0
 40
2.5
 41
0.0
 71
     7
 72
     1
  1
{\W0.833333;出図}
 73
     1
 44
1.0
  0
MTEXT
  5
1F1
330
1F
100
AcDbEntity
  8
0
 62
     7
100
AcDbMText
 10
6.942717615842611
 20
6.150614921576079
 30
0.0
 40
2.700000047683716
 41
0.0
 71
     7
 72
     1
  1
{\W0.833333;数量}
 73
     1
 44
1.0
  0
MTEXT
  5
1F2
330
1F
100
AcDbEntity
  8
0
 62
     7
100
AcDbMText
 10
14.70823287401544
 20
20.79976838552138
 30
0.0
 40
3.0
 41
0.0
 71
     7
 72
     1
  1
{\W0.833333;ＳＥＣＣ－Ｐ１．２}
 73
     1
 44
1.0
  0
MTEXT
  5
1F3
330
1F
100
AcDbEntity
  8
0
 62
     7
100
AcDbMText
 10
63.92414716195006
 20
5.953770893279625
 30
0.0
 40
2.700000047683716
 41
0.0
 71
     7
 72
     1
  1
{\W0.833333;単位}
 73
     1
 44
1.0
  0
MTEXT
  5
1F4
330
1F
100
AcDbEntity
  8
0
 62
     7
100
AcDbMText
 10
72.39841687558058
 20
6.000614945417936
 30
0.0
 40
3.0
 41
0.0
 71
     7
 72
     1
  1
{\W0.833333;枚}
 73
     1
 44
1.0
  0
MTEXT
  5
1F5
330
1F
100
AcDbEntity
  8
0
 62
     7
100
AcDbMText
 10
64.43336730939288
 20
11.07171562898773
 30
0.0
 40
2.700000047683716
 41
0.0
 71
     7
 72
     1
  1
{\W0.833333;艶}
 73
     1
 44
1.0
  0
MTEXT
  5
1F6
330
1F
100
AcDbEntity
  8
0
 62
     7
100
AcDbMText
 10
15.15738900731048
 20
15.84281636024127
 30
0.0
 40
3.0
 41
0.0
 71
     7
 72
     1
  1
{\W0.833333;焼付塗装}
 73
     1
 44
1.0
  0
MTEXT
  5
1F7
330
1F
100
AcDbEntity
  8
0
 62
     7
100
AcDbMText
 10
14.96054497901403
 20
10.92171565282959
 30
0.0
 40
3.0
 41
0.0
 71
     7
 72
     1
  1
{\W0.833333;５Ｙ７／１}
 73
     1
 44
1.0
  0
MTEXT
  5
1F8
330
1F
100
AcDbEntity
  8
0
 62
     7
100
AcDbMText
 10
72.72935063830735
 20
10.92171565282959
 30
0.0
 40
3.0
 41
0.0
 71
     7
 72
     1
  1
{\W0.833333;５分}
 73
     1
 44
1.0
  0
MTEXT
  5
1F9
330
1F
100
AcDbEntity
  8
0
 62
     7
100
AcDbMText
 10
336.8289879659858
 20
26.26761555650913
 30
0.0
 40
2.5
 41
0.0
 71
     7
 72
     1
  1
{\W0.833333;作成日　２０20年　07月　01日}
 73
     1
 44
1.0
  0
MTEXT
  5
1FA
330
1F
100
AcDbEntity
  8
0
 62
     7
100
AcDbMText
 10
0.472222208976746
 20
1.0
 30
0.0
 40
3.0
 41
0.0
 71
     7
 72
     1
  1
{\W0.833333;００ａ}
 73
     1
 44
1.0
  0
MTEXT
  5
1FB
330
1F
100
AcDbEntity
  8
0
 62
     7
100
AcDbMText
 10
336.0601851940155
 20
12.0
 30
0.0
 40
2.5
 41
0.0
 71
     7
 72
     1
  1
{\W0.833333;図面番号}
 73
     1
 44
1.0
  0
MTEXT
  5
1FC
330
1F
100
AcDbEntity
  8
0
 62
     7
100
AcDbMText
 10
359.5001181048956
 20
21.76208290103611
 30
0.0
 40
2.5
 41
0.0
 71
     7
 72
     1
  1
{\W0.833333;サイズ}
 73
     1
 44
1.0
  0
MTEXT
  5
1FD
330
1F
100
AcDbEntity
  8
0
 62
     7
100
AcDbMText
 10
383.8289879659858
 20
26.26761555650913
 30
0.0
 40
2.5
 41
0.0
 71
     7
 72
     1
  1
{\W0.833333;単位　ｍｍ}
 73
     1
 44
1.0
  0
MTEXT
  5
1FE
330
1F
100
AcDbEntity
  8
0
 62
     7
100
AcDbMText
 10
122.6851851940155
 20
22.0
 30
0.0
 40
2.5
 41
0.0
 71
     7
 72
     1
  1
{\W0.833333;検図}
 73
     1
 44
1.0
  0
MTEXT
  5
1FF
330
1F
100
AcDbEntity
  8
0
 62
     7
100
AcDbMText
 10
388.3000000119209
 20
7.649999976158142
 30
0.0
 40
2.700000047683716
 41
0.0
 71
     7
 72
     1
  1
{\W0.833333;/}
 73
     1
 44
1.0
  0
MTEXT
  5
200
330
1F
100
AcDbEntity
  8
0
 62
     7
100
AcDbMText
 10
385.6000000238419
 20
11.89999997615814
 30
0.0
 40
2.700000047683716
 41
0.0
 71
     7
 72
     1
  1
{\W0.833333;シート}
 73
     1
 44
1.0
  0
MTEXT
  5
201
330
1F
100
AcDbEntity
  8
0
 62
     7
100
AcDbMText
 10
384.2500000298023
 20
17.64999997615814
 30
0.0
 40
2.700000047683716
 41
0.0
 71
     7
 72
     1
  1
{\W1;1/10}
 73
     1
 44
1.0
  0
MTEXT
  5
202
330
1F
100
AcDbEntity
  8
0
 62
     7
100
AcDbMText
 10
384.2500000298023
 20
21.89999997615814
 30
0.0
 40
2.700000047683716
 41
0.0
 71
     7
 72
     1
  1
{\W0.833333;スケール}
 73
     1
 44
1.0
  0
MTEXT
  5
203
330
1F
100
AcDbEntity
  8
0
 62
     7
100
AcDbMText
 10
337.6342593431473
 20
7.25
 30
0.0
 40
3.5
 41
0.0
 71
     7
 72
     1
  1
{\W0.833333;ＹＭＭ－Ａ５２－００2}
 73
     1
 44
1.0
  0
MTEXT
  5
204
102
{ACAD_XDICTIONARY
360
2E5
102
}
330
1F
100
AcDbEntity
  8
0
 62
     7
100
AcDbMText
 10
252.5051603806309
 20
5.958594751707931
 30
0.0
 40
3.5
 41
74.4799922990799
 71
     7
 72
     1
  1
{\fＭＳ Ｐゴシック|b0|i0|c0|p0;\W0.83333x;\U+30DE\U+30EB\U+30C1\U+FF2D\U+FF21\U+FF38\U+3000\U+FF2D\U+FF24\U+FF26}\P{\fＭＳ Ｐゴシック|b0|i0|c0|p0;\W0.83333x;\U+FF39\U+FF2D\U+FF2D\U+FF0D\U+FF33\U+FF30\U+FF33\U+FF08\U+5074\U+9762\U+677F\U+30FB\U+7247\U+9762\U+7528\U+FF09\U+3000\U+5916\U+89B3\U+56F3}
 73
     1
 44
0.781666656732559
  0
MTEXT
  5
205
330
1F
100
AcDbEntity
  8
0
 62
     7
100
AcDbMText
 10
111.7691585898606
 20
27.75738600482709
 30
0.0
 40
2.700000047683716
 41
0.0
 71
     7
 72
     1
  1
{\W0.833333;\Q15;ＳＧ－４Ｇ}
 73
     1
 44
1.0
  0
MTEXT
  5
206
330
1F
100
AcDbEntity
  8
0
 62
     7
100
AcDbMText
 10
315.3472583409992
 20
182.4205803632874
 30
0.0
 40
2.700000047683716
 41
0.0
 71
     7
 72
     1
  1
{\W0.833333;\Q15;側面板固定金具（片面用）　２本}
 73
     1
 44
1.0
  0
MTEXT
  5
207
330
1F
100
AcDbEntity
  8
0
 62
     7
100
AcDbMText
 10
319.8191393457806
 20
177.2967601703363
 30
0.0
 40
2.700000047683716
 41
0.0
 71
     7
 72
     1
  1
{\W0.833333;\Q15;ＹＭＭ－Ａ５２－０２１}
 73
     1
 44
1.0
  0
MTEXT
  5
208
330
1F
100
AcDbEntity
  8
0
 62
     7
100
AcDbMText
 10
330.5237080043589
 20
226.9384718999473
 30
0.0
 40
5.0
 41
0.0
 71
     7
 72
     1
  1
{\W0.833333;\Q15;付属品}
 73
     1
 44
1.0
  0
MTEXT
  5
209
330
1F
100
AcDbEntity
  8
0
 62
     7
100
AcDbMText
 10
308.4758264569521
 20
165.3033587100891
 30
0.0
 40
2.700000047683716
 41
0.0
 71
     7
 72
     1
  1
{\W0.833333;\Q15;●蝶ボルト（Ｍ４×１０）　１本}
 73
     1
 44
1.0
  0
MTEXT
  5
20A
330
1F
100
AcDbEntity
  8
0
 62
     7
100
AcDbMText
 10
167.3061776261207
 20
40.20368318755885
 30
0.0
 40
2.700000047683716
 41
0.0
 71
     7
 72
     1
  1
{\W0.833333;\Q15;側面板　１枚}
 73
     1
 44
1.0
  0
MTEXT
  5
20B
330
1F
100
AcDbEntity
  8
0
 62
     7
100
AcDbMText
 10
159.9352697683234
 20
34.88800431889449
 30
0.0
 40
2.700000047683716
 41
0.0
 71
     7
 72
     1
  1
{\W0.833333;\Q15;ＹＭＭ－Ａ５２－０１１}
 73
     1
 44
1.0
  0
MTEXT
  5
20C
330
1F
100
AcDbEntity
  8
0
 62
     7
100
AcDbMText
 10
308.3617804409805
 20
158.5652284290215
 30
0.0
 40
2.700000047683716
 41
0.0
 71
     7
 72
     1
  1
{\W0.833333;\Q15;●金具取付ネジ（Ｍ４×８サラ／クロメート）　６本}
 73
     1
 44
1.0
  0
MTEXT
  5
20D
330
1F
100
AcDbEntity
  8
0
 62
     7
100
AcDbMText
 10
235.8342093686307
 20
221.2587068565812
 30
0.0
 40
2.700000047683716
 41
0.0
 71
     7
 72
     1
  1
{\W0.833333;\Q15;バーリング}
 73
     1
 44
1.0
  0
HATCH
  5
20E
330
1F
100
AcDbEntity
  8
0
 62
     7
100
AcDbHatch
 10
0.0
 20
0.0
 30
0.0
210
0.0
220
0.0
230
1.0
  2
SOLID
 70
     1
 71
     0
 91
        5
 92
        3
 72
     1
 73
     1
 93
       32
 10
197.4304438095907
 20
18.262056079352
 42
0.0
 10
194.6517132294152
 20
18.262056079352
 42
0.0
 10
194.6517132294152
 20
17.882056079352
 42
0.0
 10
196.8264313183682
 20
17.88205607935198
 42
0.0
 10
196.3076477286658
 20
17.4670292075901
 42
0.0
 10
195.7258232625325
 20
17.77733558952784
 42
0.0
 10
195.4853324034679
 20
17.46813305644478
 42
0.0
 10
196.2395592752298
 20
16.952083091555
 42
0.0
 10
194.7708016828513
 20
16.952083091555
 42
0.0
 10
194.7708016828513
 20
13.89547945336195
 42
0.0
 10
195.3265477988864
 20
13.89547945336195
 42
0.0
 10
195.3265477988864
 20
14.8481870808507
 42
0.0
 10
196.0410785195029
 20
14.8481870808507
 42
0.0
 10
196.041078519503
 20
13.9351756045073
 42
0.0
 10
196.5174323332473
 20
13.9351756045073
 42
0.0
 10
196.5174323332473
 20
14.8481870808507
 42
0.0
 10
197.4304438095907
 20
14.8481870808507
 42
0.0
 10
197.4304438095908
 20
14.41152941825162
 42
0.0
 10
197.3907476584453
 20
14.33213711596095
 42
0.0
 10
196.9143938447008
 20
14.33213711596089
 42
0.0
 10
197.033482298137
 20
14.09396020908876
 42
0.0
 10
197.0334822981371
 20
13.81608715107121
 42
0.0
 10
197.470139960736
 20
13.89547945336198
 42
0.0
 10
197.7480130187536
 20
13.97487175565261
 42
0.0
 10
197.8671014721898
 20
14.05426405794339
 42
0.0
 10
197.9464937744804
 20
14.21304866252485
 42
0.0
 10
197.9464937744805
 20
16.952083091555
 42
0.0
 10
196.7556092401195
 20
16.95208309155498
 42
0.0
 10
196.914393844701
 20
17.11086769613642
 42
0.0
 10
196.7159130889742
 20
17.26965230071782
 42
0.0
 10
197.7480130187537
 20
17.9444868701891
 42
0.0
 10
197.5098361118814
 20
18.30175223049741
 42
0.0
 97
        0
 92
        3
 72
     0
 73
     1
 93
        4
 10
196.0410785195029
 20
16.515425428956
 10
196.041078519503
 20
16.07876776635695
 10
195.3265477988864
 20
16.07876776635695
 10
195.3265477988864
 20
16.515425428956
 97
        0
 92
        3
 72
     0
 73
     1
 93
        4
 10
196.0410785195029
 20
15.6818062549033
 10
196.041078519503
 20
15.20545244115895
 10
195.3265477988864
 20
15.20545244115895
 10
195.3265477988864
 20
15.6818062549033
 97
        0
 92
        3
 72
     0
 73
     1
 93
        4
 10
197.4304438095907
 20
16.515425428956
 10
197.4304438095907
 20
16.07876776635695
 10
196.5174323332473
 20
16.07876776635695
 10
196.5174323332473
 20
16.515425428956
 97
        0
 92
        3
 72
     0
 73
     1
 93
        4
 10
197.4304438095907
 20
15.6818062549033
 10
197.4304438095907
 20
15.20545244115895
 10
196.5174323332473
 20
15.20545244115895
 10
196.5174323332473
 20
15.6818062549033
 97
        0
 75
     0
 76
     1
 98
        0
  0
HATCH
  5
20F
330
1F
100
AcDbEntity
  8
0
 62
     7
100
AcDbHatch
 10
0.0
 20
0.0
 30
0.0
210
0.0
220
0.0
230
1.0
  2
SOLID
 70
     1
 71
     0
 91
        1
 92
        3
 72
     1
 73
     1
 93
        4
 10
203.9406125974305
 20
15.7248177312467
 42
0.0
 10
201.0427935638188
 20
15.7248177312467
 42
0.0
 10
201.0427935638189
 20
15.34846391750235
 42
0.0
 10
203.9406125974304
 20
15.34846391750235
 42
0.0
 97
        0
 75
     0
 76
     1
 98
        0
  0
HATCH
  5
210
330
1F
100
AcDbEntity
  8
0
 62
     7
100
AcDbHatch
 10
0.0
 20
0.0
 30
0.0
210
0.0
220
0.0
230
1.0
  2
SOLID
 70
     1
 71
     0
 91
        1
 92
        3
 72
     0
 73
     1
 93
        4
 10
203.9406125974305
 20
16.5748177312467
 10
201.0427935638188
 20
16.5748177312467
 10
201.0427935638189
 20
16.19846391750235
 10
203.9406125974304
 20
16.19846391750235
 97
        0
 75
     0
 76
     1
 98
        0
  0
HATCH
  5
211
330
1F
100
AcDbEntity
  8
0
 62
     7
100
AcDbHatch
 10
0.0
 20
0.0
 30
0.0
210
0.0
220
0.0
230
1.0
  2
SOLID
 70
     1
 71
     0
 91
        1
 92
        3
 72
     1
 73
     1
 93
       16
 10
239.3495794190956
 20
18.5002329862242
 42
0.0
 10
239.9450216862761
 20
18.5002329862242
 42
0.0
 10
239.9450216862761
 20
16.55512158010135
 42
0.0
 10
241.2549946740731
 20
16.55512158010135
 42
0.0
 10
241.2549946740732
 20
16.0390716152116
 42
0.0
 10
239.9450216862761
 20
16.0390716152116
 42
0.0
 10
239.9450216862761
 20
13.6969986976351
 42
0.0
 10
241.4534754297999
 20
13.6969986976351
 42
0.0
 10
241.4534754298
 20
13.14125258160001
 42
0.0
 10
237.7220372221356
 20
13.14125258160001
 42
0.0
 10
237.7220372221356
 20
13.6969986976351
 42
0.0
 10
239.3495794190956
 20
13.6969986976351
 42
0.0
 10
239.3495794190956
 20
16.0390716152116
 42
0.0
 10
238.1586948847347
 20
16.0390716152116
 42
0.0
 10
238.1586948847347
 20
16.55512158010135
 42
0.0
 10
239.3495794190956
 20
16.55512158010135
 42
0.0
 97
        0
 75
     0
 76
     1
 98
        0
  0
HATCH
  5
212
330
1F
100
AcDbEntity
  8
0
 62
     7
100
AcDbHatch
 10
0.0
 20
0.0
 30
0.0
210
0.0
220
0.0
230
1.0
  2
SOLID
 70
     1
 71
     0
 91
        1
 92
        3
 72
     1
 73
     1
 93
       25
 10
236.7296334435016
 20
18.5002329862242
 42
0.0
 10
237.2853795595367
 20
18.5002329862242
 42
0.0
 10
237.2853795595367
 20
17.5078292075901
 42
0.0
 10
237.8808218267172
 20
17.5078292075901
 42
0.0
 10
237.960214129008
 20
17.50782920759018
 42
0.0
 10
238.3174794893164
 20
17.15056384728163
 42
0.0
 10
237.9205179778623
 20
16.59481773124681
 42
0.0
 10
237.4441641641181
 20
15.95967931292093
 42
0.0
 10
238.277783338171
 20
15.12606013886814
 42
0.0
 10
237.9205179778622
 20
14.64970632512372
 42
0.0
 10
237.6029487686996
 20
14.96727553428677
 42
0.0
 10
237.2853795595367
 20
15.32454089459505
 42
0.0
 10
237.2853795595367
 20
12.9427718258732
 42
0.0
 10
236.7296334435015
 20
12.9427718258732
 42
0.0
 10
236.7296334435015
 20
15.16575629001368
 42
0.0
 10
236.3723680831932
 20
14.88788323199606
 42
0.0
 10
236.0547988740304
 20
14.64970632512399
 42
0.0
 10
235.7372296648675
 20
15.16575629001355
 42
0.0
 10
236.2135834786118
 20
15.52302165032187
 42
0.0
 10
236.6899372923563
 20
15.95967931292084
 42
0.0
 10
237.1265949549554
 20
16.43603312666511
 42
0.0
 10
237.5235564664088
 20
16.99177924270035
 42
0.0
 10
235.9357104205942
 20
16.99177924270035
 42
0.0
 10
235.9357104205943
 20
17.5078292075901
 42
0.0
 10
236.7296334435015
 20
17.5078292075901
 42
0.0
 97
        0
 75
     0
 76
     1
 98
        0
  0
HATCH
  5
213
330
1F
100
AcDbEntity
  8
0
 62
     7
100
AcDbHatch
 10
0.0
 20
0.0
 30
0.0
210
0.0
220
0.0
230
1.0
  2
SOLID
 70
     1
 71
     0
 91
        1
 92
        3
 72
     1
 73
     1
 93
       21
 10
229.9018954464989
 20
14.88788323199605
 42
0.0
 10
231.4103491900229
 20
14.88788323199599
 42
0.0
 10
230.894299225133
 20
13.577910244199
 42
0.0
 10
230.0606800510802
 20
13.5382140930536
 42
0.0
 10
230.2591608068072
 20
12.90307567472778
 42
0.0
 10
231.8073107014763
 20
13.14125258160002
 42
0.0
 10
233.8715105610353
 20
13.4588217907629
 42
0.0
 10
234.2684720724889
 20
12.86337952358245
 42
0.0
 10
234.7845220373788
 20
13.22064488389081
 42
0.0
 10
234.149383619053
 20
14.01456790679811
 42
0.0
 10
233.5142452007272
 20
14.72909862741449
 42
0.0
 10
233.0775875381281
 20
14.41152941825175
 42
0.0
 10
233.5142452007271
 20
13.89547945336193
 42
0.0
 10
232.4821452709475
 20
13.73669484878046
 42
0.0
 10
231.4897414923136
 20
13.61760639534432
 42
0.0
 10
231.6485260968946
 20
13.93517560450741
 42
0.0
 10
231.9263991549124
 20
14.53061787168778
 42
0.0
 10
232.1248799106393
 20
14.88788323199605
 42
0.0
 10
235.0623950953962
 20
14.88788323199605
 42
0.0
 10
235.0623950953963
 20
15.40393319688575
 42
0.0
 10
229.9018954464988
 20
15.40393319688575
 42
0.0
 97
        0
 75
     0
 76
     1
 98
        0
  0
HATCH
  5
214
330
1F
100
AcDbEntity
  8
0
 62
     7
100
AcDbHatch
 10
0.0
 20
0.0
 30
0.0
210
0.0
220
0.0
230
1.0
  2
SOLID
 70
     1
 71
     0
 91
        2
 92
        3
 72
     1
 73
     1
 93
       27
 10
229.5843262373361
 20
16.23755237093846
 42
0.0
 10
229.7431108419173
 20
16.07876776635692
 42
0.0
 10
229.9018954464989
 20
15.76119855719401
 42
0.0
 10
230.4179454113885
 20
16.07876776635698
 42
0.0
 10
230.894299225133
 20
16.43603312666526
 42
0.0
 10
230.894299225133
 20
15.99937546406625
 42
0.0
 10
233.8715105610353
 20
15.99937546406625
 42
0.0
 10
233.8715105610354
 20
16.47572927781073
 42
0.0
 10
234.4272566770704
 20
16.11846391750228
 42
0.0
 10
234.9830027931057
 20
15.80089470833933
 42
0.0
 10
235.0623950953963
 20
15.95967931292093
 42
0.0
 10
235.1417873976871
 20
16.07876776635683
 42
0.0
 10
235.2608758511232
 20
16.19785621979294
 42
0.0
 10
235.3799643045591
 20
16.31694467322912
 42
0.0
 10
234.5860412816519
 20
16.71390618468286
 42
0.0
 10
234.2287759213436
 20
16.952083091555
 42
0.0
 10
233.8715105610352
 20
17.19025999842708
 42
0.0
 10
233.5539413518722
 20
17.42843690529921
 42
0.0
 10
233.2760682938546
 20
17.70630996331671
 42
0.0
 10
232.9981952358372
 20
17.98418302133447
 42
0.0
 10
232.7600183289652
 20
18.26205607935194
 42
0.0
 10
232.8791067824012
 20
18.3811445327881
 42
0.0
 10
232.2439683640757
 20
18.57962528851469
 42
0.0
 10
231.6088299457496
 20
17.82539841675298
 42
0.0
 10
230.9339953762783
 20
17.19025999842718
 42
0.0
 10
230.2591608068071
 20
16.67421003353743
 42
0.0
 10
229.9415915976443
 20
16.43603312666521
 42
0.0
 97
        0
 92
        3
 72
     1
 73
     1
 93
        7
 10
233.7921182587446
 20
16.515425428956
 42
0.0
 10
231.013387678569
 20
16.51542542895609
 42
0.0
 10
231.6882222480404
 20
17.15056384728173
 42
0.0
 10
232.4027529686568
 20
17.90479071904379
 42
0.0
 10
232.7203221778196
 20
17.50782920758995
 42
0.0
 10
233.0378913869826
 20
17.19025999842714
 42
0.0
 10
233.3951567472909
 20
16.8329946381189
 42
0.0
 97
        0
 75
     0
 76
     1
 98
        0
  0
HATCH
  5
215
330
1F
100
AcDbEntity
  8
0
 62
     7
100
AcDbHatch
 10
0.0
 20
0.0
 30
0.0
210
0.0
220
0.0
230
1.0
  2
SOLID
 70
     1
 71
     0
 91
        1
 92
        3
 72
     1
 73
     1
 93
       12
 10
223.9077766235489
 20
15.99937546406625
 42
0.0
 10
226.4880264479975
 20
15.99937546406625
 42
0.0
 10
226.4880264479976
 20
15.48332549917651
 42
0.0
 10
225.5353188205088
 20
15.48332549917651
 42
0.0
 10
225.5353188205088
 20
13.9748717556526
 42
0.0
 10
226.7262033548697
 20
14.17335251137946
 42
0.0
 10
226.7262033548697
 20
13.61760639534431
 42
0.0
 10
223.7886881701125
 20
13.14125258159996
 42
0.0
 10
223.6695997166767
 20
13.73669484878043
 42
0.0
 10
224.9795727044736
 20
13.9351756045073
 42
0.0
 10
224.9795727044737
 20
15.48332549917651
 42
0.0
 10
223.9077766235488
 20
15.48332549917651
 42
0.0
 97
        0
 75
     0
 76
     1
 98
        0
  0
HATCH
  5
216
330
1F
100
AcDbEntity
  8
0
 62
     7
100
AcDbHatch
 10
0.0
 20
0.0
 30
0.0
210
0.0
220
0.0
230
1.0
  2
SOLID
 70
     1
 71
     0
 91
        1
 92
        3
 72
     0
 73
     1
 93
        4
 10
227.8376955869399
 20
18.42084068393349
 10
228.5919224587018
 20
17.82539841675303
 10
228.2346570983933
 20
17.46813305644464
 10
227.5201263777769
 20
18.06357532362523
 97
        0
 75
     0
 76
     1
 98
        0
  0
HATCH
  5
217
330
1F
100
AcDbEntity
  8
0
 62
     7
100
AcDbHatch
 10
0.0
 20
0.0
 30
0.0
210
0.0
220
0.0
230
1.0
  2
SOLID
 70
     1
 71
     0
 91
        1
 92
        3
 72
     0
 73
     1
 93
       38
 10
226.7262033548697
 20
18.46053683507885
 10
227.3216456220502
 20
18.46053683507885
 10
227.3216456220502
 20
17.38874075415401
 10
228.9888839701555
 20
17.38874075415401
 10
228.9888839701555
 20
16.87269078926425
 10
227.3216456220502
 20
16.87269078926425
 10
227.3613417731957
 20
16.11846391750236
 10
227.4407340754864
 20
15.44362934803116
 10
227.5995186800677
 20
14.80849092970531
 10
227.7979994357945
 20
14.25274481367017
 10
227.9170878892304
 20
13.93517560450719
 10
228.0758724938122
 20
13.73669484878056
 10
228.1949609472482
 20
13.61760639534434
 10
228.3537455518297
 20
13.57791024419893
 10
228.4331378541204
 20
13.61760639534431
 10
228.472834005266
 20
13.69699869763507
 10
228.5919224587018
 20
14.21304866252484
 10
228.8697955167192
 20
14.01456790679791
 10
229.1476685747367
 20
13.89547945336204
 10
228.9491878190103
 20
13.41912563961739
 10
228.7904032144287
 20
13.14125258159997
 10
228.6316186098472
 20
12.98246797701853
 10
228.5522263075565
 20
12.9427718258732
 10
228.4728340052658
 20
12.9427718258732
 10
228.3140494006843
 20
12.94277182587321
 10
228.1552647961028
 20
12.98246797701863
 10
227.9964801915212
 20
13.10155643045449
 10
227.83769558694
 20
13.18094873274548
 10
227.7186071335037
 20
13.33973333732672
 10
227.5598225289224
 20
13.53821409305371
 10
227.3216456220501
 20
13.97487175565263
 10
227.083468715178
 20
14.61001017397845
 10
226.9246841105965
 20
15.28484474344969
 10
226.8055956571604
 20
16.03907161521159
 10
226.7262033548697
 20
16.87269078926425
 10
223.709295867822
 20
16.87269078926425
 10
223.709295867822
 20
17.38874075415401
 10
226.7262033548697
 20
17.38874075415401
 97
        0
 75
     0
 76
     1
 98
        0
  0
HATCH
  5
218
330
1F
100
AcDbEntity
  8
0
 62
     7
100
AcDbHatch
 10
0.0
 20
0.0
 30
0.0
210
0.0
220
0.0
230
1.0
  2
SOLID
 70
     1
 71
     0
 91
        1
 92
        3
 72
     1
 73
     1
 93
       68
 10
218.2709231609071
 20
18.5002329862242
 42
0.0
 10
218.7869731257968
 20
18.5002329862242
 42
0.0
 10
218.7869731257968
 20
17.30934845186331
 42
0.0
 10
219.3824153929772
 20
17.30934845186331
 42
0.0
 10
219.3824153929773
 20
16.79329848697355
 42
0.0
 10
218.7869731257968
 20
16.79329848697355
 42
0.0
 10
218.7869731257969
 20
16.31694467322929
 42
0.0
 10
219.2236307883959
 20
15.80089470833954
 42
0.0
 10
219.461807695268
 20
15.56271780146721
 42
0.0
 10
219.461807695268
 20
15.9596793129209
 42
0.0
 10
220.9305652876465
 20
15.9596793129209
 42
0.0
 10
220.9305652876465
 20
16.87269078926425
 42
0.0
 10
220.136642264739
 20
16.87269078926434
 42
0.0
 10
219.8587692067217
 20
16.23755237093836
 42
0.0
 10
219.3427192418318
 20
16.43603312666532
 42
0.0
 10
219.6602884509946
 20
17.19025999842719
 42
0.0
 10
219.9381615090124
 20
18.06357532362528
 42
0.0
 10
220.4939076250478
 20
17.94448687018898
 42
0.0
 10
220.2954268693207
 20
17.38874075415401
 42
0.0
 10
220.9305652876465
 20
17.38874075415401
 42
0.0
 10
220.9305652876465
 20
18.46053683507885
 42
0.0
 10
221.4466152525362
 20
18.46053683507885
 42
0.0
 10
221.4466152525362
 20
17.38874075415401
 42
0.0
 10
222.5184113334611
 20
17.38874075415401
 42
0.0
 10
222.5184113334611
 20
16.87269078926425
 42
0.0
 10
221.4466152525362
 20
16.87269078926425
 42
0.0
 10
221.4466152525362
 20
15.9596793129209
 42
0.0
 10
222.835980542624
 20
15.9596793129209
 42
0.0
 10
222.835980542624
 20
15.44362934803114
 42
0.0
 10
221.645096008263
 20
15.44362934803114
 42
0.0
 10
221.9229690662808
 20
15.08636398772302
 42
0.0
 10
222.2802344265889
 20
14.68940247626925
 42
0.0
 10
222.6771959380426
 20
14.33213711596095
 42
0.0
 10
223.1138536006416
 20
13.97487175565264
 42
0.0
 10
222.7962843914787
 20
13.81608715107113
 42
0.0
 10
222.5978036357519
 20
13.57791024419913
 42
0.0
 10
221.9626652174259
 20
14.2130486625248
 42
0.0
 10
221.4466152525362
 20
14.80849092970531
 42
0.0
 10
221.4466152525362
 20
12.9427718258732
 42
0.0
 10
220.9305652876465
 20
12.9427718258732
 42
0.0
 10
220.9305652876465
 20
14.84818708085064
 42
0.0
 10
220.5336037761928
 20
14.45122556939695
 42
0.0
 10
220.1366422647392
 20
14.09396020908875
 42
0.0
 10
219.7793769044309
 20
13.77639099992589
 42
0.0
 10
219.4221115441228
 20
13.49851794190837
 42
0.0
 10
219.223630788396
 20
13.69699869763527
 42
0.0
 10
218.9854538815237
 20
13.89547945336193
 42
0.0
 10
219.461807695268
 20
14.25274481367026
 42
0.0
 10
219.8984653578671
 20
14.61001017397841
 42
0.0
 10
220.2954268693205
 20
15.04666783657764
 42
0.0
 10
220.6923883807743
 20
15.44362934803114
 42
0.0
 10
219.461807695268
 20
15.44362934803114
 42
0.0
 10
219.461807695268
 20
15.48332549917649
 42
0.0
 10
219.1839346372507
 20
15.086363987723
 42
0.0
 10
218.7869731257968
 20
15.52302165032186
 42
0.0
 10
218.7869731257968
 20
12.9427718258732
 42
0.0
 10
218.270923160907
 20
12.9427718258732
 42
0.0
 10
218.270923160907
 20
15.4039331968858
 42
0.0
 10
217.5166962891452
 20
14.09396020908881
 42
0.0
 10
217.3976078357091
 20
14.49092172054243
 42
0.0
 10
217.278519382273
 20
14.8084909297052
 42
0.0
 10
217.5960885914357
 20
15.32454089459515
 42
0.0
 10
217.8739616494537
 20
15.84059085948472
 42
0.0
 10
218.1121385563258
 20
16.31694467322907
 42
0.0
 10
218.2709231609071
 20
16.79329848697355
 42
0.0
 10
217.4373039868544
 20
16.79329848697355
 42
0.0
 10
217.4373039868544
 20
17.30934845186331
 42
0.0
 10
218.270923160907
 20
17.30934845186331
 42
0.0
 97
        0
 75
     0
 76
     1
 98
        0
  0
HATCH
  5
219
330
1F
100
AcDbEntity
  8
0
 62
     7
100
AcDbHatch
 10
0.0
 20
0.0
 30
0.0
210
0.0
220
0.0
230
1.0
  2
SOLID
 70
     1
 71
     0
 91
        2
 92
        3
 72
     0
 73
     1
 93
       72
 10
213.1898158143004
 20
17.5078292075901
 10
212.5149812448292
 20
17.50782920759012
 10
212.8722466051375
 20
17.70630996331695
 10
212.5943735471199
 20
18.06357532362514
 10
212.3165004891023
 20
18.3811445327881
 10
211.9195389776488
 20
18.06357532362526
 10
212.3958927913931
 20
17.5078292075901
 10
211.2844005593229
 20
17.5078292075901
 10
211.2844005593229
 20
17.0314753938457
 10
212.5943735471199
 20
17.03147539384567
 10
212.8325504539921
 20
16.43603312666526
 10
211.7210582219219
 20
16.43603312666526
 10
211.7210582219219
 20
15.9596793129209
 10
213.7058657791901
 20
15.9596793129209
 10
213.7058657791902
 20
15.6024139526126
 10
212.0783235822302
 20
15.6024139526126
 10
212.0783235822302
 20
15.1657562900136
 10
213.7058657791901
 20
15.1657562900136
 10
213.7058657791902
 20
14.76879477855996
 10
211.3637928616136
 20
14.76879477855996
 10
211.3637928616137
 20
14.29244096481555
 10
213.150119663155
 20
14.29244096481553
 10
212.713462000556
 20
14.05426405794344
 10
212.2371081868117
 20
13.81608715107118
 10
211.7607543730673
 20
13.65730254648973
 10
211.2447044081778
 20
13.49851794190837
 10
211.4034890127592
 20
13.2206448838908
 10
211.5225774661951
 20
13.02216412816392
 10
212.0783235822302
 20
13.22064488389069
 10
212.6340696982653
 20
13.4985179419082
 10
213.1898158143003
 20
13.77639099992599
 10
213.7058657791901
 20
14.13365636023411
 10
213.7058657791902
 20
12.90307567472779
 10
214.2616118952252
 20
12.90307567472779
 10
214.2616118952253
 20
14.25274481367026
 10
214.6982695578243
 20
13.85578330221674
 10
215.2540156738594
 20
13.5382140930537
 10
215.8494579410398
 20
13.22064488389071
 10
216.5639886616567
 20
12.98246797701849
 10
216.6036848128017
 20
13.10155643045466
 10
216.6433809639472
 20
13.26034103503601
 10
216.7624694173832
 20
13.37942948847224
 10
216.8815578708193
 20
13.45882179076286
 10
216.3258117547842
 20
13.6176063953443
 10
215.8097617898944
 20
13.81608715107126
 10
215.3334079761502
 20
14.05426405794344
 10
214.8967503135511
 20
14.29244096481555
 10
216.6433809639471
 20
14.29244096481555
 10
216.6433809639471
 20
14.76879477855996
 10
214.2616118952252
 20
14.76879477855996
 10
214.2616118952253
 20
15.1657562900136
 10
216.0082425456213
 20
15.1657562900136
 10
216.0082425456213
 20
15.6024139526126
 10
214.2616118952252
 20
15.6024139526126
 10
214.2616118952253
 20
15.9596793129209
 10
216.3258117547842
 20
15.9596793129209
 10
216.3258117547842
 20
16.43603312666526
 10
215.1349272204232
 20
16.43603312666531
 10
215.4524964295862
 20
17.0314753938457
 10
216.7624694173832
 20
17.0314753938457
 10
216.7624694173832
 20
17.5078292075901
 10
215.6509771853131
 20
17.50782920759008
 10
216.1273309990574
 20
18.14296762591593
 10
215.6112810341678
 20
18.42084068393338
 10
215.0555349181326
 20
17.5078292075901
 10
214.8173580112603
 20
17.5078292075901
 10
214.8173580112604
 20
18.5002329862242
 10
214.341004197516
 20
18.5002329862242
 10
214.341004197516
 20
17.5078292075901
 10
213.6661696280448
 20
17.5078292075901
 10
213.6661696280448
 20
18.5002329862242
 10
213.1898158143004
 20
18.5002329862242
 97
        0
 92
        3
 72
     0
 73
     1
 93
        4
 10
214.8570541624056
 20
17.03147539384568
 10
214.5394849532428
 20
16.43603312666526
 10
213.427992721173
 20
16.4360331266654
 10
213.1898158143004
 20
17.0314753938457
 97
        0
 75
     0
 76
     1
 98
        0
  0
HATCH
  5
21A
330
1F
100
AcDbEntity
  8
0
 62
     7
100
AcDbHatch
 10
0.0
 20
0.0
 30
0.0
210
0.0
220
0.0
230
1.0
  2
SOLID
 70
     1
 71
     0
 91
        1
 92
        3
 72
     1
 73
     1
 93
       12
 10
205.5681547943905
 20
17.98418302133445
 42
0.0
 10
210.212604478398
 20
17.98418302133445
 42
0.0
 10
210.212604478398
 20
17.46813305644475
 42
0.0
 10
208.1087084676937
 20
17.46813305644475
 42
0.0
 10
208.1087084676938
 20
13.9351756045073
 42
0.0
 10
210.530173687561
 20
13.9351756045073
 42
0.0
 10
210.530173687561
 20
13.3397333373268
 42
0.0
 10
205.2108894340821
 20
13.3397333373268
 42
0.0
 10
205.2108894340822
 20
13.9351756045073
 42
0.0
 10
207.5529623516586
 20
13.9351756045073
 42
0.0
 10
207.5529623516587
 20
17.46813305644475
 42
0.0
 10
205.5681547943904
 20
17.46813305644475
 42
0.0
 97
        0
 75
     0
 76
     1
 98
        0
  0
HATCH
  5
21B
330
1F
100
AcDbEntity
  8
0
 62
     7
100
AcDbHatch
 10
0.0
 20
0.0
 30
0.0
210
0.0
220
0.0
230
1.0
  2
SOLID
 70
     1
 71
     0
 91
        2
 92
        3
 72
     0
 73
     1
 93
        8
 10
201.0030974126735
 20
12.90307567472779
 10
201.5191473775632
 20
12.90307567472779
 10
201.5191473775633
 20
13.18094873274536
 10
203.4245626325407
 20
13.18094873274536
 10
203.4245626325408
 20
12.9427718258732
 10
204.0200048997212
 20
12.9427718258732
 10
204.0200048997212
 20
14.88788323199605
 10
201.0030974126735
 20
14.88788323199605
 97
        0
 92
        3
 72
     0
 73
     1
 93
        4
 10
203.4245626325407
 20
14.41152941825165
 10
203.4245626325408
 20
13.6969986976351
 10
201.5191473775632
 20
13.6969986976351
 10
201.5191473775633
 20
14.41152941825165
 97
        0
 75
     0
 76
     1
 98
        0
  0
HATCH
  5
21C
330
1F
100
AcDbEntity
  8
0
 62
     7
100
AcDbHatch
 10
0.0
 20
0.0
 30
0.0
210
0.0
220
0.0
230
1.0
  2
SOLID
 70
     1
 71
     0
 91
        1
 92
        3
 72
     0
 73
     1
 93
        4
 10
200.4870474477838
 20
16.99177924270035
 10
204.5360548646109
 20
16.99177924270035
 10
204.5360548646109
 20
17.46813305644475
 10
200.4870474477837
 20
17.46813305644475
 97
        0
 75
     0
 76
     1
 98
        0
  0
HATCH
  5
21D
330
1F
100
AcDbEntity
  8
0
 62
     7
100
AcDbHatch
 10
0.0
 20
0.0
 30
0.0
210
0.0
220
0.0
230
1.0
  2
SOLID
 70
     1
 71
     0
 91
        1
 92
        3
 72
     0
 73
     1
 93
        4
 10
201.0427935638189
 20
17.925398416753
 10
203.9803087485758
 20
17.925398416753
 10
203.9803087485759
 20
18.40175223049741
 10
201.0427935638188
 20
18.40175223049741
 97
        0
 75
     0
 76
     1
 98
        0
  0
HATCH
  5
21E
330
1F
100
AcDbEntity
  8
0
 62
     7
100
AcDbHatch
 10
0.0
 20
0.0
 30
0.0
210
0.0
220
0.0
230
1.0
  2
SOLID
 70
     1
 71
     0
 91
        1
 92
        3
 72
     1
 73
     1
 93
       12
 10
198.7801129485329
 20
15.80089470833927
 42
0.0
 10
199.097682157696
 20
15.32454089459513
 42
0.0
 10
199.3358590645683
 20
15.60241395261259
 42
0.0
 10
199.5740359714404
 20
15.9596793129209
 42
0.0
 10
199.5740359714404
 20
12.90307567472779
 42
0.0
 10
200.1297820874755
 20
12.90307567472779
 42
0.0
 10
200.1297820874757
 20
17.07117154499103
 42
0.0
 10
200.6061359012198
 20
18.38114453278816
 42
0.0
 10
200.0503897851847
 20
18.57962528851493
 42
0.0
 10
199.8122128783126
 20
17.825398416753
 42
0.0
 10
199.4946436691497
 20
17.11086769613641
 42
0.0
 10
199.177074459987
 20
16.43603312666518
 42
0.0
 97
        0
 75
     0
 76
     1
 98
        0
  0
HATCH
  5
21F
330
1F
100
AcDbEntity
  8
0
 62
     7
100
AcDbHatch
 10
0.0
 20
0.0
 30
0.0
210
0.0
220
0.0
230
1.0
  2
SOLID
 70
     1
 71
     0
 91
        1
 92
        3
 72
     0
 73
     1
 93
        6
 10
193.0638671836007
 20
17.94448687018921
 10
193.5005248461995
 20
17.66661381217148
 10
193.8974863576532
 20
17.26965230071791
 10
194.294447869107
 20
17.74600611446235
 10
193.8577902065079
 20
18.10327147477054
 10
193.3814363927636
 20
18.38114453278813
 97
        0
 75
     0
 76
     1
 98
        0
  0
HATCH
  5
220
330
1F
100
AcDbEntity
  8
0
 62
     7
100
AcDbHatch
 10
0.0
 20
0.0
 30
0.0
210
0.0
220
0.0
230
1.0
  2
SOLID
 70
     1
 71
     0
 91
        1
 92
        3
 72
     1
 73
     1
 93
       20
 10
192.8256902767284
 20
15.6818062549033
 42
0.0
 10
193.540220997345
 20
15.6818062549033
 42
0.0
 10
193.5402209973451
 20
13.97487175565267
 42
0.0
 10
192.7066018232925
 20
13.45882179076298
 42
0.0
 10
193.0241710324553
 20
12.90307567472772
 42
0.0
 10
193.976878659944
 20
13.6573025464898
 42
0.0
 10
194.3738401713977
 20
13.4191256396177
 42
0.0
 10
194.850193985142
 20
13.22064488389067
 42
0.0
 10
195.3662439500318
 20
13.14125258160004
 42
0.0
 10
195.9219900660669
 20
13.06186027930925
 42
0.0
 10
198.2243668324982
 20
13.06186027930921
 42
0.0
 10
198.3037591347888
 20
13.30003718618143
 42
0.0
 10
198.4228475882248
 20
13.577910244199
 42
0.0
 10
195.7632054614854
 20
13.57791024419898
 42
0.0
 10
195.286851647741
 20
13.61760639534436
 42
0.0
 10
194.850193985142
 20
13.69699869763517
 42
0.0
 10
194.4532324736884
 20
13.89547945336203
 42
0.0
 10
194.0959671133801
 20
14.09396020908876
 42
0.0
 10
194.0959671133801
 20
16.19785621979305
 42
0.0
 10
192.8256902767284
 20
16.19785621979305
 42
0.0
 97
        0
 75
     0
 76
     1
 98
        0
  0
HATCH
  5
221
330
1F
100
AcDbEntity
  8
0
 62
     7
100
AcDbHatch
 10
0.0
 20
0.0
 30
0.0
210
0.0
220
0.0
230
1.0
  2
SOLID
 70
     1
 71
     0
 91
        1
 92
        3
 72
     1
 73
     1
 93
       13
 10
189.0148597667734
 20
18.34144838164276
 42
0.0
 10
189.6896943362446
 20
18.34144838164276
 42
0.0
 10
189.6896943362445
 20
16.63451388239198
 42
0.0
 10
191.0790596263324
 20
16.11846391750238
 42
0.0
 10
191.5554134400767
 20
15.88028701063008
 42
0.0
 10
192.3096403118385
 20
15.52302165032195
 42
0.0
 10
191.9523749515304
 20
14.8878832319961
 42
0.0
 10
191.3172365332046
 20
15.28484474344978
 42
0.0
 10
190.8408827194602
 20
15.52302165032188
 42
0.0
 10
190.3248327545704
 20
15.76119855719401
 42
0.0
 10
189.6896943362446
 20
15.99937546406625
 42
0.0
 10
189.6896943362446
 20
13.0221641281639
 42
0.0
 10
189.0148597667734
 20
13.0221641281639
 42
0.0
 97
        0
 75
     0
 76
     1
 98
        0
  0
HATCH
  5
222
330
1F
100
AcDbEntity
  8
0
 62
     7
100
AcDbHatch
 10
0.0
 20
0.0
 30
0.0
210
0.0
220
0.0
230
1.0
  2
SOLID
 70
     1
 71
     0
 91
        1
 92
        3
 72
     1
 73
     1
 93
       23
 10
186.6727868491969
 20
17.62691766102624
 42
0.0
 10
187.0300522095052
 20
17.11086769613644
 42
0.0
 10
186.8315714537785
 20
16.99177924270028
 42
0.0
 10
186.3155214888885
 20
16.35664082437458
 42
0.0
 10
185.7994715239988
 20
15.84059085948481
 42
0.0
 10
185.2834215591092
 20
15.32454089459506
 42
0.0
 10
184.7673715942193
 20
14.88788323199596
 42
0.0
 10
185.1643331056729
 20
14.45122556939688
 42
0.0
 10
185.6406869194176
 20
13.93517560450722
 42
0.0
 10
185.1246369545279
 20
13.49851794190836
 42
0.0
 10
184.6085869896378
 20
14.13365636023408
 42
0.0
 10
184.1322331758936
 20
14.64970632512383
 42
0.0
 10
183.6161832110038
 20
15.12606013886823
 42
0.0
 10
182.9413486415326
 20
15.68180625490328
 42
0.0
 10
183.3780063041316
 20
16.11846391750238
 42
0.0
 10
183.6161832110039
 20
15.95967931292098
 42
0.0
 10
184.3704100827656
 20
15.28484474344977
 42
0.0
 10
184.7673715942194
 20
15.68180625490329
 42
0.0
 10
185.2040292568183
 20
16.07876776635702
 42
0.0
 10
186.0376484308711
 20
16.99177924270035
 42
0.0
 10
181.9886410140439
 20
16.99177924270035
 42
0.0
 10
181.9886410140439
 20
17.5872215098808
 42
0.0
 10
186.5536983957609
 20
17.58722150988078
 42
0.0
 97
        0
 75
     0
 76
     1
 98
        0
  0
HATCH
  5
223
330
1F
100
AcDbEntity
  8
0
 62
     7
100
AcDbHatch
 10
0.0
 20
0.0
 30
0.0
210
0.0
220
0.0
230
1.0
  2
SOLID
 70
     1
 71
     0
 91
        1
 92
        3
 72
     1
 73
     1
 93
       19
 10
177.7014566903445
 20
18.38114453278811
 42
0.0
 10
177.9396335972167
 20
16.95208309155502
 42
0.0
 10
180.3610988170838
 20
17.42843690529946
 42
0.0
 10
180.4404911193746
 20
17.50782920759002
 42
0.0
 10
180.9565410842643
 20
17.03147539384575
 42
0.0
 10
180.7580603285377
 20
16.83299463811885
 42
0.0
 10
179.9641373056302
 20
15.80089470833943
 42
0.0
 10
179.2893027361591
 20
15.00697168543215
 42
0.0
 10
178.8526450735603
 20
15.40393319688565
 42
0.0
 10
179.4480873407405
 20
16.11846391750244
 42
0.0
 10
179.9641373056303
 20
16.79329848697355
 42
0.0
 10
178.0587220506529
 20
16.39633697551993
 42
0.0
 10
178.6938604689787
 20
13.10155643045464
 42
0.0
 10
178.0587220506529
 20
12.98246797701856
 42
0.0
 10
177.4632797834724
 20
16.27724852208381
 42
0.0
 10
175.7563452842216
 20
15.91998316177549
 42
0.0
 10
175.6769529819309
 20
16.51542542895599
 42
0.0
 10
177.3441913300363
 20
16.83299463811891
 42
0.0
 10
177.0663182720187
 20
18.262056079352
 42
0.0
 97
        0
 75
     0
 76
     1
 98
        0
  0
HATCH
  5
224
330
1F
100
AcDbEntity
  8
0
 62
     7
100
AcDbHatch
 10
0.0
 20
0.0
 30
0.0
210
0.0
220
0.0
230
1.0
  2
SOLID
 70
     1
 71
     0
 91
        1
 92
        3
 72
     1
 73
     1
 93
       10
 10
161.7973585758073
 20
17.59873200137435
 42
0.4800017654546903
 10
166.1814672997
 20
8.886694838305534
 42
0.0
 10
166.1814672997
 20
10.12019467601419
 42
-0.4069864604261141
 10
162.5709992016985
 20
16.17889908750038
 42
0.0
 10
167.4814672997002
 20
14.99999999999997
 42
0.0
 10
172.3919353977016
 20
16.17889908750031
 42
-0.4069864604261101
 10
168.7814672997
 20
10.12019467601421
 42
0.0
 10
168.7814672997
 20
8.886694838305557
 42
0.4800017654546884
 10
173.1655760235927
 20
17.5987320013743
 42
0.0
 10
167.4814672997001
 20
16.23409823240008
 42
0.0
 97
        0
 75
     0
 76
     1
 98
        0
  0
HATCH
  5
225
330
1F
100
AcDbEntity
  8
0
 62
     7
100
AcDbHatch
 10
0.0
 20
0.0
 30
0.0
210
0.0
220
0.0
230
1.0
  2
SOLID
 70
     1
 71
     0
 91
        1
 92
        3
 72
     1
 73
     1
 93
        9
 10
173.0128022419387
 20
18.28194489702062
 42
0.5829780312573208
 10
162.1353283182844
 20
18.23748328058063
 42
0.0
 10
163.3596369278902
 20
17.94355278887926
 42
-0.2162124256595368
 10
166.8814672997
 20
20.18095191583249
 42
0.0
 10
166.8814672997
 20
17.09803612359316
 42
0.0
 10
167.481467300094
 20
16.95398886806219
 42
0.0
 10
168.0814672997
 20
17.0980361234226
 42
0.0
 10
168.0814672997
 20
20.20613018404959
 42
-0.2244989064426774
 10
171.7848516160296
 20
17.98714003452652
 42
0.0
 97
        0
 75
     0
 76
     1
 98
        0
  0
HATCH
  5
226
330
1F
100
AcDbEntity
  8
0
 62
     7
100
AcDbHatch
 10
0.0
 20
0.0
 30
0.0
210
0.0
220
0.0
230
1.0
  2
SOLID
 70
     1
 71
     0
 91
        1
 92
        3
 72
     1
 73
     1
 93
        9
 10
167.4814672997001
 20
14.28010936443335
 42
0.0
 10
163.1433712601075
 20
15.32159407841532
 42
0.0727267108848067
 10
163.2329219361193
 20
14.06599663084314
 42
0.0
 10
166.8814672997
 20
13.19005838748513
 42
0.0
 10
166.8814672997
 20
8.778866662737402
 42
0.048111104562348
 10
168.0814672997
 20
8.7788666627374
 42
0.0
 10
168.0814672997
 20
13.19005838748507
 42
0.0
 10
171.7300126632808
 20
14.06599663084309
 42
0.0727267108848059
 10
171.8195633392925
 20
15.32159407841525
 42
0.0
 97
        0
 75
     0
 76
     1
 98
        0
  0
DIMENSION
  5
227
330
1F
100
AcDbEntity
  8
0
 62
     7
100
AcDbDimension
  2
*D2
 10
137.5374142883358
 20
262.1745348592859
 30
0.0
 11
146.433271478309
 21
262.1745348592859
 31
0.0
 70
   160
  1
18
 71
     5
 42
1.800000000000011
  3
ISO-25
100
AcDbAlignedDimension
 13
135.7374142883358
 23
252.4400295452769
 33
0.0
 14
137.5374142883358
 24
252.4400295452769
 34
0.0
 50
180.0
100
AcDbRotatedDimension
1001
ACAD
1000
DSTYLE
1002
{
1070
   278
1070
    46
1070
   147
1040
0.675000011920929
1070
    77
1070
     1
1070
    74
1070
     0
1070
    73
1070
     0
1070
    42
1040
2.54
1070
    44
1040
1.800000000000011
1070
    76
1070
     0
1070
    75
1070
     0
1070
   279
1070
     0
1070
   271
1070
     0
1070
   173
1070
     1
1070
    41
1040
3.114
1070
   140
1040
2.700000047683716
1070
   344
1005
228
1070
   343
1005
228
1002
}
  0
DIMENSION
  5
246
330
1F
100
AcDbEntity
  8
0
 62
     7
100
AcDbDimension
  2
*D3
 10
90.6074142883358
 20
262.1745348592859
 30
0.0
 11
75.2084142883358
 21
262.1745348592859
 31
0.0
 70
   160
  1
308
 71
     5
 42
30.8
  3
ISO-25
100
AcDbAlignedDimension
 13
59.80741428833581
 23
252.4400295452769
 33
0.0
 14
90.6074142883358
 24
252.4400295452769
 34
0.0
 50
180.0
100
AcDbRotatedDimension
1001
ACAD
1000
DSTYLE
1002
{
1070
   278
1070
    46
1070
   147
1040
0.675000011920929
1070
    77
1070
     1
1070
    74
1070
     0
1070
    73
1070
     0
1070
    42
1040
2.54
1070
    44
1040
1.800000000000011
1070
    76
1070
     0
1070
    75
1070
     0
1070
   279
1070
     0
1070
   271
1070
     0
1070
   173
1070
     1
1070
    41
1040
3.114
1070
   140
1040
2.700000047683716
1070
   344
1005
228
1070
   343
1005
228
1002
}
  0
DIMENSION
  5
253
330
1F
100
AcDbEntity
  8
0
 62
     7
100
AcDbDimension
  2
*D4
 10
114.4595075396878
 20
62.84002954527693
 30
0.0
 11
114.4595075396878
 21
157.3010412386505
 31
0.0
 70
   160
  1
1896
 71
     5
 42
189.6
  3
ISO-25
100
AcDbAlignedDimension
 13
90.50741428833581
 23
252.4400295452769
 33
0.0
 14
90.50741428833581
 24
62.84002954527689
 34
0.0
 50
90.00000000000001
100
AcDbRotatedDimension
1001
ACAD
1000
DSTYLE
1002
{
1070
   278
1070
    46
1070
   147
1040
0.675000011920929
1070
    77
1070
     1
1070
    74
1070
     0
1070
    73
1070
     0
1070
    42
1040
2.54
1070
    44
1040
18.54739866994582
1070
    76
1070
     0
1070
    75
1070
     0
1070
   279
1070
     0
1070
   271
1070
     0
1070
   173
1070
     1
1070
    41
1040
3.114
1070
   140
1040
2.700000047683716
1070
   344
1005
228
1070
   343
1005
228
1002
}
  0
DIMENSION
  5
260
330
1F
100
AcDbEntity
  8
0
 62
     7
100
AcDbDimension
  2
*D5
 10
84.80741428833579
 20
53.51326256389009
 30
0.0
 11
75.20841428833582
 21
53.51326256389009
 31
0.0
 70
   160
  1
192
 71
     5
 42
19.19999999999999
  3
ISO-25
100
AcDbAlignedDimension
 13
65.60741428833582
 23
60.17630117562753
 33
0.0
 14
84.8074142883358
 24
60.57630117562753
 34
0.0
 50
180.0
100
AcDbRotatedDimension
1001
ACAD
1000
DSTYLE
1002
{
1070
   278
1070
    46
1070
   147
1040
0.675000011920929
1070
    77
1070
     1
1070
    74
1070
     0
1070
    73
1070
     0
1070
    42
1040
2.54
1070
    44
1040
1.799999999999997
1070
    76
1070
     0
1070
    75
1070
     1
1070
   279
1070
     0
1070
   271
1070
     0
1070
   173
1070
     1
1070
    41
1040
3.114
1070
   140
1040
2.700000047683716
1070
   344
1005
228
1070
   343
1005
228
1002
}
  0
DIMENSION
  5
26C
330
1F
100
AcDbEntity
  8
0
 62
     7
100
AcDbDimension
  2
*D6
 10
90.60741428833579
 20
53.51326256389009
 30
0.0
 11
99.6961286245721
 21
53.51326256389009
 31
0.0
 70
   160
  1
58
 71
     5
 42
5.799999999999997
  3
ISO-25
100
AcDbAlignedDimension
 13
84.8074142883358
 23
60.57630117562753
 33
0.0
 14
90.6074142883358
 24
62.84002954527692
 34
0.0
 50
180.0
100
AcDbRotatedDimension
1001
ACAD
1000
DSTYLE
1002
{
1070
   278
1070
    46
1070
   147
1040
0.675000011920929
1070
    77
1070
     1
1070
    74
1070
     0
1070
    73
1070
     0
1070
    42
1040
2.54
1070
    44
1040
1.799999999999997
1070
    76
1070
     0
1070
    75
1070
     1
1070
   279
1070
     0
1070
   271
1070
     0
1070
   173
1070
     1
1070
    41
1040
3.114
1070
   140
1040
2.700000047683716
1070
   344
1005
228
1070
   343
1005
228
1002
}
  0
INSERT
  5
288
330
1F
100
AcDbEntity
  8
0
 62
     7
100
AcDbBlockReference
  2
SYM0001
 10
200.8651357042091
 20
251.2948150870674
 30
0.0
  0
INSERT
  5
291
330
1F
100
AcDbEntity
  8
0
 62
     7
100
AcDbBlockReference
  2
SYM0002
 10
85.25112411155251
 20
43.31787979620927
 30
0.0
  0
DIMENSION
  5
294
330
1F
100
AcDbEntity
  8
0
 62
     7
100
AcDbDimension
  2
*D9
 10
114.4595075396878
 20
44.5000295452769
 30
0.0
 11
114.4595075396878
 21
53.39588673525009
 31
0.0
 70
   160
  1
18
 71
     5
 42
1.800000000000011
  3
ISO-25
100
AcDbAlignedDimension
 13
90.60741428833582
 23
42.70002954527689
 33
0.0
 14
90.60741428833582
 24
44.5000295452769
 34
0.0
 50
270.0
100
AcDbRotatedDimension
1001
ACAD
1000
DSTYLE
1002
{
1070
   278
1070
    46
1070
   147
1040
0.675000011920929
1070
    77
1070
     1
1070
    74
1070
     0
1070
    73
1070
     0
1070
    42
1040
2.54
1070
    44
1040
1.799999999999997
1070
    76
1070
     0
1070
    75
1070
     0
1070
   279
1070
     0
1070
   271
1070
     0
1070
   173
1070
     1
1070
    41
1040
3.114
1070
   140
1040
2.700000047683716
1070
   344
1005
228
1070
   343
1005
228
1002
}
  0
DIMENSION
  5
2AC
330
1F
100
AcDbEntity
  8
0
 62
     7
100
AcDbDimension
  2
*D10
 10
65.60741428833583
 20
53.51326256389009
 30
0.0
 11
62.70841428833582
 21
53.51326256389009
 31
0.0
 70
   160
  1
58
 71
     5
 42
5.800000000000026
  3
ISO-25
100
AcDbAlignedDimension
 13
59.80741428833581
 23
62.84002954527695
 33
0.0
 14
65.60741428833583
 24
60.57630117562753
 34
0.0
 50
180.0
100
AcDbRotatedDimension
1001
ACAD
1000
DSTYLE
1002
{
1070
   278
1070
    46
1070
   147
1040
0.675000011920929
1070
    77
1070
     1
1070
    74
1070
     0
1070
    73
1070
     0
1070
    42
1040
2.54
1070
    44
1040
1.799999999999997
1070
    76
1070
     0
1070
    75
1070
     0
1070
   279
1070
     0
1070
   271
1070
     0
1070
   173
1070
     1
1070
    41
1040
3.114
1070
   140
1040
2.700000047683716
1070
   344
1005
228
1070
   343
1005
228
1002
}
  0
DIMENSION
  5
2C2
330
1F
100
AcDbEntity
  8
0
 62
     7
100
AcDbDimension
  2
*D11
 10
137.6574142883358
 20
53.51326256389009
 30
0.0
 11
148.4818429409403
 21
53.51326256389009
 31
0.0
 70
   160
  1
19.2
 71
     5
 42
1.920000000000016
  3
ISO-25
100
AcDbAlignedDimension
 13
135.7374142883358
 23
62.84002954527689
 33
0.0
 14
137.6574142883358
 24
61.84002954527692
 34
0.0
 50
180.0
100
AcDbRotatedDimension
1001
ACAD
1000
DSTYLE
1002
{
1070
   278
1070
    46
1070
   147
1040
0.675000011920929
1070
    77
1070
     1
1070
    74
1070
     0
1070
    73
1070
     0
1070
    42
1040
2.54
1070
    44
1040
1.799999999999997
1070
    76
1070
     0
1070
    75
1070
     0
1070
   279
1070
     0
1070
    78
1070
     0
1070
   271
1070
     1
1070
   173
1070
     1
1070
    41
1040
3.114
1070
   140
1040
2.700000047683716
1070
   344
1005
228
1070
   343
1005
228
1002
}
  0
ENDSEC
  0
SECTION
  2
OBJECTS
  0
DICTIONARY
  5
C
330
0
100
AcDbDictionary
281
     1
  3
ACAD_GROUP
350
D
  3
ACAD_LAYOUT
350
1A
  3
ACAD_MATERIAL
350
43
  3
ACAD_MLEADERSTYLE
350
6B
  3
ACAD_MLINESTYLE
350
17
  3
ACAD_PLOTSETTINGS
350
19
  3
ACAD_PLOTSTYLENAME
350
E
  3
ACAD_SCALELIST
350
47
  3
ACAD_TABLESTYLE
350
69
  3
ACAD_VISUALSTYLE
350
2A
  3
ACDB_RECOMPOSE_DATA
350
324
  3
AcDbVariableDictionary
350
2DA
  0
DICTIONARY
  5
2E7
330
8
100
AcDbDictionary
280
     1
281
     1
  3
ACAD_XREC_ROUNDTRIP
360
2E8
  0
DICTIONARY
  5
2E5
330
204
100
AcDbDictionary
280
     1
281
     1
  3
ACAD_MTEXT_RT
360
2E6
  0
DICTIONARY
  5
D
102
{ACAD_REACTORS
330
C
102
}
330
C
100
AcDbDictionary
281
     1
  0
DICTIONARY
  5
1A
102
{ACAD_REACTORS
330
C
102
}
330
C
100
AcDbDictionary
281
     1
  3
Layout1
350
1E
  3
Layout2
350
26
  3
Model
350
22
  0
DICTIONARY
  5
43
102
{ACAD_REACTORS
330
C
102
}
330
C
100
AcDbDictionary
281
     1
  3
ByBlock
350
45
  3
ByLayer
350
44
  3
Global
350
46
  0
DICTIONARY
  5
6B
102
{ACAD_REACTORS
330
C
102
}
330
C
100
AcDbDictionary
281
     1
  3
Standard
350
6C
  0
DICTIONARY
  5
17
102
{ACAD_REACTORS
330
C
102
}
330
C
100
AcDbDictionary
281
     1
  3
Standard
350
18
  0
DICTIONARY
  5
19
102
{ACAD_REACTORS
330
C
102
}
330
C
100
AcDbDictionary
281
     1
  0
ACDBDICTIONARYWDFLT
  5
E
102
{ACAD_REACTORS
330
C
102
}
330
C
100
AcDbDictionary
281
     1
  3
Normal
350
F
100
AcDbDictionaryWithDefault
340
F
  0
DICTIONARY
  5
47
102
{ACAD_REACTORS
330
C
102
}
330
C
100
AcDbDictionary
281
     1
  3
A0
350
48
  3
A1
350
49
  3
A2
350
4A
  3
A3
350
4B
  3
A4
350
4C
  3
A5
350
4D
  3
A6
350
4E
  3
A7
350
4F
  3
A8
350
50
  3
A9
350
51
  3
B0
350
52
  3
B1
350
53
  3
B2
350
54
  3
B3
350
55
  3
B4
350
56
  3
B5
350
57
  3
B6
350
58
  3
B7
350
59
  3
B8
350
5A
  3
B9
350
5B
  3
C0
350
5C
  3
C1
350
5D
  3
C2
350
5E
  3
C3
350
5F
  3
C4
350
60
  3
C5
350
61
  3
C6
350
62
  3
C7
350
63
  3
C8
350
64
  3
C9
350
65
  3
D0
350
66
  3
D1
350
67
  3
D2
350
68
  0
DICTIONARY
  5
69
102
{ACAD_REACTORS
330
C
102
}
330
C
100
AcDbDictionary
281
     1
  3
Standard
350
6A
  0
DICTIONARY
  5
2A
102
{ACAD_REACTORS
330
C
102
}
330
C
100
AcDbDictionary
281
     1
  3
2dWireframe
350
2F
  3
Basic
350
32
  3
Brighten
350
36
  3
ColorChange
350
3A
  3
Conceptual
350
34
  3
Dim
350
35
  3
EdgeColorOff
350
3D
  3
Facepattern
350
39
  3
Flat
350
2B
  3
FlatWithEdges
350
2C
  3
Gouraud
350
2D
  3
GouraudWithEdges
350
2E
  3
Hidden
350
31
  3
JitterOff
350
3B
  3
Linepattern
350
38
  3
OverhangOff
350
3C
  3
Realistic
350
33
  3
Shaded
350
42
  3
Shaded with edges
350
41
  3
Shades of Gray
350
3E
  3
Sketchy
350
3F
  3
Thicken
350
37
  3
Wireframe
350
30
  3
X-Ray
350
40
  0
XRECORD
  5
324
102
{ACAD_REACTORS
330
C
102
}
330
C
100
AcDbXrecord
280
     1
 90
        1
330
204
  0
DICTIONARY
  5
2DA
102
{ACAD_REACTORS
330
C
102
}
330
C
100
AcDbDictionary
281
     1
  3
CANNOSCALE
350
2E9
  3
CENTEREXE
350
2E1
  3
CENTERLTYPEFILE
350
2E2
  3
CMLEADERSTYLE
350
2DC
  3
CTABLESTYLE
350
2DB
  3
DIMASSOC
350
2E3
  3
HIDETEXT
350
2E4
  3
MSLTSCALE
350
2EA
  3
PSOLHEIGHT
350
2DE
  3
PSOLWIDTH
350
2DD
  0
XRECORD
  5
2E8
102
{ACAD_REACTORS
330
2E7
102
}
330
2E7
100
AcDbXrecord
280
     1
102
VTR_0.000_0.000_1.000_1.000_VISUALSTYLE
340
2F
102
VTR_0.000_0.000_1.000_1.000_GRIDDISPLAY
 70
     3
102
VTR_0.000_0.000_1.000_1.000_GRIDMAJOR
 70
     5
102
VTR_0.000_0.000_1.000_1.000_DEFAULTLIGHTING
280
     1
102
VTR_0.000_0.000_1.000_1.000_DEFAULTLIGHTINGTYPE
 70
     1
102
VTR_0.000_0.000_1.000_1.000_BRIGHTNESS
141
0.0
102
VTR_0.000_0.000_1.000_1.000_CONTRAST
142
0.0
  0
XRECORD
  5
2E6
102
{ACAD_REACTORS
330
2E5
102
}
330
2E5
100
AcDbXrecord
280
     1
 40
2807045.0
  1
\W0.833333;\pxql;マルチＭＡＸ　ＭＤＦ\PＹＭＭ－ＳＰＳ（側面板・片面用）　外観図}
  0
LAYOUT
  5
1E
102
{ACAD_REACTORS
330
1A
102
}
330
1A
100
AcDbPlotSettings
  1

  2
none_device
  4

  6

 40
0.0
 41
0.0
 42
0.0
 43
0.0
 44
0.0
 45
0.0
 46
0.0
 47
0.0
 48
0.0
 49
0.0
140
0.0
141
0.0
142
1.0
143
1.0
 70
   688
 72
     1
 73
     0
 74
     5
  7

 75
    16
147
1.0
148
0.0
149
0.0
100
AcDbLayout
  1
Layout1
 70
     1
 71
     1
 10
-1.111111164093018
 20
0.0
 11
403.0
 21
284.0
 12
0.0
 22
0.0
 32
0.0
 14
1.000000000000000E+20
 24
1.000000000000000E+20
 34
1.000000000000000E+20
 15
-1.000000000000000E+20
 25
-1.000000000000000E+20
 35
-1.000000000000000E+20
146
0.0
 13
0.0
 23
0.0
 33
0.0
 16
1.0
 26
0.0
 36
0.0
 17
0.0
 27
1.0
 37
0.0
 76
     0
330
1B
  0
LAYOUT
  5
26
102
{ACAD_REACTORS
330
1A
102
}
330
1A
100
AcDbPlotSettings
  1

  2
none_device
  4

  6

 40
0.0
 41
0.0
 42
0.0
 43
0.0
 44
0.0
 45
0.0
 46
0.0
 47
0.0
 48
0.0
 49
0.0
140
0.0
141
0.0
142
1.0
143
1.0
 70
   688
 72
     1
 73
     0
 74
     5
  7

 75
    16
147
1.0
148
0.0
149
0.0
100
AcDbLayout
  1
Layout2
 70
     1
 71
     2
 10
0.0
 20
0.0
 11
0.0
 21
0.0
 12
0.0
 22
0.0
 32
0.0
 14
0.0
 24
0.0
 34
0.0
 15
0.0
 25
0.0
 35
0.0
146
0.0
 13
0.0
 23
0.0
 33
0.0
 16
1.0
 26
0.0
 36
0.0
 17
0.0
 27
1.0
 37
0.0
 76
     0
330
23
  0
LAYOUT
  5
22
102
{ACAD_REACTORS
330
1A
102
}
330
1A
100
AcDbPlotSettings
  1

  2
none_device
  4
Letter_(8.50_x_11.00_Inches)
  6

 40
6.35
 41
6.35
 42
6.35000508
 43
6.35000508
 44
215.9
 45
279.4
 46
0.0
 47
0.0
 48
0.0
 49
0.0
140
0.0
141
0.0
142
1.0
143
1.0
 70
  1712
 72
     1
 73
     0
 74
     0
  7

 75
     0
147
1.0
148
0.0
149
0.0
100
AcDbLayout
  1
Model
 70
     1
 71
     0
 10
-1.111111164093018
 20
0.0
 11
403.0
 21
284.0
 12
0.0
 22
0.0
 32
0.0
 14
-1.111111164093018
 24
0.0
 34
0.0
 15
403.0
 25
284.0
 35
0.0
146
0.0
 13
0.0
 23
0.0
 33
0.0
 16
1.0
 26
0.0
 36
0.0
 17
0.0
 27
1.0
 37
0.0
 76
     0
330
1F
331
29
  0
MATERIAL
  5
45
102
{ACAD_REACTORS
330
43
102
}
102
{ACAD_XDICTIONARY
360
31D
102
}
330
43
100
AcDbMaterial
  1
ByBlock
  0
MATERIAL
  5
44
102
{ACAD_REACTORS
330
43
102
}
102
{ACAD_XDICTIONARY
360
31B
102
}
330
43
100
AcDbMaterial
  1
ByLayer
  0
MATERIAL
  5
46
102
{ACAD_REACTORS
330
43
102
}
102
{ACAD_XDICTIONARY
360
31F
102
}
330
43
100
AcDbMaterial
  1
Global
  0
MLEADERSTYLE
  5
6C
102
{ACAD_REACTORS
330
6B
102
}
102
{ACAD_XDICTIONARY
360
322
102
}
330
6B
100
AcDbMLeaderStyle
170
     2
171
     1
172
     0
 90
        2
 40
0.0
 41
0.0
173
     1
 91
-1056964608
340
14
 92
       -2
290
     1
 42
2.0
291
     1
 43
8.0
  3
Standard
341
0
 44
4.0
300

342
11
174
     1
178
     6
175
     1
176
     0
 93
-1056964608
 45
4.0
292
     0
297
     0
 46
4.0
343
0
 94
-1056964608
 47
1.0
 49
1.0
140
1.0
293
     1
141
0.0
294
     1
177
     0
142
1.0
295
     0
296
     0
143
3.75
1001
ACAD_MLEADERVER
1070
     2
  0
MLINESTYLE
  5
18
102
{ACAD_REACTORS
330
17
102
}
330
17
100
AcDbMlineStyle
  2
Standard
 70
     0
  3

 62
   256
 51
90.0
 52
90.0
 71
     2
 49
0.5
 62
   256
  6
BYLAYER
 49
-0.5
 62
   256
  6
BYLAYER
  0
ACDBPLACEHOLDER
  5
F
102
{ACAD_REACTORS
330
E
102
}
330
E
  0
SCALE
  5
48
102
{ACAD_REACTORS
330
47
102
}
330
47
100
AcDbScale
 70
     0
300
1:1
140
1.0
141
1.0
290
     1
  0
SCALE
  5
49
102
{ACAD_REACTORS
330
47
102
}
330
47
100
AcDbScale
 70
     0
300
1:2
140
1.0
141
2.0
290
     0
  0
SCALE
  5
4A
102
{ACAD_REACTORS
330
47
102
}
330
47
100
AcDbScale
 70
     0
300
1:4
140
1.0
141
4.0
290
     0
  0
SCALE
  5
4B
102
{ACAD_REACTORS
330
47
102
}
330
47
100
AcDbScale
 70
     0
300
1:5
140
1.0
141
5.0
290
     0
  0
SCALE
  5
4C
102
{ACAD_REACTORS
330
47
102
}
330
47
100
AcDbScale
 70
     0
300
1:8
140
1.0
141
8.0
290
     0
  0
SCALE
  5
4D
102
{ACAD_REACTORS
330
47
102
}
330
47
100
AcDbScale
 70
     0
300
1:10
140
1.0
141
10.0
290
     0
  0
SCALE
  5
4E
102
{ACAD_REACTORS
330
47
102
}
330
47
100
AcDbScale
 70
     0
300
1:16
140
1.0
141
16.0
290
     0
  0
SCALE
  5
4F
102
{ACAD_REACTORS
330
47
102
}
330
47
100
AcDbScale
 70
     0
300
1:20
140
1.0
141
20.0
290
     0
  0
SCALE
  5
50
102
{ACAD_REACTORS
330
47
102
}
330
47
100
AcDbScale
 70
     0
300
1:30
140
1.0
141
30.0
290
     0
  0
SCALE
  5
51
102
{ACAD_REACTORS
330
47
102
}
330
47
100
AcDbScale
 70
     0
300
1:40
140
1.0
141
40.0
290
     0
  0
SCALE
  5
52
102
{ACAD_REACTORS
330
47
102
}
330
47
100
AcDbScale
 70
     0
300
1:50
140
1.0
141
50.0
290
     0
  0
SCALE
  5
53
102
{ACAD_REACTORS
330
47
102
}
330
47
100
AcDbScale
 70
     0
300
1:100
140
1.0
141
100.0
290
     0
  0
SCALE
  5
54
102
{ACAD_REACTORS
330
47
102
}
330
47
100
AcDbScale
 70
     0
300
2:1
140
2.0
141
1.0
290
     0
  0
SCALE
  5
55
102
{ACAD_REACTORS
330
47
102
}
330
47
100
AcDbScale
 70
     0
300
4:1
140
4.0
141
1.0
290
     0
  0
SCALE
  5
56
102
{ACAD_REACTORS
330
47
102
}
330
47
100
AcDbScale
 70
     0
300
8:1
140
8.0
141
1.0
290
     0
  0
SCALE
  5
57
102
{ACAD_REACTORS
330
47
102
}
330
47
100
AcDbScale
 70
     0
300
10:1
140
10.0
141
1.0
290
     0
  0
SCALE
  5
58
102
{ACAD_REACTORS
330
47
102
}
330
47
100
AcDbScale
 70
     0
300
100:1
140
100.0
141
1.0
290
     0
  0
SCALE
  5
59
102
{ACAD_REACTORS
330
47
102
}
330
47
100
AcDbScale
 70
     0
300
1/128" = 1'-0"
140
0.0078125
141
12.0
290
     0
  0
SCALE
  5
5A
102
{ACAD_REACTORS
330
47
102
}
330
47
100
AcDbScale
 70
     0
300
1/64" = 1'-0"
140
0.015625
141
12.0
290
     0
  0
SCALE
  5
5B
102
{ACAD_REACTORS
330
47
102
}
330
47
100
AcDbScale
 70
     0
300
1/32" = 1'-0"
140
0.03125
141
12.0
290
     0
  0
SCALE
  5
5C
102
{ACAD_REACTORS
330
47
102
}
330
47
100
AcDbScale
 70
     0
300
1/16" = 1'-0"
140
0.0625
141
12.0
290
     0
  0
SCALE
  5
5D
102
{ACAD_REACTORS
330
47
102
}
330
47
100
AcDbScale
 70
     0
300
3/32" = 1'-0"
140
0.09375
141
12.0
290
     0
  0
SCALE
  5
5E
102
{ACAD_REACTORS
330
47
102
}
330
47
100
AcDbScale
 70
     0
300
1/8" = 1'-0"
140
0.125
141
12.0
290
     0
  0
SCALE
  5
5F
102
{ACAD_REACTORS
330
47
102
}
330
47
100
AcDbScale
 70
     0
300
3/16" = 1'-0"
140
0.1875
141
12.0
290
     0
  0
SCALE
  5
60
102
{ACAD_REACTORS
330
47
102
}
330
47
100
AcDbScale
 70
     0
300
1/4" = 1'-0"
140
0.25
141
12.0
290
     0
  0
SCALE
  5
61
102
{ACAD_REACTORS
330
47
102
}
330
47
100
AcDbScale
 70
     0
300
3/8" = 1'-0"
140
0.375
141
12.0
290
     0
  0
SCALE
  5
62
102
{ACAD_REACTORS
330
47
102
}
330
47
100
AcDbScale
 70
     0
300
1/2" = 1'-0"
140
0.5
141
12.0
290
     0
  0
SCALE
  5
63
102
{ACAD_REACTORS
330
47
102
}
330
47
100
AcDbScale
 70
     0
300
3/4" = 1'-0"
140
0.75
141
12.0
290
     0
  0
SCALE
  5
64
102
{ACAD_REACTORS
330
47
102
}
330
47
100
AcDbScale
 70
     0
300
1" = 1'-0"
140
1.0
141
12.0
290
     0
  0
SCALE
  5
65
102
{ACAD_REACTORS
330
47
102
}
330
47
100
AcDbScale
 70
     0
300
1-1/2" = 1'-0"
140
1.5
141
12.0
290
     0
  0
SCALE
  5
66
102
{ACAD_REACTORS
330
47
102
}
330
47
100
AcDbScale
 70
     0
300
3" = 1'-0"
140
3.0
141
12.0
290
     0
  0
SCALE
  5
67
102
{ACAD_REACTORS
330
47
102
}
330
47
100
AcDbScale
 70
     0
300
6" = 1'-0"
140
6.0
141
12.0
290
     0
  0
SCALE
  5
68
102
{ACAD_REACTORS
330
47
102
}
330
47
100
AcDbScale
 70
     0
300
1'-0" = 1'-0"
140
12.0
141
12.0
290
     0
  0
TABLESTYLE
  5
6A
102
{ACAD_REACTORS
330
69
102
}
330
69
100
AcDbTableStyle
  3
Standard
 70
     0
 71
     0
 40
1.5
 41
1.5
280
     0
281
     0
  7
Standard
140
4.5
170
     2
 62
     0
 63
   257
283
     0
274
    -2
284
     1
 64
     0
275
    -2
285
     1
 65
     0
276
    -2
286
     1
 66
     0
277
    -2
287
     1
 67
     0
278
    -2
288
     1
 68
     0
279
    -2
289
     1
 69
     0
  7
Standard
140
6.0
170
     5
 62
     0
 63
   257
283
     0
274
    -2
284
     1
 64
     0
275
    -2
285
     1
 65
     0
276
    -2
286
     1
 66
     0
277
    -2
287
     1
 67
     0
278
    -2
288
     1
 68
     0
279
    -2
289
     1
 69
     0
  7
Standard
140
4.5
170
     5
 62
     0
 63
   257
283
     0
274
    -2
284
     1
 64
     0
275
    -2
285
     1
 65
     0
276
    -2
286
     1
 66
     0
277
    -2
287
     1
 67
     0
278
    -2
288
     1
 68
     0
279
    -2
289
     1
 69
     0
  0
VISUALSTYLE
  5
2F
102
{ACAD_REACTORS
330
2A
102
}
102
{ACAD_XDICTIONARY
360
2F3
102
}
330
2A
100
AcDbVisualStyle
  2
2dWireframe
 70
     4
 71
     0
 72
     2
 73
     0
 90
        0
 40
0.6
 41
30.0
 62
     5
 63
     7
 74
     1
 91
        4
 64
     7
 65
   257
 75
     1
175
     1
 42
1.0
 92
        0
 66
   257
 43
1.0
 76
     1
 77
     6
 78
     2
 67
     7
 79
     5
170
     0
171
     0
290
     0
174
     0
 93
        1
 44
0.0
173
     0
291
     0
 45
0.0
1001
ACAD
1000
AcDbSavedByObjectVersion
1070
     0
  0
VISUALSTYLE
  5
32
102
{ACAD_REACTORS
330
2A
102
}
102
{ACAD_XDICTIONARY
360
2F9
102
}
330
2A
100
AcDbVisualStyle
  2
Basic
 70
     7
 71
     1
 72
     0
 73
     1
 90
        0
 40
0.6
 41
30.0
 62
     5
 63
     7
 74
     0
 91
        4
 64
     7
 65
   257
 75
     1
175
     1
 42
1.0
 92
        8
 66
     7
 43
1.0
 76
     1
 77
     6
 78
     2
 67
     7
 79
     5
170
     0
171
     0
290
     0
174
     0
 93
        1
 44
0.0
173
     0
291
     1
 45
0.0
1001
ACAD
1000
AcDbSavedByObjectVersion
1070
     0
  0
VISUALSTYLE
  5
36
102
{ACAD_REACTORS
330
2A
102
}
102
{ACAD_XDICTIONARY
360
301
102
}
330
2A
100
AcDbVisualStyle
  2
Brighten
 70
    12
 71
     2
 72
     2
 73
     0
 90
        0
 40
0.6
 41
30.0
 62
     5
 63
     7
 74
     1
 91
        4
 64
     7
 65
   257
 75
     1
175
     1
 42
1.0
 92
        8
 66
     7
 43
1.0
 76
     1
 77
     6
 78
     2
 67
     7
 79
     5
170
     0
171
     0
290
     0
174
     0
 93
        1
 44
50.0
173
     0
291
     1
 45
0.0
1001
ACAD
1000
AcDbSavedByObjectVersion
1070
     0
  0
VISUALSTYLE
  5
3A
102
{ACAD_REACTORS
330
2A
102
}
102
{ACAD_XDICTIONARY
360
309
102
}
330
2A
100
AcDbVisualStyle
  2
ColorChange
 70
    16
 71
     2
 72
     2
 73
     3
 90
        0
 40
0.6
 41
30.0
 62
     5
 63
     8
 74
     1
 91
        4
 64
     7
 65
   257
 75
     1
175
     1
 42
1.0
 92
        8
 66
     8
 43
1.0
 76
     1
 77
     6
 78
     2
 67
     7
 79
     5
170
     0
171
     0
290
     0
174
     0
 93
        1
 44
0.0
173
     0
291
     1
 45
0.0
1001
ACAD
1000
AcDbSavedByObjectVersion
1070
     0
  0
VISUALSTYLE
  5
34
102
{ACAD_REACTORS
330
2A
102
}
102
{ACAD_XDICTIONARY
360
2FD
102
}
330
2A
100
AcDbVisualStyle
  2
Conceptual
 70
     9
 71
     3
 72
     2
 73
     0
 90
        0
 40
0.6
 41
30.0
 62
     5
 63
     7
 74
     2
 91
        2
 64
     7
 65
   257
 75
     1
175
     1
 42
179.0
 92
        8
 66
     7
 43
1.0
 76
     1
 77
     6
 78
     2
 67
     7
 79
     3
170
     0
171
     0
290
     0
174
     0
 93
        1
 44
0.0
173
     0
291
     0
 45
0.0
1001
ACAD
1000
AcDbSavedByObjectVersion
1070
     0
  0
VISUALSTYLE
  5
35
102
{ACAD_REACTORS
330
2A
102
}
102
{ACAD_XDICTIONARY
360
2FF
102
}
330
2A
100
AcDbVisualStyle
  2
Dim
 70
    11
 71
     2
 72
     2
 73
     0
 90
        0
 40
0.6
 41
30.0
 62
     5
 63
     7
 74
     1
 91
        4
 64
     7
 65
   257
 75
     1
175
     1
 42
1.0
 92
        8
 66
     7
 43
1.0
 76
     1
 77
     6
 78
     2
 67
     7
 79
     5
170
     0
171
     0
290
     0
174
     0
 93
        1
 44
-50.0
173
     0
291
     1
 45
0.0
1001
ACAD
1000
AcDbSavedByObjectVersion
1070
     0
  0
VISUALSTYLE
  5
3D
102
{ACAD_REACTORS
330
2A
102
}
102
{ACAD_XDICTIONARY
360
30F
102
}
330
2A
100
AcDbVisualStyle
  2
EdgeColorOff
 70
    22
 71
     2
 72
     2
 73
     0
 90
        0
 40
0.6
 41
30.0
 62
     5
 63
     7
 74
     1
 91
        4
 64
     7
 65
   257
 75
     1
175
     1
 42
1.0
 92
        8
 66
     7
 43
1.0
 76
     1
 77
     6
 78
     2
 67
     7
 79
     5
170
     0
171
     0
290
     0
174
     0
 93
        1
 44
0.0
173
     0
291
     1
 45
0.0
1001
ACAD
1000
AcDbSavedByObjectVersion
1070
     0
  0
VISUALSTYLE
  5
39
102
{ACAD_REACTORS
330
2A
102
}
102
{ACAD_XDICTIONARY
360
307
102
}
330
2A
100
AcDbVisualStyle
  2
Facepattern
 70
    15
 71
     2
 72
     2
 73
     0
 90
        0
 40
0.6
 41
30.0
 62
     5
 63
     7
 74
     1
 91
        4
 64
     7
 65
   257
 75
     1
175
     1
 42
1.0
 92
        8
 66
     7
 43
1.0
 76
     1
 77
     6
 78
     2
 67
     7
 79
     5
170
     0
171
     0
290
     0
174
     0
 93
        1
 44
0.0
173
     0
291
     1
 45
0.0
1001
ACAD
1000
AcDbSavedByObjectVersion
1070
     0
  0
VISUALSTYLE
  5
2B
102
{ACAD_REACTORS
330
2A
102
}
102
{ACAD_XDICTIONARY
360
2EB
102
}
330
2A
100
AcDbVisualStyle
  2
Flat
 70
     0
 71
     2
 72
     1
 73
     1
 90
        2
 40
0.6
 41
30.0
 62
     5
 63
     7
 74
     0
 91
        0
 64
     7
 65
   257
 75
     1
175
     1
 42
1.0
 92
        8
 66
     7
 43
1.0
 76
     1
 77
     6
 78
     2
 67
     7
 79
     5
170
     0
171
     0
290
     0
174
     0
 93
       13
 44
0.0
173
     0
291
     1
 45
0.0
1001
ACAD
1000
AcDbSavedByObjectVersion
1070
     0
  0
VISUALSTYLE
  5
2C
102
{ACAD_REACTORS
330
2A
102
}
102
{ACAD_XDICTIONARY
360
2ED
102
}
330
2A
100
AcDbVisualStyle
  2
FlatWithEdges
 70
     1
 71
     2
 72
     1
 73
     1
 90
        2
 40
0.6
 41
30.0
 62
     5
 63
     7
 74
     1
 91
        0
 64
     7
 65
   257
 75
     1
175
     1
 42
1.0
 92
        0
 66
   257
 43
1.0
 76
     1
 77
     6
 78
     2
 67
     7
 79
     5
170
     0
171
     0
290
     0
174
     0
 93
       13
 44
0.0
173
     0
291
     1
 45
0.0
1001
ACAD
1000
AcDbSavedByObjectVersion
1070
     0
  0
VISUALSTYLE
  5
2D
102
{ACAD_REACTORS
330
2A
102
}
102
{ACAD_XDICTIONARY
360
2EF
102
}
330
2A
100
AcDbVisualStyle
  2
Gouraud
 70
     2
 71
     2
 72
     2
 73
     1
 90
        2
 40
0.6
 41
30.0
 62
     5
 63
     7
 74
     0
 91
        0
 64
     7
 65
   257
 75
     1
175
     1
 42
1.0
 92
        0
 66
     7
 43
1.0
 76
     1
 77
     6
 78
     2
 67
     7
 79
     5
170
     0
171
     0
290
     0
174
     0
 93
       13
 44
0.0
173
     0
291
     1
 45
0.0
1001
ACAD
1000
AcDbSavedByObjectVersion
1070
     0
  0
VISUALSTYLE
  5
2E
102
{ACAD_REACTORS
330
2A
102
}
102
{ACAD_XDICTIONARY
360
2F1
102
}
330
2A
100
AcDbVisualStyle
  2
GouraudWithEdges
 70
     3
 71
     2
 72
     2
 73
     1
 90
        2
 40
0.6
 41
30.0
 62
     5
 63
     7
 74
     1
 91
        0
 64
     7
 65
   257
 75
     1
175
     1
 42
1.0
 92
        0
 66
   257
 43
1.0
 76
     1
 77
     6
 78
     2
 67
     7
 79
     5
170
     0
171
     0
290
     0
174
     0
 93
       13
 44
0.0
173
     0
291
     1
 45
0.0
1001
ACAD
1000
AcDbSavedByObjectVersion
1070
     0
  0
VISUALSTYLE
  5
31
102
{ACAD_REACTORS
330
2A
102
}
102
{ACAD_XDICTIONARY
360
2F7
102
}
330
2A
100
AcDbVisualStyle
  2
Hidden
 70
     6
 71
     1
 72
     2
 73
     2
 90
        0
 40
0.6
 41
30.0
 62
     5
 63
     7
 74
     2
 91
        2
 64
     7
 65
   257
 75
     2
175
     1
 42
40.0
 92
        0
 66
   257
 43
1.0
 76
     1
 77
     6
 78
     2
 67
     7
 79
     3
170
     0
171
     0
290
     0
174
     0
 93
        1
 44
0.0
173
     0
291
     0
 45
0.0
1001
ACAD
1000
AcDbSavedByObjectVersion
1070
     0
  0
VISUALSTYLE
  5
3B
102
{ACAD_REACTORS
330
2A
102
}
102
{ACAD_XDICTIONARY
360
30B
102
}
330
2A
100
AcDbVisualStyle
  2
JitterOff
 70
    20
 71
     2
 72
     2
 73
     0
 90
        0
 40
0.6
 41
30.0
 62
     5
 63
     7
 74
     1
 91
        4
 64
     7
 65
   257
 75
     1
175
     1
 42
1.0
 92
       10
 66
     7
 43
1.0
 76
     1
 77
     6
 78
     2
 67
     7
 79
     5
170
     0
171
     0
290
     0
174
     0
 93
        1
 44
0.0
173
     0
291
     1
 45
0.0
1001
ACAD
1000
AcDbSavedByObjectVersion
1070
     0
  0
VISUALSTYLE
  5
38
102
{ACAD_REACTORS
330
2A
102
}
102
{ACAD_XDICTIONARY
360
305
102
}
330
2A
100
AcDbVisualStyle
  2
Linepattern
 70
    14
 71
     2
 72
     2
 73
     0
 90
        0
 40
0.6
 41
30.0
 62
     5
 63
     7
 74
     1
 91
        4
 64
     7
 65
   257
 75
     7
175
     7
 42
1.0
 92
        8
 66
     7
 43
1.0
 76
     1
 77
     6
 78
     2
 67
     7
 79
     5
170
     0
171
     0
290
     0
174
     0
 93
        1
 44
0.0
173
     0
291
     1
 45
0.0
1001
ACAD
1000
AcDbSavedByObjectVersion
1070
     0
  0
VISUALSTYLE
  5
3C
102
{ACAD_REACTORS
330
2A
102
}
102
{ACAD_XDICTIONARY
360
30D
102
}
330
2A
100
AcDbVisualStyle
  2
OverhangOff
 70
    21
 71
     2
 72
     2
 73
     0
 90
        0
 40
0.6
 41
30.0
 62
     5
 63
     7
 74
     1
 91
        4
 64
     7
 65
   257
 75
     1
175
     1
 42
1.0
 92
        9
 66
     7
 43
1.0
 76
     1
 77
     6
 78
     2
 67
     7
 79
     5
170
     0
171
     0
290
     0
174
     0
 93
        1
 44
0.0
173
     0
291
     1
 45
0.0
1001
ACAD
1000
AcDbSavedByObjectVersion
1070
     0
  0
VISUALSTYLE
  5
33
102
{ACAD_REACTORS
330
2A
102
}
102
{ACAD_XDICTIONARY
360
2FB
102
}
330
2A
100
AcDbVisualStyle
  2
Realistic
 70
     8
 71
     2
 72
     3
 73
     0
 90
        2
 40
0.6
 41
30.0
 62
     5
 63
     7
 74
     0
 91
        0
 64
     7
 65
   257
 75
     1
175
     1
 42
1.0
 92
        8
 66
   257
 43
1.0
 76
     1
 77
     6
 78
     2
 67
     7
 79
     3
170
     0
171
     0
290
     0
174
     0
 93
       13
 44
0.0
173
     0
291
     0
 45
0.0
1001
ACAD
1000
AcDbSavedByObjectVersion
1070
     0
  0
VISUALSTYLE
  5
42
102
{ACAD_REACTORS
330
2A
102
}
102
{ACAD_XDICTIONARY
360
319
102
}
330
2A
100
AcDbVisualStyle
  2
Shaded
 70
    27
 71
     2
 72
     2
 73
     1
 90
        2
 40
0.6
 41
30.0
 62
     5
 63
     7
 74
     0
 91
        4
 64
     7
 65
   257
 75
     1
175
     1
 42
1.0
 92
        8
 66
   257
 43
1.0
 76
     1
 77
     6
 78
     2
 67
     8
 79
     3
170
     0
171
     0
290
     0
174
     0
 93
        5
 44
0.0
173
     0
291
     0
 45
0.0
1001
ACAD
1000
AcDbSavedByObjectVersion
1070
     0
  0
VISUALSTYLE
  5
41
102
{ACAD_REACTORS
330
2A
102
}
102
{ACAD_XDICTIONARY
360
317
102
}
330
2A
100
AcDbVisualStyle
  2
Shaded with edges
 70
    26
 71
     2
 72
     2
 73
     1
 90
        2
 40
0.6
 41
30.0
 62
     5
 63
     7
 74
     1
 91
       10
 64
     7
 65
   257
 75
     2
175
     1
 42
1.0
 92
        8
 66
   257
 43
1.0
 76
     1
 77
     6
 78
     2
 67
     7
 79
     3
170
     0
171
     0
290
     0
174
     0
 93
        5
 44
0.0
173
     0
291
     0
 45
0.0
1001
ACAD
1000
AcDbSavedByObjectVersion
1070
     0
  0
VISUALSTYLE
  5
3E
102
{ACAD_REACTORS
330
2A
102
}
102
{ACAD_XDICTIONARY
360
311
102
}
330
2A
100
AcDbVisualStyle
  2
Shades of Gray
 70
    23
 71
     2
 72
     2
 73
     3
 90
        0
 40
0.6
 41
30.0
 62
     5
 63
     7
 74
     2
 91
        2
 64
     7
 65
     7
 75
     1
175
     1
 42
40.0
 92
        8
 66
     7
 43
1.0
 76
     1
 77
     6
 78
     2
 67
     7
 79
     3
170
     0
171
     0
290
     0
174
     0
 93
        1
 44
0.0
173
     0
291
     0
 45
0.0
1001
ACAD
1000
AcDbSavedByObjectVersion
1070
     0
  0
VISUALSTYLE
  5
3F
102
{ACAD_REACTORS
330
2A
102
}
102
{ACAD_XDICTIONARY
360
313
102
}
330
2A
100
AcDbVisualStyle
  2
Sketchy
 70
    24
 71
     1
 72
     2
 73
     2
 90
        0
 40
0.6
 41
30.0
 62
     5
 63
     7
 74
     2
 91
        2
 64
     7
 65
     7
 75
     1
175
     1
 42
40.0
 92
       11
 66
     7
 43
1.0
 76
     1
 77
     6
 78
     2
 67
     7
 79
     6
170
     0
171
     0
290
     0
174
     0
 93
        1
 44
0.0
173
     0
291
     0
 45
0.0
1001
ACAD
1000
AcDbSavedByObjectVersion
1070
     0
  0
VISUALSTYLE
  5
37
102
{ACAD_REACTORS
330
2A
102
}
102
{ACAD_XDICTIONARY
360
303
102
}
330
2A
100
AcDbVisualStyle
  2
Thicken
 70
    13
 71
     2
 72
     2
 73
     0
 90
        0
 40
0.6
 41
30.0
 62
     5
 63
     7
 74
     1
 91
        4
 64
     7
 65
   257
 75
     1
175
     1
 42
1.0
 92
       12
 66
     7
 43
1.0
 76
     1
 77
     6
 78
     2
 67
     7
 79
     5
170
     0
171
     0
290
     0
174
     0
 93
        1
 44
0.0
173
     0
291
     1
 45
0.0
1001
ACAD
1000
AcDbSavedByObjectVersion
1070
     0
  0
VISUALSTYLE
  5
30
102
{ACAD_REACTORS
330
2A
102
}
102
{ACAD_XDICTIONARY
360
2F5
102
}
330
2A
100
AcDbVisualStyle
  2
Wireframe
 70
     5
 71
     0
 72
     2
 73
     0
 90
        0
 40
0.6
 41
30.0
 62
     5
 63
     7
 74
     1
 91
        4
 64
     7
 65
   257
 75
     1
175
     1
 42
1.0
 92
        0
 66
   257
 43
1.0
 76
     1
 77
     6
 78
     2
 67
     7
 79
     3
170
     0
171
     0
290
     0
174
     0
 93
        1
 44
0.0
173
     0
291
     0
 45
0.0
1001
ACAD
1000
AcDbSavedByObjectVersion
1070
     0
  0
VISUALSTYLE
  5
40
102
{ACAD_REACTORS
330
2A
102
}
102
{ACAD_XDICTIONARY
360
315
102
}
330
2A
100
AcDbVisualStyle
  2
X-Ray
 70
    25
 71
     2
 72
     2
 73
     1
 90
        1
 40
0.5
 41
30.0
 62
     5
 63
     7
 74
     1
 91
        0
 64
     7
 65
   257
 75
     1
175
     1
 42
1.0
 92
        8
 66
     7
 43
1.0
 76
     1
 77
     6
 78
     2
 67
     7
 79
     3
170
     0
171
     0
290
     0
174
     0
 93
       13
 44
0.0
173
     0
291
     0
 45
0.0
1001
ACAD
1000
AcDbSavedByObjectVersion
1070
     0
  0
DICTIONARYVAR
  5
2E9
102
{ACAD_REACTORS
330
2DA
102
}
330
2DA
100
DictionaryVariables
280
     0
  1
1:1
  0
DICTIONARYVAR
  5
2E1
102
{ACAD_REACTORS
330
2DA
102
}
330
2DA
100
DictionaryVariables
280
     0
  1
3.500000
  0
DICTIONARYVAR
  5
2E2
102
{ACAD_REACTORS
330
2DA
102
}
330
2DA
100
DictionaryVariables
280
     0
  1
acadiso.lin
  0
DICTIONARYVAR
  5
2DC
102
{ACAD_REACTORS
330
2DA
102
}
330
2DA
100
DictionaryVariables
280
     0
  1
Standard
  0
DICTIONARYVAR
  5
2DB
102
{ACAD_REACTORS
330
2DA
102
}
330
2DA
100
DictionaryVariables
280
     0
  1
Standard
  0
DICTIONARYVAR
  5
2E3
102
{ACAD_REACTORS
330
2DA
102
}
330
2DA
100
DictionaryVariables
280
     0
  1
2
  0
DICTIONARYVAR
  5
2E4
102
{ACAD_REACTORS
330
2DA
102
}
330
2DA
100
DictionaryVariables
280
     0
  1
1
  0
DICTIONARYVAR
  5
2EA
102
{ACAD_REACTORS
330
2DA
102
}
330
2DA
100
DictionaryVariables
280
     0
  1
1
  0
DICTIONARYVAR
  5
2DE
102
{ACAD_REACTORS
330
2DA
102
}
330
2DA
100
DictionaryVariables
280
     0
  1
80.000000
  0
DICTIONARYVAR
  5
2DD
102
{ACAD_REACTORS
330
2DA
102
}
330
2DA
100
DictionaryVariables
280
     0
  1
5.000000
  0
DICTIONARY
  5
31D
330
45
100
AcDbDictionary
280
     1
281
     1
  3
ACAD_XREC_ROUNDTRIP
360
31E
  0
DICTIONARY
  5
31B
330
44
100
AcDbDictionary
280
     1
281
     1
  3
ACAD_XREC_ROUNDTRIP
360
31C
  0
DICTIONARY
  5
31F
330
46
100
AcDbDictionary
280
     1
281
     1
  3
ACAD_XREC_ROUNDTRIP
360
320
  0
DICTIONARY
  5
322
330
6C
100
AcDbDictionary
280
     1
281
     1
  3
ACAD_XREC_ROUNDTRIP
360
323
  0
DICTIONARY
  5
2F3
330
2F
100
AcDbDictionary
280
     1
281
     1
  3
ACAD_XREC_ROUNDTRIP
360
2F4
  0
DICTIONARY
  5
2F9
330
32
100
AcDbDictionary
280
     1
281
     1
  3
ACAD_XREC_ROUNDTRIP
360
2FA
  0
DICTIONARY
  5
301
330
36
100
AcDbDictionary
280
     1
281
     1
  3
ACAD_XREC_ROUNDTRIP
360
302
  0
DICTIONARY
  5
309
330
3A
100
AcDbDictionary
280
     1
281
     1
  3
ACAD_XREC_ROUNDTRIP
360
30A
  0
DICTIONARY
  5
2FD
330
34
100
AcDbDictionary
280
     1
281
     1
  3
ACAD_XREC_ROUNDTRIP
360
2FE
  0
DICTIONARY
  5
2FF
330
35
100
AcDbDictionary
280
     1
281
     1
  3
ACAD_XREC_ROUNDTRIP
360
300
  0
DICTIONARY
  5
30F
330
3D
100
AcDbDictionary
280
     1
281
     1
  3
ACAD_XREC_ROUNDTRIP
360
310
  0
DICTIONARY
  5
307
330
39
100
AcDbDictionary
280
     1
281
     1
  3
ACAD_XREC_ROUNDTRIP
360
308
  0
DICTIONARY
  5
2EB
330
2B
100
AcDbDictionary
280
     1
281
     1
  3
ACAD_XREC_ROUNDTRIP
360
2EC
  0
DICTIONARY
  5
2ED
330
2C
100
AcDbDictionary
280
     1
281
     1
  3
ACAD_XREC_ROUNDTRIP
360
2EE
  0
DICTIONARY
  5
2EF
330
2D
100
AcDbDictionary
280
     1
281
     1
  3
ACAD_XREC_ROUNDTRIP
360
2F0
  0
DICTIONARY
  5
2F1
330
2E
100
AcDbDictionary
280
     1
281
     1
  3
ACAD_XREC_ROUNDTRIP
360
2F2
  0
DICTIONARY
  5
2F7
330
31
100
AcDbDictionary
280
     1
281
     1
  3
ACAD_XREC_ROUNDTRIP
360
2F8
  0
DICTIONARY
  5
30B
330
3B
100
AcDbDictionary
280
     1
281
     1
  3
ACAD_XREC_ROUNDTRIP
360
30C
  0
DICTIONARY
  5
305
330
38
100
AcDbDictionary
280
     1
281
     1
  3
ACAD_XREC_ROUNDTRIP
360
306
  0
DICTIONARY
  5
30D
330
3C
100
AcDbDictionary
280
     1
281
     1
  3
ACAD_XREC_ROUNDTRIP
360
30E
  0
DICTIONARY
  5
2FB
330
33
100
AcDbDictionary
280
     1
281
     1
  3
ACAD_XREC_ROUNDTRIP
360
2FC
  0
DICTIONARY
  5
319
330
42
100
AcDbDictionary
280
     1
281
     1
  3
ACAD_XREC_ROUNDTRIP
360
31A
  0
DICTIONARY
  5
317
330
41
100
AcDbDictionary
280
     1
281
     1
  3
ACAD_XREC_ROUNDTRIP
360
318
  0
DICTIONARY
  5
311
330
3E
100
AcDbDictionary
280
     1
281
     1
  3
ACAD_XREC_ROUNDTRIP
360
312
  0
DICTIONARY
  5
313
330
3F
100
AcDbDictionary
280
     1
281
     1
  3
ACAD_XREC_ROUNDTRIP
360
314
  0
DICTIONARY
  5
303
330
37
100
AcDbDictionary
280
     1
281
     1
  3
ACAD_XREC_ROUNDTRIP
360
304
  0
DICTIONARY
  5
2F5
330
30
100
AcDbDictionary
280
     1
281
     1
  3
ACAD_XREC_ROUNDTRIP
360
2F6
  0
DICTIONARY
  5
315
330
40
100
AcDbDictionary
280
     1
281
     1
  3
ACAD_XREC_ROUNDTRIP
360
316
  0
XRECORD
  5
31E
102
{ACAD_REACTORS
330
31D
102
}
330
31D
100
AcDbXrecord
280
     1
102
MATERIAL
148
0.0
149
0.0
149
0.0
 93
        0
 94
      127
282
     0
 72
     1
 77
     1
171
     1
175
     1
179
     1
273
     0
  0
XRECORD
  5
31C
102
{ACAD_REACTORS
330
31B
102
}
330
31B
100
AcDbXrecord
280
     1
102
MATERIAL
148
0.0
149
0.0
149
0.0
 93
        0
 94
      127
282
     0
 72
     1
 77
     1
171
     1
175
     1
179
     1
273
     0
  0
XRECORD
  5
320
102
{ACAD_REACTORS
330
31F
102
}
330
31F
100
AcDbXrecord
280
     1
102
MATERIAL
148
0.0
149
0.0
149
0.0
 93
        0
 94
      127
282
     0
 72
     1
 77
     1
171
     1
175
     1
179
     1
273
     0
  0
XRECORD
  5
323
102
{ACAD_REACTORS
330
322
102
}
330
322
100
AcDbXrecord
280
     1
102
ACAD_ROUNDTRIP_2010_MLEADER_STYLE
  0
XRECORD
  5
2F4
102
{ACAD_REACTORS
330
2F3
102
}
330
2F3
100
AcDbXrecord
280
     1
102
RTVSPropertyOp0
 70
     1
102
RTVSPropertyOp1
 70
     1
102
RTVSPropertyOp2
 70
     1
102
RTVSPropertyOp3
 70
     1
102
RTVSPropertyOp4
 70
     1
102
RTVSPropertyOp5
 70
     1
102
RTVSPropertyOp6
 70
     1
102
RTVSPropertyOp7
 70
     1
102
RTVSPropertyOp8
 70
     1
102
RTVSPropertyOp9
 70
     1
102
RTVSPropertyOp10
 70
     1
102
RTVSPropertyOp11
 70
     1
102
RTVSPropertyOp12
 70
     1
102
RTVSPropertyOp13
 70
     1
102
RTVSPropertyOp14
 70
     1
102
RTVSPropertyOp15
 70
     1
102
RTVSPropertyOp16
 70
     1
102
RTVSPropertyOp17
 70
     1
102
RTVSPropertyOp18
 70
     1
102
RTVSPropertyOp19
 70
     1
102
RTVSPropertyOp20
 70
     1
102
RTVSPropertyOp21
 70
     1
102
RTVSPropertyOp22
 70
     1
102
RTVSPropertyOp23
 70
     1
102
RTVSPropertyOp24
 70
     1
102
RTVSPropertyOp25
 70
     1
102
RTVSPropertyOp26
 70
     1
102
RTVSPropertyOp27
 70
     1
102
RTVSPropertyOp28
 70
     1
102
RTVSPropertyOp29
 70
     1
102
RTVSPropertyOp30
 70
     1
102
RTVSPropertyOp31
 70
     1
102
RTVSPropertyOp32
 70
     1
102
RTVSPropertyOp33
 70
     1
102
RTVSPropertyOp34
 70
     1
102
RTVSPropertyOp35
 70
     1
102
RTVSPropertyOp36
 70
     1
102
RTVSPropertyOp37
 70
     1
102
RTVSPropertyOp38
 70
     1
102
RTVSPropertyOp39
 70
     1
102
RTVSPropertyOp40
 70
     1
102
RTVSPropertyOp41
 70
     1
102
RTVSPropertyOp42
 70
     1
102
RTVSPropertyOp43
 70
     1
102
RTVSPropertyOp44
 70
     1
102
RTVSPropertyOp45
 70
     1
102
RTVSPropertyOp46
 70
     1
102
RTVSPropertyOp47
 70
     1
102
RTVSPropertyOp48
 70
     1
102
RTVSPropertyOp49
 70
     1
102
RTVSPropertyOp50
 70
     1
102
RTVSPropertyOp51
 70
     0
102
RTVSPropertyOp52
 70
     0
102
RTVSPropertyOp53
 70
     1
102
RTVSPropertyOp54
 70
     1
102
RTVSPropertyOp55
 70
     1
102
RTVSPropertyOp56
 70
     1
102
RTVSPropertyOp57
 70
     1
102
RTVSPost2010Prop28
280
     1
102
RTVSPost2010PropOp28
 70
     1
102
RTVSPost2010Prop29
280
     1
102
RTVSPost2010PropOp29
 70
     1
102
RTVSPost2010Prop30
280
     0
102
RTVSPost2010PropOp30
 70
     1
102
RTVSPost2010Prop31
280
     0
102
RTVSPost2010PropOp31
 70
     1
102
RTVSPost2010Prop32
280
     0
102
RTVSPost2010PropOp32
 70
     1
102
RTVSPost2010Prop33
280
     0
102
RTVSPost2010PropOp33
 70
     1
102
RTVSPost2010Prop34
280
     0
102
RTVSPost2010PropOp34
 70
     1
102
RTVSPost2010Prop35
280
     0
102
RTVSPost2010PropOp35
 70
     1
102
RTVSPost2010Prop36
280
     0
102
RTVSPost2010PropOp36
 70
     1
102
RTVSPost2010Prop37
 90
       50
102
RTVSPost2010PropOp37
 70
     1
102
RTVSPost2010Prop38
140
0.0
102
RTVSPost2010PropOp38
 70
     1
102
RTVSPost2010Prop39
140
1.0
102
RTVSPost2010PropOp39
 70
     1
102
RTVSPost2010Prop40
 90
        0
102
RTVSPost2010PropOp40
 70
     1
102
RTVSPost2010Prop41ColorIndex
 90
       18
102
RTVSPost2010Prop41ColorRGB
 90
        0
102
RTVSPost2010PropOp41
 70
     1
102
RTVSPost2010Prop42
 90
       50
102
RTVSPost2010PropOp42
 70
     1
102
RTVSPost2010Prop43
 90
        3
102
RTVSPost2010PropOp43
 70
     1
102
RTVSPost2010Prop44ColorIndex
 90
        5
102
RTVSPost2010Prop44ColorRGB
 90
      255
102
RTVSPost2010PropOp44
 70
     1
102
RTVSPost2010Prop45
280
     0
102
RTVSPost2010PropOp45
 70
     1
102
RTVSPost2010Prop46
 90
       50
102
RTVSPost2010PropOp46
 70
     1
102
RTVSPost2010Prop47
 90
       50
102
RTVSPost2010PropOp47
 70
     1
102
RTVSPost2010Prop48
 90
       50
102
RTVSPost2010PropOp48
 70
     1
102
RTVSPost2010Prop49
280
     0
102
RTVSPost2010PropOp49
 70
     1
102
RTVSPost2010Prop50
 90
       50
102
RTVSPost2010PropOp50
 70
     1
102
RTVSPost2010Prop51ColorIndex
 90
      256
102
RTVSPost2010Prop51ColorRGB
 90
-16777216
102
RTVSPost2010PropOp51
 70
     0
102
RTVSPost2010Prop52
140
1.0
102
RTVSPost2010PropOp52
 70
     0
102
RTVSPost2010Prop53
 90
        2
102
RTVSPost2010PropOp53
 70
     1
102
RTVSPost2010Prop54
  1
strokes_ogs.tif
102
RTVSPost2010PropOp54
 70
     1
102
RTVSPost2010Prop55
280
     0
102
RTVSPost2010PropOp55
 70
     1
102
RTVSPost2010Prop56
140
1.0
102
RTVSPost2010PropOp56
 70
     1
102
RTVSPost2010Prop57
140
1.0
102
RTVSPost2010PropOp57
 70
     1
  0
XRECORD
  5
2FA
102
{ACAD_REACTORS
330
2F9
102
}
330
2F9
100
AcDbXrecord
280
     1
102
RTVSPropertyOp0
 70
     1
102
RTVSPropertyOp1
 70
     1
102
RTVSPropertyOp2
 70
     1
102
RTVSPropertyOp3
 70
     1
102
RTVSPropertyOp4
 70
     1
102
RTVSPropertyOp5
 70
     1
102
RTVSPropertyOp6
 70
     1
102
RTVSPropertyOp7
 70
     1
102
RTVSPropertyOp8
 70
     1
102
RTVSPropertyOp9
 70
     1
102
RTVSPropertyOp10
 70
     1
102
RTVSPropertyOp11
 70
     1
102
RTVSPropertyOp12
 70
     1
102
RTVSPropertyOp13
 70
     1
102
RTVSPropertyOp14
 70
     1
102
RTVSPropertyOp15
 70
     1
102
RTVSPropertyOp16
 70
     1
102
RTVSPropertyOp17
 70
     1
102
RTVSPropertyOp18
 70
     1
102
RTVSPropertyOp19
 70
     1
102
RTVSPropertyOp20
 70
     1
102
RTVSPropertyOp21
 70
     1
102
RTVSPropertyOp22
 70
     1
102
RTVSPropertyOp23
 70
     1
102
RTVSPropertyOp24
 70
     1
102
RTVSPropertyOp25
 70
     1
102
RTVSPropertyOp26
 70
     1
102
RTVSPropertyOp27
 70
     1
102
RTVSPropertyOp28
 70
     1
102
RTVSPropertyOp29
 70
     1
102
RTVSPropertyOp30
 70
     1
102
RTVSPropertyOp31
 70
     1
102
RTVSPropertyOp32
 70
     1
102
RTVSPropertyOp33
 70
     1
102
RTVSPropertyOp34
 70
     1
102
RTVSPropertyOp35
 70
     1
102
RTVSPropertyOp36
 70
     1
102
RTVSPropertyOp37
 70
     1
102
RTVSPropertyOp38
 70
     1
102
RTVSPropertyOp39
 70
     1
102
RTVSPropertyOp40
 70
     1
102
RTVSPropertyOp41
 70
     1
102
RTVSPropertyOp42
 70
     1
102
RTVSPropertyOp43
 70
     1
102
RTVSPropertyOp44
 70
     1
102
RTVSPropertyOp45
 70
     1
102
RTVSPropertyOp46
 70
     1
102
RTVSPropertyOp47
 70
     1
102
RTVSPropertyOp48
 70
     1
102
RTVSPropertyOp49
 70
     1
102
RTVSPropertyOp50
 70
     1
102
RTVSPropertyOp51
 70
     0
102
RTVSPropertyOp52
 70
     0
102
RTVSPropertyOp53
 70
     1
102
RTVSPropertyOp54
 70
     1
102
RTVSPropertyOp55
 70
     1
102
RTVSPropertyOp56
 70
     1
102
RTVSPropertyOp57
 70
     1
102
RTVSPost2010Prop28
280
     0
102
RTVSPost2010PropOp28
 70
     1
102
RTVSPost2010Prop29
280
     1
102
RTVSPost2010PropOp29
 70
     1
102
RTVSPost2010Prop30
280
     1
102
RTVSPost2010PropOp30
 70
     1
102
RTVSPost2010Prop31
280
     0
102
RTVSPost2010PropOp31
 70
     1
102
RTVSPost2010Prop32
280
     0
102
RTVSPost2010PropOp32
 70
     1
102
RTVSPost2010Prop33
280
     0
102
RTVSPost2010PropOp33
 70
     1
102
RTVSPost2010Prop34
280
     0
102
RTVSPost2010PropOp34
 70
     1
102
RTVSPost2010Prop35
280
     0
102
RTVSPost2010PropOp35
 70
     1
102
RTVSPost2010Prop36
280
     0
102
RTVSPost2010PropOp36
 70
     1
102
RTVSPost2010Prop37
 90
       50
102
RTVSPost2010PropOp37
 70
     1
102
RTVSPost2010Prop38
140
0.0
102
RTVSPost2010PropOp38
 70
     1
102
RTVSPost2010Prop39
140
1.0
102
RTVSPost2010PropOp39
 70
     1
102
RTVSPost2010Prop40
 90
        0
102
RTVSPost2010PropOp40
 70
     1
102
RTVSPost2010Prop41ColorIndex
 90
       18
102
RTVSPost2010Prop41ColorRGB
 90
        0
102
RTVSPost2010PropOp41
 70
     1
102
RTVSPost2010Prop42
 90
       50
102
RTVSPost2010PropOp42
 70
     1
102
RTVSPost2010Prop43
 90
        3
102
RTVSPost2010PropOp43
 70
     1
102
RTVSPost2010Prop44ColorIndex
 90
        5
102
RTVSPost2010Prop44ColorRGB
 90
      255
102
RTVSPost2010PropOp44
 70
     1
102
RTVSPost2010Prop45
280
     0
102
RTVSPost2010PropOp45
 70
     1
102
RTVSPost2010Prop46
 90
       50
102
RTVSPost2010PropOp46
 70
     1
102
RTVSPost2010Prop47
 90
       50
102
RTVSPost2010PropOp47
 70
     1
102
RTVSPost2010Prop48
 90
       50
102
RTVSPost2010PropOp48
 70
     1
102
RTVSPost2010Prop49
280
     0
102
RTVSPost2010PropOp49
 70
     1
102
RTVSPost2010Prop50
 90
       50
102
RTVSPost2010PropOp50
 70
     1
102
RTVSPost2010Prop51ColorIndex
 90
      256
102
RTVSPost2010Prop51ColorRGB
 90
-16777216
102
RTVSPost2010PropOp51
 70
     0
102
RTVSPost2010Prop52
140
1.0
102
RTVSPost2010PropOp52
 70
     0
102
RTVSPost2010Prop53
 90
        2
102
RTVSPost2010PropOp53
 70
     1
102
RTVSPost2010Prop54
  1
strokes_ogs.tif
102
RTVSPost2010PropOp54
 70
     1
102
RTVSPost2010Prop55
280
     0
102
RTVSPost2010PropOp55
 70
     1
102
RTVSPost2010Prop56
140
1.0
102
RTVSPost2010PropOp56
 70
     1
102
RTVSPost2010Prop57
140
1.0
102
RTVSPost2010PropOp57
 70
     1
  0
XRECORD
  5
302
102
{ACAD_REACTORS
330
301
102
}
330
301
100
AcDbXrecord
280
     1
102
RTVSPropertyOp0
 70
     1
102
RTVSPropertyOp1
 70
     1
102
RTVSPropertyOp2
 70
     1
102
RTVSPropertyOp3
 70
     1
102
RTVSPropertyOp4
 70
     1
102
RTVSPropertyOp5
 70
     1
102
RTVSPropertyOp6
 70
     1
102
RTVSPropertyOp7
 70
     1
102
RTVSPropertyOp8
 70
     1
102
RTVSPropertyOp9
 70
     1
102
RTVSPropertyOp10
 70
     1
102
RTVSPropertyOp11
 70
     1
102
RTVSPropertyOp12
 70
     1
102
RTVSPropertyOp13
 70
     1
102
RTVSPropertyOp14
 70
     1
102
RTVSPropertyOp15
 70
     1
102
RTVSPropertyOp16
 70
     1
102
RTVSPropertyOp17
 70
     1
102
RTVSPropertyOp18
 70
     1
102
RTVSPropertyOp19
 70
     1
102
RTVSPropertyOp20
 70
     1
102
RTVSPropertyOp21
 70
     1
102
RTVSPropertyOp22
 70
     1
102
RTVSPropertyOp23
 70
     1
102
RTVSPropertyOp24
 70
     1
102
RTVSPropertyOp25
 70
     1
102
RTVSPropertyOp26
 70
     1
102
RTVSPropertyOp27
 70
     1
102
RTVSPropertyOp28
 70
     1
102
RTVSPropertyOp29
 70
     1
102
RTVSPropertyOp30
 70
     1
102
RTVSPropertyOp31
 70
     1
102
RTVSPropertyOp32
 70
     1
102
RTVSPropertyOp33
 70
     1
102
RTVSPropertyOp34
 70
     1
102
RTVSPropertyOp35
 70
     1
102
RTVSPropertyOp36
 70
     1
102
RTVSPropertyOp37
 70
     1
102
RTVSPropertyOp38
 70
     1
102
RTVSPropertyOp39
 70
     1
102
RTVSPropertyOp40
 70
     1
102
RTVSPropertyOp41
 70
     1
102
RTVSPropertyOp42
 70
     1
102
RTVSPropertyOp43
 70
     1
102
RTVSPropertyOp44
 70
     1
102
RTVSPropertyOp45
 70
     1
102
RTVSPropertyOp46
 70
     1
102
RTVSPropertyOp47
 70
     1
102
RTVSPropertyOp48
 70
     1
102
RTVSPropertyOp49
 70
     1
102
RTVSPropertyOp50
 70
     1
102
RTVSPropertyOp51
 70
     0
102
RTVSPropertyOp52
 70
     0
102
RTVSPropertyOp53
 70
     1
102
RTVSPropertyOp54
 70
     1
102
RTVSPropertyOp55
 70
     1
102
RTVSPropertyOp56
 70
     1
102
RTVSPropertyOp57
 70
     1
102
RTVSPost2010Prop28
280
     0
102
RTVSPost2010PropOp28
 70
     1
102
RTVSPost2010Prop29
280
     1
102
RTVSPost2010PropOp29
 70
     1
102
RTVSPost2010Prop30
280
     1
102
RTVSPost2010PropOp30
 70
     1
102
RTVSPost2010Prop31
280
     0
102
RTVSPost2010PropOp31
 70
     1
102
RTVSPost2010Prop32
280
     0
102
RTVSPost2010PropOp32
 70
     1
102
RTVSPost2010Prop33
280
     0
102
RTVSPost2010PropOp33
 70
     1
102
RTVSPost2010Prop34
280
     0
102
RTVSPost2010PropOp34
 70
     1
102
RTVSPost2010Prop35
280
     0
102
RTVSPost2010PropOp35
 70
     1
102
RTVSPost2010Prop36
280
     0
102
RTVSPost2010PropOp36
 70
     1
102
RTVSPost2010Prop37
 90
       50
102
RTVSPost2010PropOp37
 70
     1
102
RTVSPost2010Prop38
140
0.0
102
RTVSPost2010PropOp38
 70
     1
102
RTVSPost2010Prop39
140
1.0
102
RTVSPost2010PropOp39
 70
     1
102
RTVSPost2010Prop40
 90
        0
102
RTVSPost2010PropOp40
 70
     1
102
RTVSPost2010Prop41ColorIndex
 90
       18
102
RTVSPost2010Prop41ColorRGB
 90
        0
102
RTVSPost2010PropOp41
 70
     1
102
RTVSPost2010Prop42
 90
       50
102
RTVSPost2010PropOp42
 70
     1
102
RTVSPost2010Prop43
 90
        3
102
RTVSPost2010PropOp43
 70
     1
102
RTVSPost2010Prop44ColorIndex
 90
        5
102
RTVSPost2010Prop44ColorRGB
 90
      255
102
RTVSPost2010PropOp44
 70
     1
102
RTVSPost2010Prop45
280
     0
102
RTVSPost2010PropOp45
 70
     1
102
RTVSPost2010Prop46
 90
       50
102
RTVSPost2010PropOp46
 70
     1
102
RTVSPost2010Prop47
 90
       50
102
RTVSPost2010PropOp47
 70
     1
102
RTVSPost2010Prop48
 90
       50
102
RTVSPost2010PropOp48
 70
     1
102
RTVSPost2010Prop49
280
     0
102
RTVSPost2010PropOp49
 70
     1
102
RTVSPost2010Prop50
 90
       50
102
RTVSPost2010PropOp50
 70
     1
102
RTVSPost2010Prop51ColorIndex
 90
      256
102
RTVSPost2010Prop51ColorRGB
 90
-16777216
102
RTVSPost2010PropOp51
 70
     0
102
RTVSPost2010Prop52
140
1.0
102
RTVSPost2010PropOp52
 70
     0
102
RTVSPost2010Prop53
 90
        2
102
RTVSPost2010PropOp53
 70
     1
102
RTVSPost2010Prop54
  1
strokes_ogs.tif
102
RTVSPost2010PropOp54
 70
     1
102
RTVSPost2010Prop55
280
     0
102
RTVSPost2010PropOp55
 70
     1
102
RTVSPost2010Prop56
140
1.0
102
RTVSPost2010PropOp56
 70
     1
102
RTVSPost2010Prop57
140
1.0
102
RTVSPost2010PropOp57
 70
     1
  0
XRECORD
  5
30A
102
{ACAD_REACTORS
330
309
102
}
330
309
100
AcDbXrecord
280
     1
102
RTVSPropertyOp0
 70
     1
102
RTVSPropertyOp1
 70
     1
102
RTVSPropertyOp2
 70
     1
102
RTVSPropertyOp3
 70
     1
102
RTVSPropertyOp4
 70
     1
102
RTVSPropertyOp5
 70
     1
102
RTVSPropertyOp6
 70
     1
102
RTVSPropertyOp7
 70
     1
102
RTVSPropertyOp8
 70
     1
102
RTVSPropertyOp9
 70
     1
102
RTVSPropertyOp10
 70
     1
102
RTVSPropertyOp11
 70
     1
102
RTVSPropertyOp12
 70
     1
102
RTVSPropertyOp13
 70
     1
102
RTVSPropertyOp14
 70
     1
102
RTVSPropertyOp15
 70
     1
102
RTVSPropertyOp16
 70
     1
102
RTVSPropertyOp17
 70
     1
102
RTVSPropertyOp18
 70
     1
102
RTVSPropertyOp19
 70
     1
102
RTVSPropertyOp20
 70
     1
102
RTVSPropertyOp21
 70
     1
102
RTVSPropertyOp22
 70
     1
102
RTVSPropertyOp23
 70
     1
102
RTVSPropertyOp24
 70
     1
102
RTVSPropertyOp25
 70
     1
102
RTVSPropertyOp26
 70
     1
102
RTVSPropertyOp27
 70
     1
102
RTVSPropertyOp28
 70
     1
102
RTVSPropertyOp29
 70
     1
102
RTVSPropertyOp30
 70
     1
102
RTVSPropertyOp31
 70
     1
102
RTVSPropertyOp32
 70
     1
102
RTVSPropertyOp33
 70
     1
102
RTVSPropertyOp34
 70
     1
102
RTVSPropertyOp35
 70
     1
102
RTVSPropertyOp36
 70
     1
102
RTVSPropertyOp37
 70
     1
102
RTVSPropertyOp38
 70
     1
102
RTVSPropertyOp39
 70
     1
102
RTVSPropertyOp40
 70
     1
102
RTVSPropertyOp41
 70
     1
102
RTVSPropertyOp42
 70
     1
102
RTVSPropertyOp43
 70
     1
102
RTVSPropertyOp44
 70
     1
102
RTVSPropertyOp45
 70
     1
102
RTVSPropertyOp46
 70
     1
102
RTVSPropertyOp47
 70
     1
102
RTVSPropertyOp48
 70
     1
102
RTVSPropertyOp49
 70
     1
102
RTVSPropertyOp50
 70
     1
102
RTVSPropertyOp51
 70
     0
102
RTVSPropertyOp52
 70
     0
102
RTVSPropertyOp53
 70
     1
102
RTVSPropertyOp54
 70
     1
102
RTVSPropertyOp55
 70
     1
102
RTVSPropertyOp56
 70
     1
102
RTVSPropertyOp57
 70
     1
102
RTVSPost2010Prop28
280
     0
102
RTVSPost2010PropOp28
 70
     1
102
RTVSPost2010Prop29
280
     1
102
RTVSPost2010PropOp29
 70
     1
102
RTVSPost2010Prop30
280
     1
102
RTVSPost2010PropOp30
 70
     1
102
RTVSPost2010Prop31
280
     0
102
RTVSPost2010PropOp31
 70
     1
102
RTVSPost2010Prop32
280
     0
102
RTVSPost2010PropOp32
 70
     1
102
RTVSPost2010Prop33
280
     0
102
RTVSPost2010PropOp33
 70
     1
102
RTVSPost2010Prop34
280
     0
102
RTVSPost2010PropOp34
 70
     1
102
RTVSPost2010Prop35
280
     0
102
RTVSPost2010PropOp35
 70
     1
102
RTVSPost2010Prop36
280
     0
102
RTVSPost2010PropOp36
 70
     1
102
RTVSPost2010Prop37
 90
       50
102
RTVSPost2010PropOp37
 70
     1
102
RTVSPost2010Prop38
140
0.0
102
RTVSPost2010PropOp38
 70
     1
102
RTVSPost2010Prop39
140
1.0
102
RTVSPost2010PropOp39
 70
     1
102
RTVSPost2010Prop40
 90
        0
102
RTVSPost2010PropOp40
 70
     1
102
RTVSPost2010Prop41ColorIndex
 90
       18
102
RTVSPost2010Prop41ColorRGB
 90
        0
102
RTVSPost2010PropOp41
 70
     1
102
RTVSPost2010Prop42
 90
       50
102
RTVSPost2010PropOp42
 70
     1
102
RTVSPost2010Prop43
 90
        3
102
RTVSPost2010PropOp43
 70
     1
102
RTVSPost2010Prop44ColorIndex
 90
        5
102
RTVSPost2010Prop44ColorRGB
 90
      255
102
RTVSPost2010PropOp44
 70
     1
102
RTVSPost2010Prop45
280
     0
102
RTVSPost2010PropOp45
 70
     1
102
RTVSPost2010Prop46
 90
       50
102
RTVSPost2010PropOp46
 70
     1
102
RTVSPost2010Prop47
 90
       50
102
RTVSPost2010PropOp47
 70
     1
102
RTVSPost2010Prop48
 90
       50
102
RTVSPost2010PropOp48
 70
     1
102
RTVSPost2010Prop49
280
     0
102
RTVSPost2010PropOp49
 70
     1
102
RTVSPost2010Prop50
 90
       50
102
RTVSPost2010PropOp50
 70
     1
102
RTVSPost2010Prop51ColorIndex
 90
      256
102
RTVSPost2010Prop51ColorRGB
 90
-16777216
102
RTVSPost2010PropOp51
 70
     0
102
RTVSPost2010Prop52
140
1.0
102
RTVSPost2010PropOp52
 70
     0
102
RTVSPost2010Prop53
 90
        2
102
RTVSPost2010PropOp53
 70
     1
102
RTVSPost2010Prop54
  1
strokes_ogs.tif
102
RTVSPost2010PropOp54
 70
     1
102
RTVSPost2010Prop55
280
     0
102
RTVSPost2010PropOp55
 70
     1
102
RTVSPost2010Prop56
140
1.0
102
RTVSPost2010PropOp56
 70
     1
102
RTVSPost2010Prop57
140
1.0
102
RTVSPost2010PropOp57
 70
     1
  0
XRECORD
  5
2FE
102
{ACAD_REACTORS
330
2FD
102
}
330
2FD
100
AcDbXrecord
280
     1
102
RTVSPropertyOp0
 70
     1
102
RTVSPropertyOp1
 70
     1
102
RTVSPropertyOp2
 70
     1
102
RTVSPropertyOp3
 70
     1
102
RTVSPropertyOp4
 70
     1
102
RTVSPropertyOp5
 70
     1
102
RTVSPropertyOp6
 70
     1
102
RTVSPropertyOp7
 70
     1
102
RTVSPropertyOp8
 70
     1
102
RTVSPropertyOp9
 70
     1
102
RTVSPropertyOp10
 70
     1
102
RTVSPropertyOp11
 70
     1
102
RTVSPropertyOp12
 70
     1
102
RTVSPropertyOp13
 70
     1
102
RTVSPropertyOp14
 70
     1
102
RTVSPropertyOp15
 70
     1
102
RTVSPropertyOp16
 70
     1
102
RTVSPropertyOp17
 70
     1
102
RTVSPropertyOp18
 70
     1
102
RTVSPropertyOp19
 70
     1
102
RTVSPropertyOp20
 70
     1
102
RTVSPropertyOp21
 70
     1
102
RTVSPropertyOp22
 70
     1
102
RTVSPropertyOp23
 70
     1
102
RTVSPropertyOp24
 70
     1
102
RTVSPropertyOp25
 70
     1
102
RTVSPropertyOp26
 70
     1
102
RTVSPropertyOp27
 70
     1
102
RTVSPropertyOp28
 70
     1
102
RTVSPropertyOp29
 70
     1
102
RTVSPropertyOp30
 70
     1
102
RTVSPropertyOp31
 70
     1
102
RTVSPropertyOp32
 70
     1
102
RTVSPropertyOp33
 70
     1
102
RTVSPropertyOp34
 70
     1
102
RTVSPropertyOp35
 70
     1
102
RTVSPropertyOp36
 70
     1
102
RTVSPropertyOp37
 70
     1
102
RTVSPropertyOp38
 70
     1
102
RTVSPropertyOp39
 70
     1
102
RTVSPropertyOp40
 70
     1
102
RTVSPropertyOp41
 70
     1
102
RTVSPropertyOp42
 70
     1
102
RTVSPropertyOp43
 70
     1
102
RTVSPropertyOp44
 70
     1
102
RTVSPropertyOp45
 70
     1
102
RTVSPropertyOp46
 70
     1
102
RTVSPropertyOp47
 70
     1
102
RTVSPropertyOp48
 70
     1
102
RTVSPropertyOp49
 70
     1
102
RTVSPropertyOp50
 70
     1
102
RTVSPropertyOp51
 70
     0
102
RTVSPropertyOp52
 70
     0
102
RTVSPropertyOp53
 70
     1
102
RTVSPropertyOp54
 70
     1
102
RTVSPropertyOp55
 70
     1
102
RTVSPropertyOp56
 70
     1
102
RTVSPropertyOp57
 70
     1
102
RTVSPost2010Prop28
280
     0
102
RTVSPost2010PropOp28
 70
     1
102
RTVSPost2010Prop29
280
     1
102
RTVSPost2010PropOp29
 70
     1
102
RTVSPost2010Prop30
280
     1
102
RTVSPost2010PropOp30
 70
     1
102
RTVSPost2010Prop31
280
     0
102
RTVSPost2010PropOp31
 70
     1
102
RTVSPost2010Prop32
280
     0
102
RTVSPost2010PropOp32
 70
     1
102
RTVSPost2010Prop33
280
     0
102
RTVSPost2010PropOp33
 70
     1
102
RTVSPost2010Prop34
280
     0
102
RTVSPost2010PropOp34
 70
     1
102
RTVSPost2010Prop35
280
     0
102
RTVSPost2010PropOp35
 70
     1
102
RTVSPost2010Prop36
280
     0
102
RTVSPost2010PropOp36
 70
     1
102
RTVSPost2010Prop37
 90
       50
102
RTVSPost2010PropOp37
 70
     1
102
RTVSPost2010Prop38
140
0.0
102
RTVSPost2010PropOp38
 70
     1
102
RTVSPost2010Prop39
140
1.0
102
RTVSPost2010PropOp39
 70
     1
102
RTVSPost2010Prop40
 90
        0
102
RTVSPost2010PropOp40
 70
     1
102
RTVSPost2010Prop41ColorIndex
 90
       18
102
RTVSPost2010Prop41ColorRGB
 90
        0
102
RTVSPost2010PropOp41
 70
     1
102
RTVSPost2010Prop42
 90
       50
102
RTVSPost2010PropOp42
 70
     1
102
RTVSPost2010Prop43
 90
        3
102
RTVSPost2010PropOp43
 70
     1
102
RTVSPost2010Prop44ColorIndex
 90
        5
102
RTVSPost2010Prop44ColorRGB
 90
      255
102
RTVSPost2010PropOp44
 70
     1
102
RTVSPost2010Prop45
280
     0
102
RTVSPost2010PropOp45
 70
     1
102
RTVSPost2010Prop46
 90
       50
102
RTVSPost2010PropOp46
 70
     1
102
RTVSPost2010Prop47
 90
       50
102
RTVSPost2010PropOp47
 70
     1
102
RTVSPost2010Prop48
 90
       50
102
RTVSPost2010PropOp48
 70
     1
102
RTVSPost2010Prop49
280
     0
102
RTVSPost2010PropOp49
 70
     1
102
RTVSPost2010Prop50
 90
       50
102
RTVSPost2010PropOp50
 70
     1
102
RTVSPost2010Prop51ColorIndex
 90
      256
102
RTVSPost2010Prop51ColorRGB
 90
-16777216
102
RTVSPost2010PropOp51
 70
     0
102
RTVSPost2010Prop52
140
1.0
102
RTVSPost2010PropOp52
 70
     0
102
RTVSPost2010Prop53
 90
        2
102
RTVSPost2010PropOp53
 70
     1
102
RTVSPost2010Prop54
  1
strokes_ogs.tif
102
RTVSPost2010PropOp54
 70
     1
102
RTVSPost2010Prop55
280
     0
102
RTVSPost2010PropOp55
 70
     1
102
RTVSPost2010Prop56
140
1.0
102
RTVSPost2010PropOp56
 70
     1
102
RTVSPost2010Prop57
140
1.0
102
RTVSPost2010PropOp57
 70
     1
  0
XRECORD
  5
300
102
{ACAD_REACTORS
330
2FF
102
}
330
2FF
100
AcDbXrecord
280
     1
102
RTVSPropertyOp0
 70
     1
102
RTVSPropertyOp1
 70
     1
102
RTVSPropertyOp2
 70
     1
102
RTVSPropertyOp3
 70
     1
102
RTVSPropertyOp4
 70
     1
102
RTVSPropertyOp5
 70
     1
102
RTVSPropertyOp6
 70
     1
102
RTVSPropertyOp7
 70
     1
102
RTVSPropertyOp8
 70
     1
102
RTVSPropertyOp9
 70
     1
102
RTVSPropertyOp10
 70
     1
102
RTVSPropertyOp11
 70
     1
102
RTVSPropertyOp12
 70
     1
102
RTVSPropertyOp13
 70
     1
102
RTVSPropertyOp14
 70
     1
102
RTVSPropertyOp15
 70
     1
102
RTVSPropertyOp16
 70
     1
102
RTVSPropertyOp17
 70
     1
102
RTVSPropertyOp18
 70
     1
102
RTVSPropertyOp19
 70
     1
102
RTVSPropertyOp20
 70
     1
102
RTVSPropertyOp21
 70
     1
102
RTVSPropertyOp22
 70
     1
102
RTVSPropertyOp23
 70
     1
102
RTVSPropertyOp24
 70
     1
102
RTVSPropertyOp25
 70
     1
102
RTVSPropertyOp26
 70
     1
102
RTVSPropertyOp27
 70
     1
102
RTVSPropertyOp28
 70
     1
102
RTVSPropertyOp29
 70
     1
102
RTVSPropertyOp30
 70
     1
102
RTVSPropertyOp31
 70
     1
102
RTVSPropertyOp32
 70
     1
102
RTVSPropertyOp33
 70
     1
102
RTVSPropertyOp34
 70
     1
102
RTVSPropertyOp35
 70
     1
102
RTVSPropertyOp36
 70
     1
102
RTVSPropertyOp37
 70
     1
102
RTVSPropertyOp38
 70
     1
102
RTVSPropertyOp39
 70
     1
102
RTVSPropertyOp40
 70
     1
102
RTVSPropertyOp41
 70
     1
102
RTVSPropertyOp42
 70
     1
102
RTVSPropertyOp43
 70
     1
102
RTVSPropertyOp44
 70
     1
102
RTVSPropertyOp45
 70
     1
102
RTVSPropertyOp46
 70
     1
102
RTVSPropertyOp47
 70
     1
102
RTVSPropertyOp48
 70
     1
102
RTVSPropertyOp49
 70
     1
102
RTVSPropertyOp50
 70
     1
102
RTVSPropertyOp51
 70
     0
102
RTVSPropertyOp52
 70
     0
102
RTVSPropertyOp53
 70
     1
102
RTVSPropertyOp54
 70
     1
102
RTVSPropertyOp55
 70
     1
102
RTVSPropertyOp56
 70
     1
102
RTVSPropertyOp57
 70
     1
102
RTVSPost2010Prop28
280
     0
102
RTVSPost2010PropOp28
 70
     1
102
RTVSPost2010Prop29
280
     1
102
RTVSPost2010PropOp29
 70
     1
102
RTVSPost2010Prop30
280
     1
102
RTVSPost2010PropOp30
 70
     1
102
RTVSPost2010Prop31
280
     0
102
RTVSPost2010PropOp31
 70
     1
102
RTVSPost2010Prop32
280
     0
102
RTVSPost2010PropOp32
 70
     1
102
RTVSPost2010Prop33
280
     0
102
RTVSPost2010PropOp33
 70
     1
102
RTVSPost2010Prop34
280
     0
102
RTVSPost2010PropOp34
 70
     1
102
RTVSPost2010Prop35
280
     0
102
RTVSPost2010PropOp35
 70
     1
102
RTVSPost2010Prop36
280
     0
102
RTVSPost2010PropOp36
 70
     1
102
RTVSPost2010Prop37
 90
       50
102
RTVSPost2010PropOp37
 70
     1
102
RTVSPost2010Prop38
140
0.0
102
RTVSPost2010PropOp38
 70
     1
102
RTVSPost2010Prop39
140
1.0
102
RTVSPost2010PropOp39
 70
     1
102
RTVSPost2010Prop40
 90
        0
102
RTVSPost2010PropOp40
 70
     1
102
RTVSPost2010Prop41ColorIndex
 90
       18
102
RTVSPost2010Prop41ColorRGB
 90
        0
102
RTVSPost2010PropOp41
 70
     1
102
RTVSPost2010Prop42
 90
       50
102
RTVSPost2010PropOp42
 70
     1
102
RTVSPost2010Prop43
 90
        3
102
RTVSPost2010PropOp43
 70
     1
102
RTVSPost2010Prop44ColorIndex
 90
        5
102
RTVSPost2010Prop44ColorRGB
 90
      255
102
RTVSPost2010PropOp44
 70
     1
102
RTVSPost2010Prop45
280
     0
102
RTVSPost2010PropOp45
 70
     1
102
RTVSPost2010Prop46
 90
       50
102
RTVSPost2010PropOp46
 70
     1
102
RTVSPost2010Prop47
 90
       50
102
RTVSPost2010PropOp47
 70
     1
102
RTVSPost2010Prop48
 90
       50
102
RTVSPost2010PropOp48
 70
     1
102
RTVSPost2010Prop49
280
     0
102
RTVSPost2010PropOp49
 70
     1
102
RTVSPost2010Prop50
 90
       50
102
RTVSPost2010PropOp50
 70
     1
102
RTVSPost2010Prop51ColorIndex
 90
      256
102
RTVSPost2010Prop51ColorRGB
 90
-16777216
102
RTVSPost2010PropOp51
 70
     0
102
RTVSPost2010Prop52
140
1.0
102
RTVSPost2010PropOp52
 70
     0
102
RTVSPost2010Prop53
 90
        2
102
RTVSPost2010PropOp53
 70
     1
102
RTVSPost2010Prop54
  1
strokes_ogs.tif
102
RTVSPost2010PropOp54
 70
     1
102
RTVSPost2010Prop55
280
     0
102
RTVSPost2010PropOp55
 70
     1
102
RTVSPost2010Prop56
140
1.0
102
RTVSPost2010PropOp56
 70
     1
102
RTVSPost2010Prop57
140
1.0
102
RTVSPost2010PropOp57
 70
     1
  0
XRECORD
  5
310
102
{ACAD_REACTORS
330
30F
102
}
330
30F
100
AcDbXrecord
280
     1
102
RTVSPropertyOp0
 70
     0
102
RTVSPropertyOp1
 70
     0
102
RTVSPropertyOp2
 70
     0
102
RTVSPropertyOp3
 70
     0
102
RTVSPropertyOp4
 70
     0
102
RTVSPropertyOp5
 70
     0
102
RTVSPropertyOp6
 70
     0
102
RTVSPropertyOp7
 70
     0
102
RTVSPropertyOp8
 70
     0
102
RTVSPropertyOp9
 70
     0
102
RTVSPropertyOp10
 70
     0
102
RTVSPropertyOp11
 70
     0
102
RTVSPropertyOp12
 70
     0
102
RTVSPropertyOp13
 70
     0
102
RTVSPropertyOp14
 70
     2
102
RTVSPropertyOp15
 70
     0
102
RTVSPropertyOp16
 70
     0
102
RTVSPropertyOp17
 70
     0
102
RTVSPropertyOp18
 70
     0
102
RTVSPropertyOp19
 70
     0
102
RTVSPropertyOp20
 70
     0
102
RTVSPropertyOp21
 70
     0
102
RTVSPropertyOp22
 70
     0
102
RTVSPropertyOp23
 70
     0
102
RTVSPropertyOp24
 70
     0
102
RTVSPropertyOp25
 70
     0
102
RTVSPropertyOp26
 70
     0
102
RTVSPropertyOp27
 70
     0
102
RTVSPropertyOp28
 70
     0
102
RTVSPropertyOp29
 70
     0
102
RTVSPropertyOp30
 70
     0
102
RTVSPropertyOp31
 70
     0
102
RTVSPropertyOp32
 70
     0
102
RTVSPropertyOp33
 70
     0
102
RTVSPropertyOp34
 70
     0
102
RTVSPropertyOp35
 70
     0
102
RTVSPropertyOp36
 70
     0
102
RTVSPropertyOp37
 70
     0
102
RTVSPropertyOp38
 70
     0
102
RTVSPropertyOp39
 70
     0
102
RTVSPropertyOp40
 70
     0
102
RTVSPropertyOp41
 70
     0
102
RTVSPropertyOp42
 70
     0
102
RTVSPropertyOp43
 70
     0
102
RTVSPropertyOp44
 70
     0
102
RTVSPropertyOp45
 70
     0
102
RTVSPropertyOp46
 70
     0
102
RTVSPropertyOp47
 70
     0
102
RTVSPropertyOp48
 70
     0
102
RTVSPropertyOp49
 70
     0
102
RTVSPropertyOp50
 70
     0
102
RTVSPropertyOp51
 70
     0
102
RTVSPropertyOp52
 70
     0
102
RTVSPropertyOp53
 70
     0
102
RTVSPropertyOp54
 70
     0
102
RTVSPropertyOp55
 70
     0
102
RTVSPropertyOp56
 70
     0
102
RTVSPropertyOp57
 70
     0
102
RTVSPost2010Prop28
280
     0
102
RTVSPost2010PropOp28
 70
     0
102
RTVSPost2010Prop29
280
     1
102
RTVSPost2010PropOp29
 70
     0
102
RTVSPost2010Prop30
280
     1
102
RTVSPost2010PropOp30
 70
     0
102
RTVSPost2010Prop31
280
     0
102
RTVSPost2010PropOp31
 70
     0
102
RTVSPost2010Prop32
280
     0
102
RTVSPost2010PropOp32
 70
     0
102
RTVSPost2010Prop33
280
     0
102
RTVSPost2010PropOp33
 70
     0
102
RTVSPost2010Prop34
280
     0
102
RTVSPost2010PropOp34
 70
     0
102
RTVSPost2010Prop35
280
     0
102
RTVSPost2010PropOp35
 70
     0
102
RTVSPost2010Prop36
280
     0
102
RTVSPost2010PropOp36
 70
     0
102
RTVSPost2010Prop37
 90
       50
102
RTVSPost2010PropOp37
 70
     0
102
RTVSPost2010Prop38
140
0.0
102
RTVSPost2010PropOp38
 70
     0
102
RTVSPost2010Prop39
140
1.0
102
RTVSPost2010PropOp39
 70
     0
102
RTVSPost2010Prop40
 90
        0
102
RTVSPost2010PropOp40
 70
     0
102
RTVSPost2010Prop41ColorIndex
 90
       18
102
RTVSPost2010Prop41ColorRGB
 90
        0
102
RTVSPost2010PropOp41
 70
     0
102
RTVSPost2010Prop42
 90
       50
102
RTVSPost2010PropOp42
 70
     0
102
RTVSPost2010Prop43
 90
        3
102
RTVSPost2010PropOp43
 70
     0
102
RTVSPost2010Prop44ColorIndex
 90
        5
102
RTVSPost2010Prop44ColorRGB
 90
      255
102
RTVSPost2010PropOp44
 70
     0
102
RTVSPost2010Prop45
280
     0
102
RTVSPost2010PropOp45
 70
     0
102
RTVSPost2010Prop46
 90
       50
102
RTVSPost2010PropOp46
 70
     0
102
RTVSPost2010Prop47
 90
       50
102
RTVSPost2010PropOp47
 70
     0
102
RTVSPost2010Prop48
 90
       50
102
RTVSPost2010PropOp48
 70
     0
102
RTVSPost2010Prop49
280
     0
102
RTVSPost2010PropOp49
 70
     0
102
RTVSPost2010Prop50
 90
       50
102
RTVSPost2010PropOp50
 70
     0
102
RTVSPost2010Prop51ColorIndex
 90
      256
102
RTVSPost2010Prop51ColorRGB
 90
-16777216
102
RTVSPost2010PropOp51
 70
     0
102
RTVSPost2010Prop52
140
1.0
102
RTVSPost2010PropOp52
 70
     0
102
RTVSPost2010Prop53
 90
        2
102
RTVSPost2010PropOp53
 70
     0
102
RTVSPost2010Prop54
  1
strokes_ogs.tif
102
RTVSPost2010PropOp54
 70
     0
102
RTVSPost2010Prop55
280
     0
102
RTVSPost2010PropOp55
 70
     0
102
RTVSPost2010Prop56
140
1.0
102
RTVSPost2010PropOp56
 70
     0
102
RTVSPost2010Prop57
140
1.0
102
RTVSPost2010PropOp57
 70
     0
  0
XRECORD
  5
308
102
{ACAD_REACTORS
330
307
102
}
330
307
100
AcDbXrecord
280
     1
102
RTVSPropertyOp0
 70
     1
102
RTVSPropertyOp1
 70
     1
102
RTVSPropertyOp2
 70
     1
102
RTVSPropertyOp3
 70
     1
102
RTVSPropertyOp4
 70
     1
102
RTVSPropertyOp5
 70
     1
102
RTVSPropertyOp6
 70
     1
102
RTVSPropertyOp7
 70
     1
102
RTVSPropertyOp8
 70
     1
102
RTVSPropertyOp9
 70
     1
102
RTVSPropertyOp10
 70
     1
102
RTVSPropertyOp11
 70
     1
102
RTVSPropertyOp12
 70
     1
102
RTVSPropertyOp13
 70
     1
102
RTVSPropertyOp14
 70
     1
102
RTVSPropertyOp15
 70
     1
102
RTVSPropertyOp16
 70
     1
102
RTVSPropertyOp17
 70
     1
102
RTVSPropertyOp18
 70
     1
102
RTVSPropertyOp19
 70
     1
102
RTVSPropertyOp20
 70
     1
102
RTVSPropertyOp21
 70
     1
102
RTVSPropertyOp22
 70
     1
102
RTVSPropertyOp23
 70
     1
102
RTVSPropertyOp24
 70
     1
102
RTVSPropertyOp25
 70
     1
102
RTVSPropertyOp26
 70
     1
102
RTVSPropertyOp27
 70
     1
102
RTVSPropertyOp28
 70
     1
102
RTVSPropertyOp29
 70
     1
102
RTVSPropertyOp30
 70
     1
102
RTVSPropertyOp31
 70
     1
102
RTVSPropertyOp32
 70
     1
102
RTVSPropertyOp33
 70
     1
102
RTVSPropertyOp34
 70
     1
102
RTVSPropertyOp35
 70
     1
102
RTVSPropertyOp36
 70
     1
102
RTVSPropertyOp37
 70
     1
102
RTVSPropertyOp38
 70
     1
102
RTVSPropertyOp39
 70
     1
102
RTVSPropertyOp40
 70
     1
102
RTVSPropertyOp41
 70
     1
102
RTVSPropertyOp42
 70
     1
102
RTVSPropertyOp43
 70
     1
102
RTVSPropertyOp44
 70
     1
102
RTVSPropertyOp45
 70
     1
102
RTVSPropertyOp46
 70
     1
102
RTVSPropertyOp47
 70
     1
102
RTVSPropertyOp48
 70
     1
102
RTVSPropertyOp49
 70
     1
102
RTVSPropertyOp50
 70
     1
102
RTVSPropertyOp51
 70
     0
102
RTVSPropertyOp52
 70
     0
102
RTVSPropertyOp53
 70
     1
102
RTVSPropertyOp54
 70
     1
102
RTVSPropertyOp55
 70
     1
102
RTVSPropertyOp56
 70
     1
102
RTVSPropertyOp57
 70
     1
102
RTVSPost2010Prop28
280
     0
102
RTVSPost2010PropOp28
 70
     1
102
RTVSPost2010Prop29
280
     1
102
RTVSPost2010PropOp29
 70
     1
102
RTVSPost2010Prop30
280
     1
102
RTVSPost2010PropOp30
 70
     1
102
RTVSPost2010Prop31
280
     0
102
RTVSPost2010PropOp31
 70
     1
102
RTVSPost2010Prop32
280
     0
102
RTVSPost2010PropOp32
 70
     1
102
RTVSPost2010Prop33
280
     0
102
RTVSPost2010PropOp33
 70
     1
102
RTVSPost2010Prop34
280
     0
102
RTVSPost2010PropOp34
 70
     1
102
RTVSPost2010Prop35
280
     0
102
RTVSPost2010PropOp35
 70
     1
102
RTVSPost2010Prop36
280
     0
102
RTVSPost2010PropOp36
 70
     1
102
RTVSPost2010Prop37
 90
       50
102
RTVSPost2010PropOp37
 70
     1
102
RTVSPost2010Prop38
140
0.0
102
RTVSPost2010PropOp38
 70
     1
102
RTVSPost2010Prop39
140
1.0
102
RTVSPost2010PropOp39
 70
     1
102
RTVSPost2010Prop40
 90
        0
102
RTVSPost2010PropOp40
 70
     1
102
RTVSPost2010Prop41ColorIndex
 90
       18
102
RTVSPost2010Prop41ColorRGB
 90
        0
102
RTVSPost2010PropOp41
 70
     1
102
RTVSPost2010Prop42
 90
       50
102
RTVSPost2010PropOp42
 70
     1
102
RTVSPost2010Prop43
 90
        3
102
RTVSPost2010PropOp43
 70
     1
102
RTVSPost2010Prop44ColorIndex
 90
        5
102
RTVSPost2010Prop44ColorRGB
 90
      255
102
RTVSPost2010PropOp44
 70
     1
102
RTVSPost2010Prop45
280
     0
102
RTVSPost2010PropOp45
 70
     1
102
RTVSPost2010Prop46
 90
       50
102
RTVSPost2010PropOp46
 70
     1
102
RTVSPost2010Prop47
 90
       50
102
RTVSPost2010PropOp47
 70
     1
102
RTVSPost2010Prop48
 90
       50
102
RTVSPost2010PropOp48
 70
     1
102
RTVSPost2010Prop49
280
     0
102
RTVSPost2010PropOp49
 70
     1
102
RTVSPost2010Prop50
 90
       50
102
RTVSPost2010PropOp50
 70
     1
102
RTVSPost2010Prop51ColorIndex
 90
      256
102
RTVSPost2010Prop51ColorRGB
 90
-16777216
102
RTVSPost2010PropOp51
 70
     0
102
RTVSPost2010Prop52
140
1.0
102
RTVSPost2010PropOp52
 70
     0
102
RTVSPost2010Prop53
 90
        2
102
RTVSPost2010PropOp53
 70
     1
102
RTVSPost2010Prop54
  1
strokes_ogs.tif
102
RTVSPost2010PropOp54
 70
     1
102
RTVSPost2010Prop55
280
     0
102
RTVSPost2010PropOp55
 70
     1
102
RTVSPost2010Prop56
140
1.0
102
RTVSPost2010PropOp56
 70
     1
102
RTVSPost2010Prop57
140
1.0
102
RTVSPost2010PropOp57
 70
     1
  0
XRECORD
  5
2EC
102
{ACAD_REACTORS
330
2EB
102
}
330
2EB
100
AcDbXrecord
280
     1
102
RTVSPropertyOp0
 70
     1
102
RTVSPropertyOp1
 70
     1
102
RTVSPropertyOp2
 70
     1
102
RTVSPropertyOp3
 70
     1
102
RTVSPropertyOp4
 70
     1
102
RTVSPropertyOp5
 70
     1
102
RTVSPropertyOp6
 70
     1
102
RTVSPropertyOp7
 70
     1
102
RTVSPropertyOp8
 70
     1
102
RTVSPropertyOp9
 70
     1
102
RTVSPropertyOp10
 70
     1
102
RTVSPropertyOp11
 70
     1
102
RTVSPropertyOp12
 70
     1
102
RTVSPropertyOp13
 70
     1
102
RTVSPropertyOp14
 70
     1
102
RTVSPropertyOp15
 70
     1
102
RTVSPropertyOp16
 70
     1
102
RTVSPropertyOp17
 70
     1
102
RTVSPropertyOp18
 70
     1
102
RTVSPropertyOp19
 70
     1
102
RTVSPropertyOp20
 70
     1
102
RTVSPropertyOp21
 70
     1
102
RTVSPropertyOp22
 70
     1
102
RTVSPropertyOp23
 70
     1
102
RTVSPropertyOp24
 70
     1
102
RTVSPropertyOp25
 70
     1
102
RTVSPropertyOp26
 70
     1
102
RTVSPropertyOp27
 70
     1
102
RTVSPropertyOp28
 70
     1
102
RTVSPropertyOp29
 70
     1
102
RTVSPropertyOp30
 70
     1
102
RTVSPropertyOp31
 70
     1
102
RTVSPropertyOp32
 70
     1
102
RTVSPropertyOp33
 70
     1
102
RTVSPropertyOp34
 70
     1
102
RTVSPropertyOp35
 70
     1
102
RTVSPropertyOp36
 70
     1
102
RTVSPropertyOp37
 70
     1
102
RTVSPropertyOp38
 70
     1
102
RTVSPropertyOp39
 70
     1
102
RTVSPropertyOp40
 70
     1
102
RTVSPropertyOp41
 70
     1
102
RTVSPropertyOp42
 70
     1
102
RTVSPropertyOp43
 70
     1
102
RTVSPropertyOp44
 70
     1
102
RTVSPropertyOp45
 70
     1
102
RTVSPropertyOp46
 70
     1
102
RTVSPropertyOp47
 70
     1
102
RTVSPropertyOp48
 70
     1
102
RTVSPropertyOp49
 70
     1
102
RTVSPropertyOp50
 70
     1
102
RTVSPropertyOp51
 70
     0
102
RTVSPropertyOp52
 70
     0
102
RTVSPropertyOp53
 70
     1
102
RTVSPropertyOp54
 70
     1
102
RTVSPropertyOp55
 70
     1
102
RTVSPropertyOp56
 70
     1
102
RTVSPropertyOp57
 70
     1
102
RTVSPost2010Prop28
280
     0
102
RTVSPost2010PropOp28
 70
     1
102
RTVSPost2010Prop29
280
     1
102
RTVSPost2010PropOp29
 70
     1
102
RTVSPost2010Prop30
280
     1
102
RTVSPost2010PropOp30
 70
     1
102
RTVSPost2010Prop31
280
     0
102
RTVSPost2010PropOp31
 70
     1
102
RTVSPost2010Prop32
280
     0
102
RTVSPost2010PropOp32
 70
     1
102
RTVSPost2010Prop33
280
     0
102
RTVSPost2010PropOp33
 70
     1
102
RTVSPost2010Prop34
280
     0
102
RTVSPost2010PropOp34
 70
     1
102
RTVSPost2010Prop35
280
     0
102
RTVSPost2010PropOp35
 70
     1
102
RTVSPost2010Prop36
280
     0
102
RTVSPost2010PropOp36
 70
     1
102
RTVSPost2010Prop37
 90
       50
102
RTVSPost2010PropOp37
 70
     1
102
RTVSPost2010Prop38
140
0.0
102
RTVSPost2010PropOp38
 70
     1
102
RTVSPost2010Prop39
140
1.0
102
RTVSPost2010PropOp39
 70
     1
102
RTVSPost2010Prop40
 90
        0
102
RTVSPost2010PropOp40
 70
     1
102
RTVSPost2010Prop41ColorIndex
 90
       18
102
RTVSPost2010Prop41ColorRGB
 90
        0
102
RTVSPost2010PropOp41
 70
     1
102
RTVSPost2010Prop42
 90
       50
102
RTVSPost2010PropOp42
 70
     1
102
RTVSPost2010Prop43
 90
        3
102
RTVSPost2010PropOp43
 70
     1
102
RTVSPost2010Prop44ColorIndex
 90
        5
102
RTVSPost2010Prop44ColorRGB
 90
      255
102
RTVSPost2010PropOp44
 70
     1
102
RTVSPost2010Prop45
280
     0
102
RTVSPost2010PropOp45
 70
     1
102
RTVSPost2010Prop46
 90
       50
102
RTVSPost2010PropOp46
 70
     1
102
RTVSPost2010Prop47
 90
       50
102
RTVSPost2010PropOp47
 70
     1
102
RTVSPost2010Prop48
 90
       50
102
RTVSPost2010PropOp48
 70
     1
102
RTVSPost2010Prop49
280
     0
102
RTVSPost2010PropOp49
 70
     1
102
RTVSPost2010Prop50
 90
       50
102
RTVSPost2010PropOp50
 70
     1
102
RTVSPost2010Prop51ColorIndex
 90
      256
102
RTVSPost2010Prop51ColorRGB
 90
-16777216
102
RTVSPost2010PropOp51
 70
     0
102
RTVSPost2010Prop52
140
1.0
102
RTVSPost2010PropOp52
 70
     0
102
RTVSPost2010Prop53
 90
        2
102
RTVSPost2010PropOp53
 70
     1
102
RTVSPost2010Prop54
  1
strokes_ogs.tif
102
RTVSPost2010PropOp54
 70
     1
102
RTVSPost2010Prop55
280
     0
102
RTVSPost2010PropOp55
 70
     1
102
RTVSPost2010Prop56
140
1.0
102
RTVSPost2010PropOp56
 70
     1
102
RTVSPost2010Prop57
140
1.0
102
RTVSPost2010PropOp57
 70
     1
  0
XRECORD
  5
2EE
102
{ACAD_REACTORS
330
2ED
102
}
330
2ED
100
AcDbXrecord
280
     1
102
RTVSPropertyOp0
 70
     1
102
RTVSPropertyOp1
 70
     1
102
RTVSPropertyOp2
 70
     1
102
RTVSPropertyOp3
 70
     1
102
RTVSPropertyOp4
 70
     1
102
RTVSPropertyOp5
 70
     1
102
RTVSPropertyOp6
 70
     1
102
RTVSPropertyOp7
 70
     1
102
RTVSPropertyOp8
 70
     1
102
RTVSPropertyOp9
 70
     1
102
RTVSPropertyOp10
 70
     1
102
RTVSPropertyOp11
 70
     1
102
RTVSPropertyOp12
 70
     1
102
RTVSPropertyOp13
 70
     1
102
RTVSPropertyOp14
 70
     1
102
RTVSPropertyOp15
 70
     1
102
RTVSPropertyOp16
 70
     1
102
RTVSPropertyOp17
 70
     1
102
RTVSPropertyOp18
 70
     1
102
RTVSPropertyOp19
 70
     1
102
RTVSPropertyOp20
 70
     1
102
RTVSPropertyOp21
 70
     1
102
RTVSPropertyOp22
 70
     1
102
RTVSPropertyOp23
 70
     1
102
RTVSPropertyOp24
 70
     1
102
RTVSPropertyOp25
 70
     1
102
RTVSPropertyOp26
 70
     1
102
RTVSPropertyOp27
 70
     1
102
RTVSPropertyOp28
 70
     1
102
RTVSPropertyOp29
 70
     1
102
RTVSPropertyOp30
 70
     1
102
RTVSPropertyOp31
 70
     1
102
RTVSPropertyOp32
 70
     1
102
RTVSPropertyOp33
 70
     1
102
RTVSPropertyOp34
 70
     1
102
RTVSPropertyOp35
 70
     1
102
RTVSPropertyOp36
 70
     1
102
RTVSPropertyOp37
 70
     1
102
RTVSPropertyOp38
 70
     1
102
RTVSPropertyOp39
 70
     1
102
RTVSPropertyOp40
 70
     1
102
RTVSPropertyOp41
 70
     1
102
RTVSPropertyOp42
 70
     1
102
RTVSPropertyOp43
 70
     1
102
RTVSPropertyOp44
 70
     1
102
RTVSPropertyOp45
 70
     1
102
RTVSPropertyOp46
 70
     1
102
RTVSPropertyOp47
 70
     1
102
RTVSPropertyOp48
 70
     1
102
RTVSPropertyOp49
 70
     1
102
RTVSPropertyOp50
 70
     1
102
RTVSPropertyOp51
 70
     0
102
RTVSPropertyOp52
 70
     0
102
RTVSPropertyOp53
 70
     1
102
RTVSPropertyOp54
 70
     1
102
RTVSPropertyOp55
 70
     1
102
RTVSPropertyOp56
 70
     1
102
RTVSPropertyOp57
 70
     1
102
RTVSPost2010Prop28
280
     0
102
RTVSPost2010PropOp28
 70
     1
102
RTVSPost2010Prop29
280
     1
102
RTVSPost2010PropOp29
 70
     1
102
RTVSPost2010Prop30
280
     1
102
RTVSPost2010PropOp30
 70
     1
102
RTVSPost2010Prop31
280
     0
102
RTVSPost2010PropOp31
 70
     1
102
RTVSPost2010Prop32
280
     0
102
RTVSPost2010PropOp32
 70
     1
102
RTVSPost2010Prop33
280
     0
102
RTVSPost2010PropOp33
 70
     1
102
RTVSPost2010Prop34
280
     0
102
RTVSPost2010PropOp34
 70
     1
102
RTVSPost2010Prop35
280
     0
102
RTVSPost2010PropOp35
 70
     1
102
RTVSPost2010Prop36
280
     0
102
RTVSPost2010PropOp36
 70
     1
102
RTVSPost2010Prop37
 90
       50
102
RTVSPost2010PropOp37
 70
     1
102
RTVSPost2010Prop38
140
0.0
102
RTVSPost2010PropOp38
 70
     1
102
RTVSPost2010Prop39
140
1.0
102
RTVSPost2010PropOp39
 70
     1
102
RTVSPost2010Prop40
 90
        0
102
RTVSPost2010PropOp40
 70
     1
102
RTVSPost2010Prop41ColorIndex
 90
       18
102
RTVSPost2010Prop41ColorRGB
 90
        0
102
RTVSPost2010PropOp41
 70
     1
102
RTVSPost2010Prop42
 90
       50
102
RTVSPost2010PropOp42
 70
     1
102
RTVSPost2010Prop43
 90
        3
102
RTVSPost2010PropOp43
 70
     1
102
RTVSPost2010Prop44ColorIndex
 90
        5
102
RTVSPost2010Prop44ColorRGB
 90
      255
102
RTVSPost2010PropOp44
 70
     1
102
RTVSPost2010Prop45
280
     0
102
RTVSPost2010PropOp45
 70
     1
102
RTVSPost2010Prop46
 90
       50
102
RTVSPost2010PropOp46
 70
     1
102
RTVSPost2010Prop47
 90
       50
102
RTVSPost2010PropOp47
 70
     1
102
RTVSPost2010Prop48
 90
       50
102
RTVSPost2010PropOp48
 70
     1
102
RTVSPost2010Prop49
280
     0
102
RTVSPost2010PropOp49
 70
     1
102
RTVSPost2010Prop50
 90
       50
102
RTVSPost2010PropOp50
 70
     1
102
RTVSPost2010Prop51ColorIndex
 90
      256
102
RTVSPost2010Prop51ColorRGB
 90
-16777216
102
RTVSPost2010PropOp51
 70
     0
102
RTVSPost2010Prop52
140
1.0
102
RTVSPost2010PropOp52
 70
     0
102
RTVSPost2010Prop53
 90
        2
102
RTVSPost2010PropOp53
 70
     1
102
RTVSPost2010Prop54
  1
strokes_ogs.tif
102
RTVSPost2010PropOp54
 70
     1
102
RTVSPost2010Prop55
280
     0
102
RTVSPost2010PropOp55
 70
     1
102
RTVSPost2010Prop56
140
1.0
102
RTVSPost2010PropOp56
 70
     1
102
RTVSPost2010Prop57
140
1.0
102
RTVSPost2010PropOp57
 70
     1
  0
XRECORD
  5
2F0
102
{ACAD_REACTORS
330
2EF
102
}
330
2EF
100
AcDbXrecord
280
     1
102
RTVSPropertyOp0
 70
     1
102
RTVSPropertyOp1
 70
     1
102
RTVSPropertyOp2
 70
     1
102
RTVSPropertyOp3
 70
     1
102
RTVSPropertyOp4
 70
     1
102
RTVSPropertyOp5
 70
     1
102
RTVSPropertyOp6
 70
     1
102
RTVSPropertyOp7
 70
     1
102
RTVSPropertyOp8
 70
     1
102
RTVSPropertyOp9
 70
     1
102
RTVSPropertyOp10
 70
     1
102
RTVSPropertyOp11
 70
     1
102
RTVSPropertyOp12
 70
     1
102
RTVSPropertyOp13
 70
     1
102
RTVSPropertyOp14
 70
     1
102
RTVSPropertyOp15
 70
     1
102
RTVSPropertyOp16
 70
     1
102
RTVSPropertyOp17
 70
     1
102
RTVSPropertyOp18
 70
     1
102
RTVSPropertyOp19
 70
     1
102
RTVSPropertyOp20
 70
     1
102
RTVSPropertyOp21
 70
     1
102
RTVSPropertyOp22
 70
     1
102
RTVSPropertyOp23
 70
     1
102
RTVSPropertyOp24
 70
     1
102
RTVSPropertyOp25
 70
     1
102
RTVSPropertyOp26
 70
     1
102
RTVSPropertyOp27
 70
     1
102
RTVSPropertyOp28
 70
     1
102
RTVSPropertyOp29
 70
     1
102
RTVSPropertyOp30
 70
     1
102
RTVSPropertyOp31
 70
     1
102
RTVSPropertyOp32
 70
     1
102
RTVSPropertyOp33
 70
     1
102
RTVSPropertyOp34
 70
     1
102
RTVSPropertyOp35
 70
     1
102
RTVSPropertyOp36
 70
     1
102
RTVSPropertyOp37
 70
     1
102
RTVSPropertyOp38
 70
     1
102
RTVSPropertyOp39
 70
     1
102
RTVSPropertyOp40
 70
     1
102
RTVSPropertyOp41
 70
     1
102
RTVSPropertyOp42
 70
     1
102
RTVSPropertyOp43
 70
     1
102
RTVSPropertyOp44
 70
     1
102
RTVSPropertyOp45
 70
     1
102
RTVSPropertyOp46
 70
     1
102
RTVSPropertyOp47
 70
     1
102
RTVSPropertyOp48
 70
     1
102
RTVSPropertyOp49
 70
     1
102
RTVSPropertyOp50
 70
     1
102
RTVSPropertyOp51
 70
     0
102
RTVSPropertyOp52
 70
     0
102
RTVSPropertyOp53
 70
     1
102
RTVSPropertyOp54
 70
     1
102
RTVSPropertyOp55
 70
     1
102
RTVSPropertyOp56
 70
     1
102
RTVSPropertyOp57
 70
     1
102
RTVSPost2010Prop28
280
     0
102
RTVSPost2010PropOp28
 70
     1
102
RTVSPost2010Prop29
280
     1
102
RTVSPost2010PropOp29
 70
     1
102
RTVSPost2010Prop30
280
     1
102
RTVSPost2010PropOp30
 70
     1
102
RTVSPost2010Prop31
280
     0
102
RTVSPost2010PropOp31
 70
     1
102
RTVSPost2010Prop32
280
     0
102
RTVSPost2010PropOp32
 70
     1
102
RTVSPost2010Prop33
280
     0
102
RTVSPost2010PropOp33
 70
     1
102
RTVSPost2010Prop34
280
     0
102
RTVSPost2010PropOp34
 70
     1
102
RTVSPost2010Prop35
280
     0
102
RTVSPost2010PropOp35
 70
     1
102
RTVSPost2010Prop36
280
     0
102
RTVSPost2010PropOp36
 70
     1
102
RTVSPost2010Prop37
 90
       50
102
RTVSPost2010PropOp37
 70
     1
102
RTVSPost2010Prop38
140
0.0
102
RTVSPost2010PropOp38
 70
     1
102
RTVSPost2010Prop39
140
1.0
102
RTVSPost2010PropOp39
 70
     1
102
RTVSPost2010Prop40
 90
        0
102
RTVSPost2010PropOp40
 70
     1
102
RTVSPost2010Prop41ColorIndex
 90
       18
102
RTVSPost2010Prop41ColorRGB
 90
        0
102
RTVSPost2010PropOp41
 70
     1
102
RTVSPost2010Prop42
 90
       50
102
RTVSPost2010PropOp42
 70
     1
102
RTVSPost2010Prop43
 90
        3
102
RTVSPost2010PropOp43
 70
     1
102
RTVSPost2010Prop44ColorIndex
 90
        5
102
RTVSPost2010Prop44ColorRGB
 90
      255
102
RTVSPost2010PropOp44
 70
     1
102
RTVSPost2010Prop45
280
     0
102
RTVSPost2010PropOp45
 70
     1
102
RTVSPost2010Prop46
 90
       50
102
RTVSPost2010PropOp46
 70
     1
102
RTVSPost2010Prop47
 90
       50
102
RTVSPost2010PropOp47
 70
     1
102
RTVSPost2010Prop48
 90
       50
102
RTVSPost2010PropOp48
 70
     1
102
RTVSPost2010Prop49
280
     0
102
RTVSPost2010PropOp49
 70
     1
102
RTVSPost2010Prop50
 90
       50
102
RTVSPost2010PropOp50
 70
     1
102
RTVSPost2010Prop51ColorIndex
 90
      256
102
RTVSPost2010Prop51ColorRGB
 90
-16777216
102
RTVSPost2010PropOp51
 70
     0
102
RTVSPost2010Prop52
140
1.0
102
RTVSPost2010PropOp52
 70
     0
102
RTVSPost2010Prop53
 90
        2
102
RTVSPost2010PropOp53
 70
     1
102
RTVSPost2010Prop54
  1
strokes_ogs.tif
102
RTVSPost2010PropOp54
 70
     1
102
RTVSPost2010Prop55
280
     0
102
RTVSPost2010PropOp55
 70
     1
102
RTVSPost2010Prop56
140
1.0
102
RTVSPost2010PropOp56
 70
     1
102
RTVSPost2010Prop57
140
1.0
102
RTVSPost2010PropOp57
 70
     1
  0
XRECORD
  5
2F2
102
{ACAD_REACTORS
330
2F1
102
}
330
2F1
100
AcDbXrecord
280
     1
102
RTVSPropertyOp0
 70
     1
102
RTVSPropertyOp1
 70
     1
102
RTVSPropertyOp2
 70
     1
102
RTVSPropertyOp3
 70
     1
102
RTVSPropertyOp4
 70
     1
102
RTVSPropertyOp5
 70
     1
102
RTVSPropertyOp6
 70
     1
102
RTVSPropertyOp7
 70
     1
102
RTVSPropertyOp8
 70
     1
102
RTVSPropertyOp9
 70
     1
102
RTVSPropertyOp10
 70
     1
102
RTVSPropertyOp11
 70
     1
102
RTVSPropertyOp12
 70
     1
102
RTVSPropertyOp13
 70
     1
102
RTVSPropertyOp14
 70
     1
102
RTVSPropertyOp15
 70
     1
102
RTVSPropertyOp16
 70
     1
102
RTVSPropertyOp17
 70
     1
102
RTVSPropertyOp18
 70
     1
102
RTVSPropertyOp19
 70
     1
102
RTVSPropertyOp20
 70
     1
102
RTVSPropertyOp21
 70
     1
102
RTVSPropertyOp22
 70
     1
102
RTVSPropertyOp23
 70
     1
102
RTVSPropertyOp24
 70
     1
102
RTVSPropertyOp25
 70
     1
102
RTVSPropertyOp26
 70
     1
102
RTVSPropertyOp27
 70
     1
102
RTVSPropertyOp28
 70
     1
102
RTVSPropertyOp29
 70
     1
102
RTVSPropertyOp30
 70
     1
102
RTVSPropertyOp31
 70
     1
102
RTVSPropertyOp32
 70
     1
102
RTVSPropertyOp33
 70
     1
102
RTVSPropertyOp34
 70
     1
102
RTVSPropertyOp35
 70
     1
102
RTVSPropertyOp36
 70
     1
102
RTVSPropertyOp37
 70
     1
102
RTVSPropertyOp38
 70
     1
102
RTVSPropertyOp39
 70
     1
102
RTVSPropertyOp40
 70
     1
102
RTVSPropertyOp41
 70
     1
102
RTVSPropertyOp42
 70
     1
102
RTVSPropertyOp43
 70
     1
102
RTVSPropertyOp44
 70
     1
102
RTVSPropertyOp45
 70
     1
102
RTVSPropertyOp46
 70
     1
102
RTVSPropertyOp47
 70
     1
102
RTVSPropertyOp48
 70
     1
102
RTVSPropertyOp49
 70
     1
102
RTVSPropertyOp50
 70
     1
102
RTVSPropertyOp51
 70
     0
102
RTVSPropertyOp52
 70
     0
102
RTVSPropertyOp53
 70
     1
102
RTVSPropertyOp54
 70
     1
102
RTVSPropertyOp55
 70
     1
102
RTVSPropertyOp56
 70
     1
102
RTVSPropertyOp57
 70
     1
102
RTVSPost2010Prop28
280
     0
102
RTVSPost2010PropOp28
 70
     1
102
RTVSPost2010Prop29
280
     1
102
RTVSPost2010PropOp29
 70
     1
102
RTVSPost2010Prop30
280
     1
102
RTVSPost2010PropOp30
 70
     1
102
RTVSPost2010Prop31
280
     0
102
RTVSPost2010PropOp31
 70
     1
102
RTVSPost2010Prop32
280
     0
102
RTVSPost2010PropOp32
 70
     1
102
RTVSPost2010Prop33
280
     0
102
RTVSPost2010PropOp33
 70
     1
102
RTVSPost2010Prop34
280
     0
102
RTVSPost2010PropOp34
 70
     1
102
RTVSPost2010Prop35
280
     0
102
RTVSPost2010PropOp35
 70
     1
102
RTVSPost2010Prop36
280
     0
102
RTVSPost2010PropOp36
 70
     1
102
RTVSPost2010Prop37
 90
       50
102
RTVSPost2010PropOp37
 70
     1
102
RTVSPost2010Prop38
140
0.0
102
RTVSPost2010PropOp38
 70
     1
102
RTVSPost2010Prop39
140
1.0
102
RTVSPost2010PropOp39
 70
     1
102
RTVSPost2010Prop40
 90
        0
102
RTVSPost2010PropOp40
 70
     1
102
RTVSPost2010Prop41ColorIndex
 90
       18
102
RTVSPost2010Prop41ColorRGB
 90
        0
102
RTVSPost2010PropOp41
 70
     1
102
RTVSPost2010Prop42
 90
       50
102
RTVSPost2010PropOp42
 70
     1
102
RTVSPost2010Prop43
 90
        3
102
RTVSPost2010PropOp43
 70
     1
102
RTVSPost2010Prop44ColorIndex
 90
        5
102
RTVSPost2010Prop44ColorRGB
 90
      255
102
RTVSPost2010PropOp44
 70
     1
102
RTVSPost2010Prop45
280
     0
102
RTVSPost2010PropOp45
 70
     1
102
RTVSPost2010Prop46
 90
       50
102
RTVSPost2010PropOp46
 70
     1
102
RTVSPost2010Prop47
 90
       50
102
RTVSPost2010PropOp47
 70
     1
102
RTVSPost2010Prop48
 90
       50
102
RTVSPost2010PropOp48
 70
     1
102
RTVSPost2010Prop49
280
     0
102
RTVSPost2010PropOp49
 70
     1
102
RTVSPost2010Prop50
 90
       50
102
RTVSPost2010PropOp50
 70
     1
102
RTVSPost2010Prop51ColorIndex
 90
      256
102
RTVSPost2010Prop51ColorRGB
 90
-16777216
102
RTVSPost2010PropOp51
 70
     0
102
RTVSPost2010Prop52
140
1.0
102
RTVSPost2010PropOp52
 70
     0
102
RTVSPost2010Prop53
 90
        2
102
RTVSPost2010PropOp53
 70
     1
102
RTVSPost2010Prop54
  1
strokes_ogs.tif
102
RTVSPost2010PropOp54
 70
     1
102
RTVSPost2010Prop55
280
     0
102
RTVSPost2010PropOp55
 70
     1
102
RTVSPost2010Prop56
140
1.0
102
RTVSPost2010PropOp56
 70
     1
102
RTVSPost2010Prop57
140
1.0
102
RTVSPost2010PropOp57
 70
     1
  0
XRECORD
  5
2F8
102
{ACAD_REACTORS
330
2F7
102
}
330
2F7
100
AcDbXrecord
280
     1
102
RTVSPropertyOp0
 70
     1
102
RTVSPropertyOp1
 70
     1
102
RTVSPropertyOp2
 70
     1
102
RTVSPropertyOp3
 70
     1
102
RTVSPropertyOp4
 70
     1
102
RTVSPropertyOp5
 70
     1
102
RTVSPropertyOp6
 70
     1
102
RTVSPropertyOp7
 70
     1
102
RTVSPropertyOp8
 70
     1
102
RTVSPropertyOp9
 70
     1
102
RTVSPropertyOp10
 70
     1
102
RTVSPropertyOp11
 70
     1
102
RTVSPropertyOp12
 70
     1
102
RTVSPropertyOp13
 70
     1
102
RTVSPropertyOp14
 70
     1
102
RTVSPropertyOp15
 70
     1
102
RTVSPropertyOp16
 70
     1
102
RTVSPropertyOp17
 70
     1
102
RTVSPropertyOp18
 70
     1
102
RTVSPropertyOp19
 70
     1
102
RTVSPropertyOp20
 70
     1
102
RTVSPropertyOp21
 70
     1
102
RTVSPropertyOp22
 70
     1
102
RTVSPropertyOp23
 70
     1
102
RTVSPropertyOp24
 70
     1
102
RTVSPropertyOp25
 70
     1
102
RTVSPropertyOp26
 70
     1
102
RTVSPropertyOp27
 70
     1
102
RTVSPropertyOp28
 70
     1
102
RTVSPropertyOp29
 70
     1
102
RTVSPropertyOp30
 70
     1
102
RTVSPropertyOp31
 70
     1
102
RTVSPropertyOp32
 70
     1
102
RTVSPropertyOp33
 70
     1
102
RTVSPropertyOp34
 70
     1
102
RTVSPropertyOp35
 70
     1
102
RTVSPropertyOp36
 70
     1
102
RTVSPropertyOp37
 70
     1
102
RTVSPropertyOp38
 70
     1
102
RTVSPropertyOp39
 70
     1
102
RTVSPropertyOp40
 70
     1
102
RTVSPropertyOp41
 70
     1
102
RTVSPropertyOp42
 70
     1
102
RTVSPropertyOp43
 70
     1
102
RTVSPropertyOp44
 70
     1
102
RTVSPropertyOp45
 70
     1
102
RTVSPropertyOp46
 70
     1
102
RTVSPropertyOp47
 70
     1
102
RTVSPropertyOp48
 70
     1
102
RTVSPropertyOp49
 70
     1
102
RTVSPropertyOp50
 70
     1
102
RTVSPropertyOp51
 70
     0
102
RTVSPropertyOp52
 70
     0
102
RTVSPropertyOp53
 70
     1
102
RTVSPropertyOp54
 70
     1
102
RTVSPropertyOp55
 70
     1
102
RTVSPropertyOp56
 70
     1
102
RTVSPropertyOp57
 70
     1
102
RTVSPost2010Prop28
280
     0
102
RTVSPost2010PropOp28
 70
     1
102
RTVSPost2010Prop29
280
     1
102
RTVSPost2010PropOp29
 70
     1
102
RTVSPost2010Prop30
280
     1
102
RTVSPost2010PropOp30
 70
     1
102
RTVSPost2010Prop31
280
     0
102
RTVSPost2010PropOp31
 70
     1
102
RTVSPost2010Prop32
280
     0
102
RTVSPost2010PropOp32
 70
     1
102
RTVSPost2010Prop33
280
     0
102
RTVSPost2010PropOp33
 70
     1
102
RTVSPost2010Prop34
280
     0
102
RTVSPost2010PropOp34
 70
     1
102
RTVSPost2010Prop35
280
     0
102
RTVSPost2010PropOp35
 70
     1
102
RTVSPost2010Prop36
280
     0
102
RTVSPost2010PropOp36
 70
     1
102
RTVSPost2010Prop37
 90
       50
102
RTVSPost2010PropOp37
 70
     1
102
RTVSPost2010Prop38
140
0.0
102
RTVSPost2010PropOp38
 70
     1
102
RTVSPost2010Prop39
140
1.0
102
RTVSPost2010PropOp39
 70
     1
102
RTVSPost2010Prop40
 90
        0
102
RTVSPost2010PropOp40
 70
     1
102
RTVSPost2010Prop41ColorIndex
 90
       18
102
RTVSPost2010Prop41ColorRGB
 90
        0
102
RTVSPost2010PropOp41
 70
     1
102
RTVSPost2010Prop42
 90
       50
102
RTVSPost2010PropOp42
 70
     1
102
RTVSPost2010Prop43
 90
        3
102
RTVSPost2010PropOp43
 70
     1
102
RTVSPost2010Prop44ColorIndex
 90
        5
102
RTVSPost2010Prop44ColorRGB
 90
      255
102
RTVSPost2010PropOp44
 70
     1
102
RTVSPost2010Prop45
280
     0
102
RTVSPost2010PropOp45
 70
     1
102
RTVSPost2010Prop46
 90
       50
102
RTVSPost2010PropOp46
 70
     1
102
RTVSPost2010Prop47
 90
       50
102
RTVSPost2010PropOp47
 70
     1
102
RTVSPost2010Prop48
 90
       50
102
RTVSPost2010PropOp48
 70
     1
102
RTVSPost2010Prop49
280
     0
102
RTVSPost2010PropOp49
 70
     1
102
RTVSPost2010Prop50
 90
       50
102
RTVSPost2010PropOp50
 70
     1
102
RTVSPost2010Prop51ColorIndex
 90
      256
102
RTVSPost2010Prop51ColorRGB
 90
-16777216
102
RTVSPost2010PropOp51
 70
     0
102
RTVSPost2010Prop52
140
1.0
102
RTVSPost2010PropOp52
 70
     0
102
RTVSPost2010Prop53
 90
        2
102
RTVSPost2010PropOp53
 70
     1
102
RTVSPost2010Prop54
  1
strokes_ogs.tif
102
RTVSPost2010PropOp54
 70
     1
102
RTVSPost2010Prop55
280
     0
102
RTVSPost2010PropOp55
 70
     1
102
RTVSPost2010Prop56
140
1.0
102
RTVSPost2010PropOp56
 70
     1
102
RTVSPost2010Prop57
140
1.0
102
RTVSPost2010PropOp57
 70
     1
  0
XRECORD
  5
30C
102
{ACAD_REACTORS
330
30B
102
}
330
30B
100
AcDbXrecord
280
     1
102
RTVSPropertyOp0
 70
     0
102
RTVSPropertyOp1
 70
     0
102
RTVSPropertyOp2
 70
     0
102
RTVSPropertyOp3
 70
     0
102
RTVSPropertyOp4
 70
     0
102
RTVSPropertyOp5
 70
     0
102
RTVSPropertyOp6
 70
     0
102
RTVSPropertyOp7
 70
     0
102
RTVSPropertyOp8
 70
     0
102
RTVSPropertyOp9
 70
     0
102
RTVSPropertyOp10
 70
     0
102
RTVSPropertyOp11
 70
     0
102
RTVSPropertyOp12
 70
     0
102
RTVSPropertyOp13
 70
     0
102
RTVSPropertyOp14
 70
     2
102
RTVSPropertyOp15
 70
     0
102
RTVSPropertyOp16
 70
     0
102
RTVSPropertyOp17
 70
     0
102
RTVSPropertyOp18
 70
     0
102
RTVSPropertyOp19
 70
     0
102
RTVSPropertyOp20
 70
     0
102
RTVSPropertyOp21
 70
     0
102
RTVSPropertyOp22
 70
     0
102
RTVSPropertyOp23
 70
     0
102
RTVSPropertyOp24
 70
     0
102
RTVSPropertyOp25
 70
     0
102
RTVSPropertyOp26
 70
     0
102
RTVSPropertyOp27
 70
     0
102
RTVSPropertyOp28
 70
     0
102
RTVSPropertyOp29
 70
     0
102
RTVSPropertyOp30
 70
     0
102
RTVSPropertyOp31
 70
     0
102
RTVSPropertyOp32
 70
     0
102
RTVSPropertyOp33
 70
     0
102
RTVSPropertyOp34
 70
     0
102
RTVSPropertyOp35
 70
     0
102
RTVSPropertyOp36
 70
     0
102
RTVSPropertyOp37
 70
     0
102
RTVSPropertyOp38
 70
     0
102
RTVSPropertyOp39
 70
     0
102
RTVSPropertyOp40
 70
     0
102
RTVSPropertyOp41
 70
     0
102
RTVSPropertyOp42
 70
     0
102
RTVSPropertyOp43
 70
     0
102
RTVSPropertyOp44
 70
     0
102
RTVSPropertyOp45
 70
     0
102
RTVSPropertyOp46
 70
     0
102
RTVSPropertyOp47
 70
     0
102
RTVSPropertyOp48
 70
     0
102
RTVSPropertyOp49
 70
     0
102
RTVSPropertyOp50
 70
     0
102
RTVSPropertyOp51
 70
     0
102
RTVSPropertyOp52
 70
     0
102
RTVSPropertyOp53
 70
     0
102
RTVSPropertyOp54
 70
     0
102
RTVSPropertyOp55
 70
     0
102
RTVSPropertyOp56
 70
     0
102
RTVSPropertyOp57
 70
     0
102
RTVSPost2010Prop28
280
     0
102
RTVSPost2010PropOp28
 70
     0
102
RTVSPost2010Prop29
280
     1
102
RTVSPost2010PropOp29
 70
     0
102
RTVSPost2010Prop30
280
     1
102
RTVSPost2010PropOp30
 70
     0
102
RTVSPost2010Prop31
280
     0
102
RTVSPost2010PropOp31
 70
     0
102
RTVSPost2010Prop32
280
     0
102
RTVSPost2010PropOp32
 70
     0
102
RTVSPost2010Prop33
280
     0
102
RTVSPost2010PropOp33
 70
     0
102
RTVSPost2010Prop34
280
     0
102
RTVSPost2010PropOp34
 70
     0
102
RTVSPost2010Prop35
280
     0
102
RTVSPost2010PropOp35
 70
     0
102
RTVSPost2010Prop36
280
     0
102
RTVSPost2010PropOp36
 70
     0
102
RTVSPost2010Prop37
 90
       50
102
RTVSPost2010PropOp37
 70
     0
102
RTVSPost2010Prop38
140
0.0
102
RTVSPost2010PropOp38
 70
     0
102
RTVSPost2010Prop39
140
1.0
102
RTVSPost2010PropOp39
 70
     0
102
RTVSPost2010Prop40
 90
        0
102
RTVSPost2010PropOp40
 70
     0
102
RTVSPost2010Prop41ColorIndex
 90
       18
102
RTVSPost2010Prop41ColorRGB
 90
        0
102
RTVSPost2010PropOp41
 70
     0
102
RTVSPost2010Prop42
 90
       50
102
RTVSPost2010PropOp42
 70
     0
102
RTVSPost2010Prop43
 90
        3
102
RTVSPost2010PropOp43
 70
     0
102
RTVSPost2010Prop44ColorIndex
 90
        5
102
RTVSPost2010Prop44ColorRGB
 90
      255
102
RTVSPost2010PropOp44
 70
     0
102
RTVSPost2010Prop45
280
     0
102
RTVSPost2010PropOp45
 70
     0
102
RTVSPost2010Prop46
 90
       50
102
RTVSPost2010PropOp46
 70
     0
102
RTVSPost2010Prop47
 90
       50
102
RTVSPost2010PropOp47
 70
     0
102
RTVSPost2010Prop48
 90
       50
102
RTVSPost2010PropOp48
 70
     0
102
RTVSPost2010Prop49
280
     0
102
RTVSPost2010PropOp49
 70
     0
102
RTVSPost2010Prop50
 90
       50
102
RTVSPost2010PropOp50
 70
     0
102
RTVSPost2010Prop51ColorIndex
 90
      256
102
RTVSPost2010Prop51ColorRGB
 90
-16777216
102
RTVSPost2010PropOp51
 70
     0
102
RTVSPost2010Prop52
140
1.0
102
RTVSPost2010PropOp52
 70
     0
102
RTVSPost2010Prop53
 90
        2
102
RTVSPost2010PropOp53
 70
     0
102
RTVSPost2010Prop54
  1
strokes_ogs.tif
102
RTVSPost2010PropOp54
 70
     0
102
RTVSPost2010Prop55
280
     0
102
RTVSPost2010PropOp55
 70
     0
102
RTVSPost2010Prop56
140
1.0
102
RTVSPost2010PropOp56
 70
     0
102
RTVSPost2010Prop57
140
1.0
102
RTVSPost2010PropOp57
 70
     0
  0
XRECORD
  5
306
102
{ACAD_REACTORS
330
305
102
}
330
305
100
AcDbXrecord
280
     1
102
RTVSPropertyOp0
 70
     1
102
RTVSPropertyOp1
 70
     1
102
RTVSPropertyOp2
 70
     1
102
RTVSPropertyOp3
 70
     1
102
RTVSPropertyOp4
 70
     1
102
RTVSPropertyOp5
 70
     1
102
RTVSPropertyOp6
 70
     1
102
RTVSPropertyOp7
 70
     1
102
RTVSPropertyOp8
 70
     1
102
RTVSPropertyOp9
 70
     1
102
RTVSPropertyOp10
 70
     1
102
RTVSPropertyOp11
 70
     1
102
RTVSPropertyOp12
 70
     1
102
RTVSPropertyOp13
 70
     1
102
RTVSPropertyOp14
 70
     1
102
RTVSPropertyOp15
 70
     1
102
RTVSPropertyOp16
 70
     1
102
RTVSPropertyOp17
 70
     1
102
RTVSPropertyOp18
 70
     1
102
RTVSPropertyOp19
 70
     1
102
RTVSPropertyOp20
 70
     1
102
RTVSPropertyOp21
 70
     1
102
RTVSPropertyOp22
 70
     1
102
RTVSPropertyOp23
 70
     1
102
RTVSPropertyOp24
 70
     1
102
RTVSPropertyOp25
 70
     1
102
RTVSPropertyOp26
 70
     1
102
RTVSPropertyOp27
 70
     1
102
RTVSPropertyOp28
 70
     1
102
RTVSPropertyOp29
 70
     1
102
RTVSPropertyOp30
 70
     1
102
RTVSPropertyOp31
 70
     1
102
RTVSPropertyOp32
 70
     1
102
RTVSPropertyOp33
 70
     1
102
RTVSPropertyOp34
 70
     1
102
RTVSPropertyOp35
 70
     1
102
RTVSPropertyOp36
 70
     1
102
RTVSPropertyOp37
 70
     1
102
RTVSPropertyOp38
 70
     1
102
RTVSPropertyOp39
 70
     1
102
RTVSPropertyOp40
 70
     1
102
RTVSPropertyOp41
 70
     1
102
RTVSPropertyOp42
 70
     1
102
RTVSPropertyOp43
 70
     1
102
RTVSPropertyOp44
 70
     1
102
RTVSPropertyOp45
 70
     1
102
RTVSPropertyOp46
 70
     1
102
RTVSPropertyOp47
 70
     1
102
RTVSPropertyOp48
 70
     1
102
RTVSPropertyOp49
 70
     1
102
RTVSPropertyOp50
 70
     1
102
RTVSPropertyOp51
 70
     0
102
RTVSPropertyOp52
 70
     0
102
RTVSPropertyOp53
 70
     1
102
RTVSPropertyOp54
 70
     1
102
RTVSPropertyOp55
 70
     1
102
RTVSPropertyOp56
 70
     1
102
RTVSPropertyOp57
 70
     1
102
RTVSPost2010Prop28
280
     0
102
RTVSPost2010PropOp28
 70
     1
102
RTVSPost2010Prop29
280
     1
102
RTVSPost2010PropOp29
 70
     1
102
RTVSPost2010Prop30
280
     1
102
RTVSPost2010PropOp30
 70
     1
102
RTVSPost2010Prop31
280
     0
102
RTVSPost2010PropOp31
 70
     1
102
RTVSPost2010Prop32
280
     0
102
RTVSPost2010PropOp32
 70
     1
102
RTVSPost2010Prop33
280
     0
102
RTVSPost2010PropOp33
 70
     1
102
RTVSPost2010Prop34
280
     0
102
RTVSPost2010PropOp34
 70
     1
102
RTVSPost2010Prop35
280
     0
102
RTVSPost2010PropOp35
 70
     1
102
RTVSPost2010Prop36
280
     0
102
RTVSPost2010PropOp36
 70
     1
102
RTVSPost2010Prop37
 90
       50
102
RTVSPost2010PropOp37
 70
     1
102
RTVSPost2010Prop38
140
0.0
102
RTVSPost2010PropOp38
 70
     1
102
RTVSPost2010Prop39
140
1.0
102
RTVSPost2010PropOp39
 70
     1
102
RTVSPost2010Prop40
 90
        0
102
RTVSPost2010PropOp40
 70
     1
102
RTVSPost2010Prop41ColorIndex
 90
       18
102
RTVSPost2010Prop41ColorRGB
 90
        0
102
RTVSPost2010PropOp41
 70
     1
102
RTVSPost2010Prop42
 90
       50
102
RTVSPost2010PropOp42
 70
     1
102
RTVSPost2010Prop43
 90
        3
102
RTVSPost2010PropOp43
 70
     1
102
RTVSPost2010Prop44ColorIndex
 90
        5
102
RTVSPost2010Prop44ColorRGB
 90
      255
102
RTVSPost2010PropOp44
 70
     1
102
RTVSPost2010Prop45
280
     0
102
RTVSPost2010PropOp45
 70
     1
102
RTVSPost2010Prop46
 90
       50
102
RTVSPost2010PropOp46
 70
     1
102
RTVSPost2010Prop47
 90
       50
102
RTVSPost2010PropOp47
 70
     1
102
RTVSPost2010Prop48
 90
       50
102
RTVSPost2010PropOp48
 70
     1
102
RTVSPost2010Prop49
280
     0
102
RTVSPost2010PropOp49
 70
     1
102
RTVSPost2010Prop50
 90
       50
102
RTVSPost2010PropOp50
 70
     1
102
RTVSPost2010Prop51ColorIndex
 90
      256
102
RTVSPost2010Prop51ColorRGB
 90
-16777216
102
RTVSPost2010PropOp51
 70
     0
102
RTVSPost2010Prop52
140
1.0
102
RTVSPost2010PropOp52
 70
     0
102
RTVSPost2010Prop53
 90
        2
102
RTVSPost2010PropOp53
 70
     1
102
RTVSPost2010Prop54
  1
strokes_ogs.tif
102
RTVSPost2010PropOp54
 70
     1
102
RTVSPost2010Prop55
280
     0
102
RTVSPost2010PropOp55
 70
     1
102
RTVSPost2010Prop56
140
1.0
102
RTVSPost2010PropOp56
 70
     1
102
RTVSPost2010Prop57
140
1.0
102
RTVSPost2010PropOp57
 70
     1
  0
XRECORD
  5
30E
102
{ACAD_REACTORS
330
30D
102
}
330
30D
100
AcDbXrecord
280
     1
102
RTVSPropertyOp0
 70
     0
102
RTVSPropertyOp1
 70
     0
102
RTVSPropertyOp2
 70
     0
102
RTVSPropertyOp3
 70
     0
102
RTVSPropertyOp4
 70
     0
102
RTVSPropertyOp5
 70
     0
102
RTVSPropertyOp6
 70
     0
102
RTVSPropertyOp7
 70
     0
102
RTVSPropertyOp8
 70
     0
102
RTVSPropertyOp9
 70
     0
102
RTVSPropertyOp10
 70
     0
102
RTVSPropertyOp11
 70
     0
102
RTVSPropertyOp12
 70
     0
102
RTVSPropertyOp13
 70
     0
102
RTVSPropertyOp14
 70
     2
102
RTVSPropertyOp15
 70
     0
102
RTVSPropertyOp16
 70
     0
102
RTVSPropertyOp17
 70
     0
102
RTVSPropertyOp18
 70
     0
102
RTVSPropertyOp19
 70
     0
102
RTVSPropertyOp20
 70
     0
102
RTVSPropertyOp21
 70
     0
102
RTVSPropertyOp22
 70
     0
102
RTVSPropertyOp23
 70
     0
102
RTVSPropertyOp24
 70
     0
102
RTVSPropertyOp25
 70
     0
102
RTVSPropertyOp26
 70
     0
102
RTVSPropertyOp27
 70
     0
102
RTVSPropertyOp28
 70
     0
102
RTVSPropertyOp29
 70
     0
102
RTVSPropertyOp30
 70
     0
102
RTVSPropertyOp31
 70
     0
102
RTVSPropertyOp32
 70
     0
102
RTVSPropertyOp33
 70
     0
102
RTVSPropertyOp34
 70
     0
102
RTVSPropertyOp35
 70
     0
102
RTVSPropertyOp36
 70
     0
102
RTVSPropertyOp37
 70
     0
102
RTVSPropertyOp38
 70
     0
102
RTVSPropertyOp39
 70
     0
102
RTVSPropertyOp40
 70
     0
102
RTVSPropertyOp41
 70
     0
102
RTVSPropertyOp42
 70
     0
102
RTVSPropertyOp43
 70
     0
102
RTVSPropertyOp44
 70
     0
102
RTVSPropertyOp45
 70
     0
102
RTVSPropertyOp46
 70
     0
102
RTVSPropertyOp47
 70
     0
102
RTVSPropertyOp48
 70
     0
102
RTVSPropertyOp49
 70
     0
102
RTVSPropertyOp50
 70
     0
102
RTVSPropertyOp51
 70
     0
102
RTVSPropertyOp52
 70
     0
102
RTVSPropertyOp53
 70
     0
102
RTVSPropertyOp54
 70
     0
102
RTVSPropertyOp55
 70
     0
102
RTVSPropertyOp56
 70
     0
102
RTVSPropertyOp57
 70
     0
102
RTVSPost2010Prop28
280
     0
102
RTVSPost2010PropOp28
 70
     0
102
RTVSPost2010Prop29
280
     1
102
RTVSPost2010PropOp29
 70
     0
102
RTVSPost2010Prop30
280
     1
102
RTVSPost2010PropOp30
 70
     0
102
RTVSPost2010Prop31
280
     0
102
RTVSPost2010PropOp31
 70
     0
102
RTVSPost2010Prop32
280
     0
102
RTVSPost2010PropOp32
 70
     0
102
RTVSPost2010Prop33
280
     0
102
RTVSPost2010PropOp33
 70
     0
102
RTVSPost2010Prop34
280
     0
102
RTVSPost2010PropOp34
 70
     0
102
RTVSPost2010Prop35
280
     0
102
RTVSPost2010PropOp35
 70
     0
102
RTVSPost2010Prop36
280
     0
102
RTVSPost2010PropOp36
 70
     0
102
RTVSPost2010Prop37
 90
       50
102
RTVSPost2010PropOp37
 70
     0
102
RTVSPost2010Prop38
140
0.0
102
RTVSPost2010PropOp38
 70
     0
102
RTVSPost2010Prop39
140
1.0
102
RTVSPost2010PropOp39
 70
     0
102
RTVSPost2010Prop40
 90
        0
102
RTVSPost2010PropOp40
 70
     0
102
RTVSPost2010Prop41ColorIndex
 90
       18
102
RTVSPost2010Prop41ColorRGB
 90
        0
102
RTVSPost2010PropOp41
 70
     0
102
RTVSPost2010Prop42
 90
       50
102
RTVSPost2010PropOp42
 70
     0
102
RTVSPost2010Prop43
 90
        3
102
RTVSPost2010PropOp43
 70
     0
102
RTVSPost2010Prop44ColorIndex
 90
        5
102
RTVSPost2010Prop44ColorRGB
 90
      255
102
RTVSPost2010PropOp44
 70
     0
102
RTVSPost2010Prop45
280
     0
102
RTVSPost2010PropOp45
 70
     0
102
RTVSPost2010Prop46
 90
       50
102
RTVSPost2010PropOp46
 70
     0
102
RTVSPost2010Prop47
 90
       50
102
RTVSPost2010PropOp47
 70
     0
102
RTVSPost2010Prop48
 90
       50
102
RTVSPost2010PropOp48
 70
     0
102
RTVSPost2010Prop49
280
     0
102
RTVSPost2010PropOp49
 70
     0
102
RTVSPost2010Prop50
 90
       50
102
RTVSPost2010PropOp50
 70
     0
102
RTVSPost2010Prop51ColorIndex
 90
      256
102
RTVSPost2010Prop51ColorRGB
 90
-16777216
102
RTVSPost2010PropOp51
 70
     0
102
RTVSPost2010Prop52
140
1.0
102
RTVSPost2010PropOp52
 70
     0
102
RTVSPost2010Prop53
 90
        2
102
RTVSPost2010PropOp53
 70
     0
102
RTVSPost2010Prop54
  1
strokes_ogs.tif
102
RTVSPost2010PropOp54
 70
     0
102
RTVSPost2010Prop55
280
     0
102
RTVSPost2010PropOp55
 70
     0
102
RTVSPost2010Prop56
140
1.0
102
RTVSPost2010PropOp56
 70
     0
102
RTVSPost2010Prop57
140
1.0
102
RTVSPost2010PropOp57
 70
     0
  0
XRECORD
  5
2FC
102
{ACAD_REACTORS
330
2FB
102
}
330
2FB
100
AcDbXrecord
280
     1
102
RTVSPropertyOp0
 70
     1
102
RTVSPropertyOp1
 70
     1
102
RTVSPropertyOp2
 70
     1
102
RTVSPropertyOp3
 70
     1
102
RTVSPropertyOp4
 70
     1
102
RTVSPropertyOp5
 70
     1
102
RTVSPropertyOp6
 70
     1
102
RTVSPropertyOp7
 70
     1
102
RTVSPropertyOp8
 70
     1
102
RTVSPropertyOp9
 70
     1
102
RTVSPropertyOp10
 70
     1
102
RTVSPropertyOp11
 70
     1
102
RTVSPropertyOp12
 70
     1
102
RTVSPropertyOp13
 70
     1
102
RTVSPropertyOp14
 70
     1
102
RTVSPropertyOp15
 70
     1
102
RTVSPropertyOp16
 70
     1
102
RTVSPropertyOp17
 70
     1
102
RTVSPropertyOp18
 70
     1
102
RTVSPropertyOp19
 70
     1
102
RTVSPropertyOp20
 70
     1
102
RTVSPropertyOp21
 70
     1
102
RTVSPropertyOp22
 70
     1
102
RTVSPropertyOp23
 70
     1
102
RTVSPropertyOp24
 70
     1
102
RTVSPropertyOp25
 70
     1
102
RTVSPropertyOp26
 70
     1
102
RTVSPropertyOp27
 70
     1
102
RTVSPropertyOp28
 70
     1
102
RTVSPropertyOp29
 70
     1
102
RTVSPropertyOp30
 70
     1
102
RTVSPropertyOp31
 70
     1
102
RTVSPropertyOp32
 70
     1
102
RTVSPropertyOp33
 70
     1
102
RTVSPropertyOp34
 70
     1
102
RTVSPropertyOp35
 70
     1
102
RTVSPropertyOp36
 70
     1
102
RTVSPropertyOp37
 70
     1
102
RTVSPropertyOp38
 70
     1
102
RTVSPropertyOp39
 70
     1
102
RTVSPropertyOp40
 70
     1
102
RTVSPropertyOp41
 70
     1
102
RTVSPropertyOp42
 70
     1
102
RTVSPropertyOp43
 70
     1
102
RTVSPropertyOp44
 70
     1
102
RTVSPropertyOp45
 70
     1
102
RTVSPropertyOp46
 70
     1
102
RTVSPropertyOp47
 70
     1
102
RTVSPropertyOp48
 70
     1
102
RTVSPropertyOp49
 70
     1
102
RTVSPropertyOp50
 70
     1
102
RTVSPropertyOp51
 70
     0
102
RTVSPropertyOp52
 70
     0
102
RTVSPropertyOp53
 70
     1
102
RTVSPropertyOp54
 70
     1
102
RTVSPropertyOp55
 70
     1
102
RTVSPropertyOp56
 70
     1
102
RTVSPropertyOp57
 70
     1
102
RTVSPost2010Prop28
280
     0
102
RTVSPost2010PropOp28
 70
     1
102
RTVSPost2010Prop29
280
     1
102
RTVSPost2010PropOp29
 70
     1
102
RTVSPost2010Prop30
280
     1
102
RTVSPost2010PropOp30
 70
     1
102
RTVSPost2010Prop31
280
     0
102
RTVSPost2010PropOp31
 70
     1
102
RTVSPost2010Prop32
280
     0
102
RTVSPost2010PropOp32
 70
     1
102
RTVSPost2010Prop33
280
     0
102
RTVSPost2010PropOp33
 70
     1
102
RTVSPost2010Prop34
280
     0
102
RTVSPost2010PropOp34
 70
     1
102
RTVSPost2010Prop35
280
     0
102
RTVSPost2010PropOp35
 70
     1
102
RTVSPost2010Prop36
280
     0
102
RTVSPost2010PropOp36
 70
     1
102
RTVSPost2010Prop37
 90
       50
102
RTVSPost2010PropOp37
 70
     1
102
RTVSPost2010Prop38
140
0.0
102
RTVSPost2010PropOp38
 70
     1
102
RTVSPost2010Prop39
140
1.0
102
RTVSPost2010PropOp39
 70
     1
102
RTVSPost2010Prop40
 90
        0
102
RTVSPost2010PropOp40
 70
     1
102
RTVSPost2010Prop41ColorIndex
 90
       18
102
RTVSPost2010Prop41ColorRGB
 90
        0
102
RTVSPost2010PropOp41
 70
     1
102
RTVSPost2010Prop42
 90
       50
102
RTVSPost2010PropOp42
 70
     1
102
RTVSPost2010Prop43
 90
        3
102
RTVSPost2010PropOp43
 70
     1
102
RTVSPost2010Prop44ColorIndex
 90
        5
102
RTVSPost2010Prop44ColorRGB
 90
      255
102
RTVSPost2010PropOp44
 70
     1
102
RTVSPost2010Prop45
280
     0
102
RTVSPost2010PropOp45
 70
     1
102
RTVSPost2010Prop46
 90
       50
102
RTVSPost2010PropOp46
 70
     1
102
RTVSPost2010Prop47
 90
       50
102
RTVSPost2010PropOp47
 70
     1
102
RTVSPost2010Prop48
 90
       50
102
RTVSPost2010PropOp48
 70
     1
102
RTVSPost2010Prop49
280
     0
102
RTVSPost2010PropOp49
 70
     1
102
RTVSPost2010Prop50
 90
       50
102
RTVSPost2010PropOp50
 70
     1
102
RTVSPost2010Prop51ColorIndex
 90
      256
102
RTVSPost2010Prop51ColorRGB
 90
-16777216
102
RTVSPost2010PropOp51
 70
     0
102
RTVSPost2010Prop52
140
1.0
102
RTVSPost2010PropOp52
 70
     0
102
RTVSPost2010Prop53
 90
        2
102
RTVSPost2010PropOp53
 70
     1
102
RTVSPost2010Prop54
  1
strokes_ogs.tif
102
RTVSPost2010PropOp54
 70
     1
102
RTVSPost2010Prop55
280
     0
102
RTVSPost2010PropOp55
 70
     1
102
RTVSPost2010Prop56
140
1.0
102
RTVSPost2010PropOp56
 70
     1
102
RTVSPost2010Prop57
140
1.0
102
RTVSPost2010PropOp57
 70
     1
  0
XRECORD
  5
31A
102
{ACAD_REACTORS
330
319
102
}
330
319
100
AcDbXrecord
280
     1
102
RTVSPropertyOp0
 70
     1
102
RTVSPropertyOp1
 70
     1
102
RTVSPropertyOp2
 70
     1
102
RTVSPropertyOp3
 70
     1
102
RTVSPropertyOp4
 70
     1
102
RTVSPropertyOp5
 70
     1
102
RTVSPropertyOp6
 70
     1
102
RTVSPropertyOp7
 70
     1
102
RTVSPropertyOp8
 70
     1
102
RTVSPropertyOp9
 70
     1
102
RTVSPropertyOp10
 70
     1
102
RTVSPropertyOp11
 70
     1
102
RTVSPropertyOp12
 70
     1
102
RTVSPropertyOp13
 70
     1
102
RTVSPropertyOp14
 70
     1
102
RTVSPropertyOp15
 70
     1
102
RTVSPropertyOp16
 70
     1
102
RTVSPropertyOp17
 70
     1
102
RTVSPropertyOp18
 70
     1
102
RTVSPropertyOp19
 70
     1
102
RTVSPropertyOp20
 70
     1
102
RTVSPropertyOp21
 70
     1
102
RTVSPropertyOp22
 70
     1
102
RTVSPropertyOp23
 70
     1
102
RTVSPropertyOp24
 70
     1
102
RTVSPropertyOp25
 70
     1
102
RTVSPropertyOp26
 70
     1
102
RTVSPropertyOp27
 70
     1
102
RTVSPropertyOp28
 70
     1
102
RTVSPropertyOp29
 70
     1
102
RTVSPropertyOp30
 70
     1
102
RTVSPropertyOp31
 70
     1
102
RTVSPropertyOp32
 70
     1
102
RTVSPropertyOp33
 70
     1
102
RTVSPropertyOp34
 70
     1
102
RTVSPropertyOp35
 70
     1
102
RTVSPropertyOp36
 70
     1
102
RTVSPropertyOp37
 70
     1
102
RTVSPropertyOp38
 70
     1
102
RTVSPropertyOp39
 70
     1
102
RTVSPropertyOp40
 70
     1
102
RTVSPropertyOp41
 70
     1
102
RTVSPropertyOp42
 70
     1
102
RTVSPropertyOp43
 70
     1
102
RTVSPropertyOp44
 70
     1
102
RTVSPropertyOp45
 70
     1
102
RTVSPropertyOp46
 70
     1
102
RTVSPropertyOp47
 70
     1
102
RTVSPropertyOp48
 70
     1
102
RTVSPropertyOp49
 70
     1
102
RTVSPropertyOp50
 70
     1
102
RTVSPropertyOp51
 70
     0
102
RTVSPropertyOp52
 70
     0
102
RTVSPropertyOp53
 70
     1
102
RTVSPropertyOp54
 70
     1
102
RTVSPropertyOp55
 70
     1
102
RTVSPropertyOp56
 70
     1
102
RTVSPropertyOp57
 70
     1
102
RTVSPost2010Prop28
280
     0
102
RTVSPost2010PropOp28
 70
     1
102
RTVSPost2010Prop29
280
     1
102
RTVSPost2010PropOp29
 70
     1
102
RTVSPost2010Prop30
280
     1
102
RTVSPost2010PropOp30
 70
     1
102
RTVSPost2010Prop31
280
     0
102
RTVSPost2010PropOp31
 70
     1
102
RTVSPost2010Prop32
280
     0
102
RTVSPost2010PropOp32
 70
     1
102
RTVSPost2010Prop33
280
     0
102
RTVSPost2010PropOp33
 70
     1
102
RTVSPost2010Prop34
280
     0
102
RTVSPost2010PropOp34
 70
     1
102
RTVSPost2010Prop35
280
     0
102
RTVSPost2010PropOp35
 70
     1
102
RTVSPost2010Prop36
280
     0
102
RTVSPost2010PropOp36
 70
     1
102
RTVSPost2010Prop37
 90
       50
102
RTVSPost2010PropOp37
 70
     1
102
RTVSPost2010Prop38
140
0.0
102
RTVSPost2010PropOp38
 70
     1
102
RTVSPost2010Prop39
140
1.0
102
RTVSPost2010PropOp39
 70
     1
102
RTVSPost2010Prop40
 90
        0
102
RTVSPost2010PropOp40
 70
     1
102
RTVSPost2010Prop41ColorIndex
 90
       18
102
RTVSPost2010Prop41ColorRGB
 90
        0
102
RTVSPost2010PropOp41
 70
     1
102
RTVSPost2010Prop42
 90
       50
102
RTVSPost2010PropOp42
 70
     1
102
RTVSPost2010Prop43
 90
        3
102
RTVSPost2010PropOp43
 70
     1
102
RTVSPost2010Prop44ColorIndex
 90
        5
102
RTVSPost2010Prop44ColorRGB
 90
      255
102
RTVSPost2010PropOp44
 70
     1
102
RTVSPost2010Prop45
280
     0
102
RTVSPost2010PropOp45
 70
     1
102
RTVSPost2010Prop46
 90
       50
102
RTVSPost2010PropOp46
 70
     1
102
RTVSPost2010Prop47
 90
       50
102
RTVSPost2010PropOp47
 70
     1
102
RTVSPost2010Prop48
 90
       50
102
RTVSPost2010PropOp48
 70
     1
102
RTVSPost2010Prop49
280
     0
102
RTVSPost2010PropOp49
 70
     1
102
RTVSPost2010Prop50
 90
       50
102
RTVSPost2010PropOp50
 70
     1
102
RTVSPost2010Prop51ColorIndex
 90
      256
102
RTVSPost2010Prop51ColorRGB
 90
-16777216
102
RTVSPost2010PropOp51
 70
     0
102
RTVSPost2010Prop52
140
1.0
102
RTVSPost2010PropOp52
 70
     0
102
RTVSPost2010Prop53
 90
        2
102
RTVSPost2010PropOp53
 70
     1
102
RTVSPost2010Prop54
  1
strokes_ogs.tif
102
RTVSPost2010PropOp54
 70
     1
102
RTVSPost2010Prop55
280
     0
102
RTVSPost2010PropOp55
 70
     1
102
RTVSPost2010Prop56
140
1.0
102
RTVSPost2010PropOp56
 70
     1
102
RTVSPost2010Prop57
140
1.0
102
RTVSPost2010PropOp57
 70
     1
  0
XRECORD
  5
318
102
{ACAD_REACTORS
330
317
102
}
330
317
100
AcDbXrecord
280
     1
102
RTVSPropertyOp0
 70
     1
102
RTVSPropertyOp1
 70
     1
102
RTVSPropertyOp2
 70
     1
102
RTVSPropertyOp3
 70
     1
102
RTVSPropertyOp4
 70
     1
102
RTVSPropertyOp5
 70
     1
102
RTVSPropertyOp6
 70
     1
102
RTVSPropertyOp7
 70
     1
102
RTVSPropertyOp8
 70
     1
102
RTVSPropertyOp9
 70
     1
102
RTVSPropertyOp10
 70
     1
102
RTVSPropertyOp11
 70
     1
102
RTVSPropertyOp12
 70
     1
102
RTVSPropertyOp13
 70
     1
102
RTVSPropertyOp14
 70
     1
102
RTVSPropertyOp15
 70
     1
102
RTVSPropertyOp16
 70
     1
102
RTVSPropertyOp17
 70
     1
102
RTVSPropertyOp18
 70
     1
102
RTVSPropertyOp19
 70
     1
102
RTVSPropertyOp20
 70
     1
102
RTVSPropertyOp21
 70
     1
102
RTVSPropertyOp22
 70
     1
102
RTVSPropertyOp23
 70
     1
102
RTVSPropertyOp24
 70
     1
102
RTVSPropertyOp25
 70
     1
102
RTVSPropertyOp26
 70
     1
102
RTVSPropertyOp27
 70
     1
102
RTVSPropertyOp28
 70
     1
102
RTVSPropertyOp29
 70
     1
102
RTVSPropertyOp30
 70
     1
102
RTVSPropertyOp31
 70
     1
102
RTVSPropertyOp32
 70
     1
102
RTVSPropertyOp33
 70
     1
102
RTVSPropertyOp34
 70
     1
102
RTVSPropertyOp35
 70
     1
102
RTVSPropertyOp36
 70
     1
102
RTVSPropertyOp37
 70
     1
102
RTVSPropertyOp38
 70
     1
102
RTVSPropertyOp39
 70
     1
102
RTVSPropertyOp40
 70
     1
102
RTVSPropertyOp41
 70
     1
102
RTVSPropertyOp42
 70
     1
102
RTVSPropertyOp43
 70
     1
102
RTVSPropertyOp44
 70
     1
102
RTVSPropertyOp45
 70
     1
102
RTVSPropertyOp46
 70
     1
102
RTVSPropertyOp47
 70
     1
102
RTVSPropertyOp48
 70
     1
102
RTVSPropertyOp49
 70
     1
102
RTVSPropertyOp50
 70
     1
102
RTVSPropertyOp51
 70
     0
102
RTVSPropertyOp52
 70
     0
102
RTVSPropertyOp53
 70
     1
102
RTVSPropertyOp54
 70
     1
102
RTVSPropertyOp55
 70
     1
102
RTVSPropertyOp56
 70
     1
102
RTVSPropertyOp57
 70
     1
102
RTVSPost2010Prop28
280
     0
102
RTVSPost2010PropOp28
 70
     1
102
RTVSPost2010Prop29
280
     1
102
RTVSPost2010PropOp29
 70
     1
102
RTVSPost2010Prop30
280
     1
102
RTVSPost2010PropOp30
 70
     1
102
RTVSPost2010Prop31
280
     0
102
RTVSPost2010PropOp31
 70
     1
102
RTVSPost2010Prop32
280
     0
102
RTVSPost2010PropOp32
 70
     1
102
RTVSPost2010Prop33
280
     0
102
RTVSPost2010PropOp33
 70
     1
102
RTVSPost2010Prop34
280
     0
102
RTVSPost2010PropOp34
 70
     1
102
RTVSPost2010Prop35
280
     0
102
RTVSPost2010PropOp35
 70
     1
102
RTVSPost2010Prop36
280
     0
102
RTVSPost2010PropOp36
 70
     1
102
RTVSPost2010Prop37
 90
       50
102
RTVSPost2010PropOp37
 70
     1
102
RTVSPost2010Prop38
140
0.0
102
RTVSPost2010PropOp38
 70
     1
102
RTVSPost2010Prop39
140
1.0
102
RTVSPost2010PropOp39
 70
     1
102
RTVSPost2010Prop40
 90
        0
102
RTVSPost2010PropOp40
 70
     1
102
RTVSPost2010Prop41ColorIndex
 90
       18
102
RTVSPost2010Prop41ColorRGB
 90
        0
102
RTVSPost2010PropOp41
 70
     1
102
RTVSPost2010Prop42
 90
       50
102
RTVSPost2010PropOp42
 70
     1
102
RTVSPost2010Prop43
 90
        3
102
RTVSPost2010PropOp43
 70
     1
102
RTVSPost2010Prop44ColorIndex
 90
        5
102
RTVSPost2010Prop44ColorRGB
 90
      255
102
RTVSPost2010PropOp44
 70
     1
102
RTVSPost2010Prop45
280
     0
102
RTVSPost2010PropOp45
 70
     1
102
RTVSPost2010Prop46
 90
       50
102
RTVSPost2010PropOp46
 70
     1
102
RTVSPost2010Prop47
 90
       50
102
RTVSPost2010PropOp47
 70
     1
102
RTVSPost2010Prop48
 90
       50
102
RTVSPost2010PropOp48
 70
     1
102
RTVSPost2010Prop49
280
     0
102
RTVSPost2010PropOp49
 70
     1
102
RTVSPost2010Prop50
 90
       50
102
RTVSPost2010PropOp50
 70
     1
102
RTVSPost2010Prop51ColorIndex
 90
      256
102
RTVSPost2010Prop51ColorRGB
 90
-16777216
102
RTVSPost2010PropOp51
 70
     0
102
RTVSPost2010Prop52
140
1.0
102
RTVSPost2010PropOp52
 70
     0
102
RTVSPost2010Prop53
 90
        2
102
RTVSPost2010PropOp53
 70
     1
102
RTVSPost2010Prop54
  1
strokes_ogs.tif
102
RTVSPost2010PropOp54
 70
     1
102
RTVSPost2010Prop55
280
     0
102
RTVSPost2010PropOp55
 70
     1
102
RTVSPost2010Prop56
140
1.0
102
RTVSPost2010PropOp56
 70
     1
102
RTVSPost2010Prop57
140
1.0
102
RTVSPost2010PropOp57
 70
     1
  0
XRECORD
  5
312
102
{ACAD_REACTORS
330
311
102
}
330
311
100
AcDbXrecord
280
     1
102
RTVSPropertyOp0
 70
     1
102
RTVSPropertyOp1
 70
     1
102
RTVSPropertyOp2
 70
     1
102
RTVSPropertyOp3
 70
     1
102
RTVSPropertyOp4
 70
     1
102
RTVSPropertyOp5
 70
     1
102
RTVSPropertyOp6
 70
     1
102
RTVSPropertyOp7
 70
     1
102
RTVSPropertyOp8
 70
     1
102
RTVSPropertyOp9
 70
     1
102
RTVSPropertyOp10
 70
     1
102
RTVSPropertyOp11
 70
     1
102
RTVSPropertyOp12
 70
     1
102
RTVSPropertyOp13
 70
     1
102
RTVSPropertyOp14
 70
     1
102
RTVSPropertyOp15
 70
     1
102
RTVSPropertyOp16
 70
     1
102
RTVSPropertyOp17
 70
     1
102
RTVSPropertyOp18
 70
     1
102
RTVSPropertyOp19
 70
     1
102
RTVSPropertyOp20
 70
     1
102
RTVSPropertyOp21
 70
     1
102
RTVSPropertyOp22
 70
     1
102
RTVSPropertyOp23
 70
     1
102
RTVSPropertyOp24
 70
     1
102
RTVSPropertyOp25
 70
     1
102
RTVSPropertyOp26
 70
     1
102
RTVSPropertyOp27
 70
     1
102
RTVSPropertyOp28
 70
     1
102
RTVSPropertyOp29
 70
     1
102
RTVSPropertyOp30
 70
     1
102
RTVSPropertyOp31
 70
     1
102
RTVSPropertyOp32
 70
     1
102
RTVSPropertyOp33
 70
     1
102
RTVSPropertyOp34
 70
     1
102
RTVSPropertyOp35
 70
     1
102
RTVSPropertyOp36
 70
     1
102
RTVSPropertyOp37
 70
     1
102
RTVSPropertyOp38
 70
     1
102
RTVSPropertyOp39
 70
     1
102
RTVSPropertyOp40
 70
     1
102
RTVSPropertyOp41
 70
     1
102
RTVSPropertyOp42
 70
     1
102
RTVSPropertyOp43
 70
     1
102
RTVSPropertyOp44
 70
     1
102
RTVSPropertyOp45
 70
     1
102
RTVSPropertyOp46
 70
     1
102
RTVSPropertyOp47
 70
     1
102
RTVSPropertyOp48
 70
     1
102
RTVSPropertyOp49
 70
     1
102
RTVSPropertyOp50
 70
     1
102
RTVSPropertyOp51
 70
     0
102
RTVSPropertyOp52
 70
     0
102
RTVSPropertyOp53
 70
     1
102
RTVSPropertyOp54
 70
     1
102
RTVSPropertyOp55
 70
     1
102
RTVSPropertyOp56
 70
     1
102
RTVSPropertyOp57
 70
     1
102
RTVSPost2010Prop28
280
     0
102
RTVSPost2010PropOp28
 70
     1
102
RTVSPost2010Prop29
280
     1
102
RTVSPost2010PropOp29
 70
     1
102
RTVSPost2010Prop30
280
     1
102
RTVSPost2010PropOp30
 70
     1
102
RTVSPost2010Prop31
280
     0
102
RTVSPost2010PropOp31
 70
     1
102
RTVSPost2010Prop32
280
     0
102
RTVSPost2010PropOp32
 70
     1
102
RTVSPost2010Prop33
280
     0
102
RTVSPost2010PropOp33
 70
     1
102
RTVSPost2010Prop34
280
     0
102
RTVSPost2010PropOp34
 70
     1
102
RTVSPost2010Prop35
280
     0
102
RTVSPost2010PropOp35
 70
     1
102
RTVSPost2010Prop36
280
     0
102
RTVSPost2010PropOp36
 70
     1
102
RTVSPost2010Prop37
 90
       50
102
RTVSPost2010PropOp37
 70
     1
102
RTVSPost2010Prop38
140
0.0
102
RTVSPost2010PropOp38
 70
     1
102
RTVSPost2010Prop39
140
1.0
102
RTVSPost2010PropOp39
 70
     1
102
RTVSPost2010Prop40
 90
        0
102
RTVSPost2010PropOp40
 70
     1
102
RTVSPost2010Prop41ColorIndex
 90
       18
102
RTVSPost2010Prop41ColorRGB
 90
        0
102
RTVSPost2010PropOp41
 70
     1
102
RTVSPost2010Prop42
 90
       50
102
RTVSPost2010PropOp42
 70
     1
102
RTVSPost2010Prop43
 90
        3
102
RTVSPost2010PropOp43
 70
     1
102
RTVSPost2010Prop44ColorIndex
 90
        5
102
RTVSPost2010Prop44ColorRGB
 90
      255
102
RTVSPost2010PropOp44
 70
     1
102
RTVSPost2010Prop45
280
     0
102
RTVSPost2010PropOp45
 70
     1
102
RTVSPost2010Prop46
 90
       50
102
RTVSPost2010PropOp46
 70
     1
102
RTVSPost2010Prop47
 90
       50
102
RTVSPost2010PropOp47
 70
     1
102
RTVSPost2010Prop48
 90
       50
102
RTVSPost2010PropOp48
 70
     1
102
RTVSPost2010Prop49
280
     0
102
RTVSPost2010PropOp49
 70
     1
102
RTVSPost2010Prop50
 90
       50
102
RTVSPost2010PropOp50
 70
     1
102
RTVSPost2010Prop51ColorIndex
 90
      256
102
RTVSPost2010Prop51ColorRGB
 90
-16777216
102
RTVSPost2010PropOp51
 70
     0
102
RTVSPost2010Prop52
140
1.0
102
RTVSPost2010PropOp52
 70
     0
102
RTVSPost2010Prop53
 90
        2
102
RTVSPost2010PropOp53
 70
     1
102
RTVSPost2010Prop54
  1
strokes_ogs.tif
102
RTVSPost2010PropOp54
 70
     1
102
RTVSPost2010Prop55
280
     0
102
RTVSPost2010PropOp55
 70
     1
102
RTVSPost2010Prop56
140
1.0
102
RTVSPost2010PropOp56
 70
     1
102
RTVSPost2010Prop57
140
1.0
102
RTVSPost2010PropOp57
 70
     1
  0
XRECORD
  5
314
102
{ACAD_REACTORS
330
313
102
}
330
313
100
AcDbXrecord
280
     1
102
RTVSPropertyOp0
 70
     1
102
RTVSPropertyOp1
 70
     1
102
RTVSPropertyOp2
 70
     1
102
RTVSPropertyOp3
 70
     1
102
RTVSPropertyOp4
 70
     1
102
RTVSPropertyOp5
 70
     1
102
RTVSPropertyOp6
 70
     1
102
RTVSPropertyOp7
 70
     1
102
RTVSPropertyOp8
 70
     1
102
RTVSPropertyOp9
 70
     1
102
RTVSPropertyOp10
 70
     1
102
RTVSPropertyOp11
 70
     1
102
RTVSPropertyOp12
 70
     1
102
RTVSPropertyOp13
 70
     1
102
RTVSPropertyOp14
 70
     1
102
RTVSPropertyOp15
 70
     1
102
RTVSPropertyOp16
 70
     1
102
RTVSPropertyOp17
 70
     1
102
RTVSPropertyOp18
 70
     1
102
RTVSPropertyOp19
 70
     1
102
RTVSPropertyOp20
 70
     1
102
RTVSPropertyOp21
 70
     1
102
RTVSPropertyOp22
 70
     1
102
RTVSPropertyOp23
 70
     1
102
RTVSPropertyOp24
 70
     1
102
RTVSPropertyOp25
 70
     1
102
RTVSPropertyOp26
 70
     1
102
RTVSPropertyOp27
 70
     1
102
RTVSPropertyOp28
 70
     1
102
RTVSPropertyOp29
 70
     1
102
RTVSPropertyOp30
 70
     1
102
RTVSPropertyOp31
 70
     1
102
RTVSPropertyOp32
 70
     1
102
RTVSPropertyOp33
 70
     1
102
RTVSPropertyOp34
 70
     1
102
RTVSPropertyOp35
 70
     1
102
RTVSPropertyOp36
 70
     1
102
RTVSPropertyOp37
 70
     1
102
RTVSPropertyOp38
 70
     1
102
RTVSPropertyOp39
 70
     1
102
RTVSPropertyOp40
 70
     1
102
RTVSPropertyOp41
 70
     1
102
RTVSPropertyOp42
 70
     1
102
RTVSPropertyOp43
 70
     1
102
RTVSPropertyOp44
 70
     1
102
RTVSPropertyOp45
 70
     1
102
RTVSPropertyOp46
 70
     1
102
RTVSPropertyOp47
 70
     1
102
RTVSPropertyOp48
 70
     1
102
RTVSPropertyOp49
 70
     1
102
RTVSPropertyOp50
 70
     1
102
RTVSPropertyOp51
 70
     0
102
RTVSPropertyOp52
 70
     0
102
RTVSPropertyOp53
 70
     1
102
RTVSPropertyOp54
 70
     1
102
RTVSPropertyOp55
 70
     1
102
RTVSPropertyOp56
 70
     1
102
RTVSPropertyOp57
 70
     1
102
RTVSPost2010Prop28
280
     0
102
RTVSPost2010PropOp28
 70
     1
102
RTVSPost2010Prop29
280
     1
102
RTVSPost2010PropOp29
 70
     1
102
RTVSPost2010Prop30
280
     1
102
RTVSPost2010PropOp30
 70
     1
102
RTVSPost2010Prop31
280
     0
102
RTVSPost2010PropOp31
 70
     1
102
RTVSPost2010Prop32
280
     0
102
RTVSPost2010PropOp32
 70
     1
102
RTVSPost2010Prop33
280
     0
102
RTVSPost2010PropOp33
 70
     1
102
RTVSPost2010Prop34
280
     0
102
RTVSPost2010PropOp34
 70
     1
102
RTVSPost2010Prop35
280
     0
102
RTVSPost2010PropOp35
 70
     1
102
RTVSPost2010Prop36
280
     0
102
RTVSPost2010PropOp36
 70
     1
102
RTVSPost2010Prop37
 90
       50
102
RTVSPost2010PropOp37
 70
     1
102
RTVSPost2010Prop38
140
0.0
102
RTVSPost2010PropOp38
 70
     1
102
RTVSPost2010Prop39
140
1.0
102
RTVSPost2010PropOp39
 70
     1
102
RTVSPost2010Prop40
 90
        0
102
RTVSPost2010PropOp40
 70
     1
102
RTVSPost2010Prop41ColorIndex
 90
       18
102
RTVSPost2010Prop41ColorRGB
 90
        0
102
RTVSPost2010PropOp41
 70
     1
102
RTVSPost2010Prop42
 90
       50
102
RTVSPost2010PropOp42
 70
     1
102
RTVSPost2010Prop43
 90
        3
102
RTVSPost2010PropOp43
 70
     1
102
RTVSPost2010Prop44ColorIndex
 90
        5
102
RTVSPost2010Prop44ColorRGB
 90
      255
102
RTVSPost2010PropOp44
 70
     1
102
RTVSPost2010Prop45
280
     0
102
RTVSPost2010PropOp45
 70
     1
102
RTVSPost2010Prop46
 90
       50
102
RTVSPost2010PropOp46
 70
     1
102
RTVSPost2010Prop47
 90
       50
102
RTVSPost2010PropOp47
 70
     1
102
RTVSPost2010Prop48
 90
       50
102
RTVSPost2010PropOp48
 70
     1
102
RTVSPost2010Prop49
280
     0
102
RTVSPost2010PropOp49
 70
     1
102
RTVSPost2010Prop50
 90
       50
102
RTVSPost2010PropOp50
 70
     1
102
RTVSPost2010Prop51ColorIndex
 90
      256
102
RTVSPost2010Prop51ColorRGB
 90
-16777216
102
RTVSPost2010PropOp51
 70
     0
102
RTVSPost2010Prop52
140
1.0
102
RTVSPost2010PropOp52
 70
     0
102
RTVSPost2010Prop53
 90
        2
102
RTVSPost2010PropOp53
 70
     1
102
RTVSPost2010Prop54
  1
strokes_ogs.tif
102
RTVSPost2010PropOp54
 70
     1
102
RTVSPost2010Prop55
280
     0
102
RTVSPost2010PropOp55
 70
     1
102
RTVSPost2010Prop56
140
1.0
102
RTVSPost2010PropOp56
 70
     1
102
RTVSPost2010Prop57
140
1.0
102
RTVSPost2010PropOp57
 70
     1
  0
XRECORD
  5
304
102
{ACAD_REACTORS
330
303
102
}
330
303
100
AcDbXrecord
280
     1
102
RTVSPropertyOp0
 70
     1
102
RTVSPropertyOp1
 70
     1
102
RTVSPropertyOp2
 70
     1
102
RTVSPropertyOp3
 70
     1
102
RTVSPropertyOp4
 70
     1
102
RTVSPropertyOp5
 70
     1
102
RTVSPropertyOp6
 70
     1
102
RTVSPropertyOp7
 70
     1
102
RTVSPropertyOp8
 70
     1
102
RTVSPropertyOp9
 70
     1
102
RTVSPropertyOp10
 70
     1
102
RTVSPropertyOp11
 70
     1
102
RTVSPropertyOp12
 70
     1
102
RTVSPropertyOp13
 70
     1
102
RTVSPropertyOp14
 70
     1
102
RTVSPropertyOp15
 70
     1
102
RTVSPropertyOp16
 70
     1
102
RTVSPropertyOp17
 70
     1
102
RTVSPropertyOp18
 70
     1
102
RTVSPropertyOp19
 70
     1
102
RTVSPropertyOp20
 70
     1
102
RTVSPropertyOp21
 70
     1
102
RTVSPropertyOp22
 70
     1
102
RTVSPropertyOp23
 70
     1
102
RTVSPropertyOp24
 70
     1
102
RTVSPropertyOp25
 70
     1
102
RTVSPropertyOp26
 70
     1
102
RTVSPropertyOp27
 70
     1
102
RTVSPropertyOp28
 70
     1
102
RTVSPropertyOp29
 70
     1
102
RTVSPropertyOp30
 70
     1
102
RTVSPropertyOp31
 70
     1
102
RTVSPropertyOp32
 70
     1
102
RTVSPropertyOp33
 70
     1
102
RTVSPropertyOp34
 70
     1
102
RTVSPropertyOp35
 70
     1
102
RTVSPropertyOp36
 70
     1
102
RTVSPropertyOp37
 70
     1
102
RTVSPropertyOp38
 70
     1
102
RTVSPropertyOp39
 70
     1
102
RTVSPropertyOp40
 70
     1
102
RTVSPropertyOp41
 70
     1
102
RTVSPropertyOp42
 70
     1
102
RTVSPropertyOp43
 70
     1
102
RTVSPropertyOp44
 70
     1
102
RTVSPropertyOp45
 70
     1
102
RTVSPropertyOp46
 70
     1
102
RTVSPropertyOp47
 70
     1
102
RTVSPropertyOp48
 70
     1
102
RTVSPropertyOp49
 70
     1
102
RTVSPropertyOp50
 70
     1
102
RTVSPropertyOp51
 70
     0
102
RTVSPropertyOp52
 70
     0
102
RTVSPropertyOp53
 70
     1
102
RTVSPropertyOp54
 70
     1
102
RTVSPropertyOp55
 70
     1
102
RTVSPropertyOp56
 70
     1
102
RTVSPropertyOp57
 70
     1
102
RTVSPost2010Prop28
280
     0
102
RTVSPost2010PropOp28
 70
     1
102
RTVSPost2010Prop29
280
     1
102
RTVSPost2010PropOp29
 70
     1
102
RTVSPost2010Prop30
280
     1
102
RTVSPost2010PropOp30
 70
     1
102
RTVSPost2010Prop31
280
     0
102
RTVSPost2010PropOp31
 70
     1
102
RTVSPost2010Prop32
280
     0
102
RTVSPost2010PropOp32
 70
     1
102
RTVSPost2010Prop33
280
     0
102
RTVSPost2010PropOp33
 70
     1
102
RTVSPost2010Prop34
280
     0
102
RTVSPost2010PropOp34
 70
     1
102
RTVSPost2010Prop35
280
     0
102
RTVSPost2010PropOp35
 70
     1
102
RTVSPost2010Prop36
280
     0
102
RTVSPost2010PropOp36
 70
     1
102
RTVSPost2010Prop37
 90
       50
102
RTVSPost2010PropOp37
 70
     1
102
RTVSPost2010Prop38
140
0.0
102
RTVSPost2010PropOp38
 70
     1
102
RTVSPost2010Prop39
140
1.0
102
RTVSPost2010PropOp39
 70
     1
102
RTVSPost2010Prop40
 90
        0
102
RTVSPost2010PropOp40
 70
     1
102
RTVSPost2010Prop41ColorIndex
 90
       18
102
RTVSPost2010Prop41ColorRGB
 90
        0
102
RTVSPost2010PropOp41
 70
     1
102
RTVSPost2010Prop42
 90
       50
102
RTVSPost2010PropOp42
 70
     1
102
RTVSPost2010Prop43
 90
        3
102
RTVSPost2010PropOp43
 70
     1
102
RTVSPost2010Prop44ColorIndex
 90
        5
102
RTVSPost2010Prop44ColorRGB
 90
      255
102
RTVSPost2010PropOp44
 70
     1
102
RTVSPost2010Prop45
280
     0
102
RTVSPost2010PropOp45
 70
     1
102
RTVSPost2010Prop46
 90
       50
102
RTVSPost2010PropOp46
 70
     1
102
RTVSPost2010Prop47
 90
       50
102
RTVSPost2010PropOp47
 70
     1
102
RTVSPost2010Prop48
 90
       50
102
RTVSPost2010PropOp48
 70
     1
102
RTVSPost2010Prop49
280
     0
102
RTVSPost2010PropOp49
 70
     1
102
RTVSPost2010Prop50
 90
       50
102
RTVSPost2010PropOp50
 70
     1
102
RTVSPost2010Prop51ColorIndex
 90
      256
102
RTVSPost2010Prop51ColorRGB
 90
-16777216
102
RTVSPost2010PropOp51
 70
     0
102
RTVSPost2010Prop52
140
1.0
102
RTVSPost2010PropOp52
 70
     0
102
RTVSPost2010Prop53
 90
        2
102
RTVSPost2010PropOp53
 70
     1
102
RTVSPost2010Prop54
  1
strokes_ogs.tif
102
RTVSPost2010PropOp54
 70
     1
102
RTVSPost2010Prop55
280
     0
102
RTVSPost2010PropOp55
 70
     1
102
RTVSPost2010Prop56
140
1.0
102
RTVSPost2010PropOp56
 70
     1
102
RTVSPost2010Prop57
140
1.0
102
RTVSPost2010PropOp57
 70
     1
  0
XRECORD
  5
2F6
102
{ACAD_REACTORS
330
2F5
102
}
330
2F5
100
AcDbXrecord
280
     1
102
RTVSPropertyOp0
 70
     1
102
RTVSPropertyOp1
 70
     1
102
RTVSPropertyOp2
 70
     1
102
RTVSPropertyOp3
 70
     1
102
RTVSPropertyOp4
 70
     1
102
RTVSPropertyOp5
 70
     1
102
RTVSPropertyOp6
 70
     1
102
RTVSPropertyOp7
 70
     1
102
RTVSPropertyOp8
 70
     1
102
RTVSPropertyOp9
 70
     1
102
RTVSPropertyOp10
 70
     1
102
RTVSPropertyOp11
 70
     1
102
RTVSPropertyOp12
 70
     1
102
RTVSPropertyOp13
 70
     1
102
RTVSPropertyOp14
 70
     1
102
RTVSPropertyOp15
 70
     1
102
RTVSPropertyOp16
 70
     1
102
RTVSPropertyOp17
 70
     1
102
RTVSPropertyOp18
 70
     1
102
RTVSPropertyOp19
 70
     1
102
RTVSPropertyOp20
 70
     1
102
RTVSPropertyOp21
 70
     1
102
RTVSPropertyOp22
 70
     1
102
RTVSPropertyOp23
 70
     1
102
RTVSPropertyOp24
 70
     1
102
RTVSPropertyOp25
 70
     1
102
RTVSPropertyOp26
 70
     1
102
RTVSPropertyOp27
 70
     1
102
RTVSPropertyOp28
 70
     1
102
RTVSPropertyOp29
 70
     1
102
RTVSPropertyOp30
 70
     1
102
RTVSPropertyOp31
 70
     1
102
RTVSPropertyOp32
 70
     1
102
RTVSPropertyOp33
 70
     1
102
RTVSPropertyOp34
 70
     1
102
RTVSPropertyOp35
 70
     1
102
RTVSPropertyOp36
 70
     1
102
RTVSPropertyOp37
 70
     1
102
RTVSPropertyOp38
 70
     1
102
RTVSPropertyOp39
 70
     1
102
RTVSPropertyOp40
 70
     1
102
RTVSPropertyOp41
 70
     1
102
RTVSPropertyOp42
 70
     1
102
RTVSPropertyOp43
 70
     1
102
RTVSPropertyOp44
 70
     1
102
RTVSPropertyOp45
 70
     1
102
RTVSPropertyOp46
 70
     1
102
RTVSPropertyOp47
 70
     1
102
RTVSPropertyOp48
 70
     1
102
RTVSPropertyOp49
 70
     1
102
RTVSPropertyOp50
 70
     1
102
RTVSPropertyOp51
 70
     0
102
RTVSPropertyOp52
 70
     0
102
RTVSPropertyOp53
 70
     1
102
RTVSPropertyOp54
 70
     1
102
RTVSPropertyOp55
 70
     1
102
RTVSPropertyOp56
 70
     1
102
RTVSPropertyOp57
 70
     1
102
RTVSPost2010Prop28
280
     0
102
RTVSPost2010PropOp28
 70
     1
102
RTVSPost2010Prop29
280
     1
102
RTVSPost2010PropOp29
 70
     1
102
RTVSPost2010Prop30
280
     1
102
RTVSPost2010PropOp30
 70
     1
102
RTVSPost2010Prop31
280
     0
102
RTVSPost2010PropOp31
 70
     1
102
RTVSPost2010Prop32
280
     0
102
RTVSPost2010PropOp32
 70
     1
102
RTVSPost2010Prop33
280
     0
102
RTVSPost2010PropOp33
 70
     1
102
RTVSPost2010Prop34
280
     0
102
RTVSPost2010PropOp34
 70
     1
102
RTVSPost2010Prop35
280
     0
102
RTVSPost2010PropOp35
 70
     1
102
RTVSPost2010Prop36
280
     0
102
RTVSPost2010PropOp36
 70
     1
102
RTVSPost2010Prop37
 90
       50
102
RTVSPost2010PropOp37
 70
     1
102
RTVSPost2010Prop38
140
0.0
102
RTVSPost2010PropOp38
 70
     1
102
RTVSPost2010Prop39
140
1.0
102
RTVSPost2010PropOp39
 70
     1
102
RTVSPost2010Prop40
 90
        0
102
RTVSPost2010PropOp40
 70
     1
102
RTVSPost2010Prop41ColorIndex
 90
       18
102
RTVSPost2010Prop41ColorRGB
 90
        0
102
RTVSPost2010PropOp41
 70
     1
102
RTVSPost2010Prop42
 90
       50
102
RTVSPost2010PropOp42
 70
     1
102
RTVSPost2010Prop43
 90
        3
102
RTVSPost2010PropOp43
 70
     1
102
RTVSPost2010Prop44ColorIndex
 90
        5
102
RTVSPost2010Prop44ColorRGB
 90
      255
102
RTVSPost2010PropOp44
 70
     1
102
RTVSPost2010Prop45
280
     0
102
RTVSPost2010PropOp45
 70
     1
102
RTVSPost2010Prop46
 90
       50
102
RTVSPost2010PropOp46
 70
     1
102
RTVSPost2010Prop47
 90
       50
102
RTVSPost2010PropOp47
 70
     1
102
RTVSPost2010Prop48
 90
       50
102
RTVSPost2010PropOp48
 70
     1
102
RTVSPost2010Prop49
280
     0
102
RTVSPost2010PropOp49
 70
     1
102
RTVSPost2010Prop50
 90
       50
102
RTVSPost2010PropOp50
 70
     1
102
RTVSPost2010Prop51ColorIndex
 90
      256
102
RTVSPost2010Prop51ColorRGB
 90
-16777216
102
RTVSPost2010PropOp51
 70
     0
102
RTVSPost2010Prop52
140
1.0
102
RTVSPost2010PropOp52
 70
     0
102
RTVSPost2010Prop53
 90
        2
102
RTVSPost2010PropOp53
 70
     1
102
RTVSPost2010Prop54
  1
strokes_ogs.tif
102
RTVSPost2010PropOp54
 70
     1
102
RTVSPost2010Prop55
280
     0
102
RTVSPost2010PropOp55
 70
     1
102
RTVSPost2010Prop56
140
1.0
102
RTVSPost2010PropOp56
 70
     1
102
RTVSPost2010Prop57
140
1.0
102
RTVSPost2010PropOp57
 70
     1
  0
XRECORD
  5
316
102
{ACAD_REACTORS
330
315
102
}
330
315
100
AcDbXrecord
280
     1
102
RTVSPropertyOp0
 70
     1
102
RTVSPropertyOp1
 70
     1
102
RTVSPropertyOp2
 70
     1
102
RTVSPropertyOp3
 70
     1
102
RTVSPropertyOp4
 70
     1
102
RTVSPropertyOp5
 70
     1
102
RTVSPropertyOp6
 70
     1
102
RTVSPropertyOp7
 70
     1
102
RTVSPropertyOp8
 70
     1
102
RTVSPropertyOp9
 70
     1
102
RTVSPropertyOp10
 70
     1
102
RTVSPropertyOp11
 70
     1
102
RTVSPropertyOp12
 70
     1
102
RTVSPropertyOp13
 70
     1
102
RTVSPropertyOp14
 70
     1
102
RTVSPropertyOp15
 70
     1
102
RTVSPropertyOp16
 70
     1
102
RTVSPropertyOp17
 70
     1
102
RTVSPropertyOp18
 70
     1
102
RTVSPropertyOp19
 70
     1
102
RTVSPropertyOp20
 70
     1
102
RTVSPropertyOp21
 70
     1
102
RTVSPropertyOp22
 70
     1
102
RTVSPropertyOp23
 70
     1
102
RTVSPropertyOp24
 70
     1
102
RTVSPropertyOp25
 70
     1
102
RTVSPropertyOp26
 70
     1
102
RTVSPropertyOp27
 70
     1
102
RTVSPropertyOp28
 70
     1
102
RTVSPropertyOp29
 70
     1
102
RTVSPropertyOp30
 70
     1
102
RTVSPropertyOp31
 70
     1
102
RTVSPropertyOp32
 70
     1
102
RTVSPropertyOp33
 70
     1
102
RTVSPropertyOp34
 70
     1
102
RTVSPropertyOp35
 70
     1
102
RTVSPropertyOp36
 70
     1
102
RTVSPropertyOp37
 70
     1
102
RTVSPropertyOp38
 70
     1
102
RTVSPropertyOp39
 70
     1
102
RTVSPropertyOp40
 70
     1
102
RTVSPropertyOp41
 70
     1
102
RTVSPropertyOp42
 70
     1
102
RTVSPropertyOp43
 70
     1
102
RTVSPropertyOp44
 70
     1
102
RTVSPropertyOp45
 70
     1
102
RTVSPropertyOp46
 70
     1
102
RTVSPropertyOp47
 70
     1
102
RTVSPropertyOp48
 70
     1
102
RTVSPropertyOp49
 70
     1
102
RTVSPropertyOp50
 70
     1
102
RTVSPropertyOp51
 70
     0
102
RTVSPropertyOp52
 70
     0
102
RTVSPropertyOp53
 70
     1
102
RTVSPropertyOp54
 70
     1
102
RTVSPropertyOp55
 70
     1
102
RTVSPropertyOp56
 70
     1
102
RTVSPropertyOp57
 70
     1
102
RTVSPost2010Prop28
280
     0
102
RTVSPost2010PropOp28
 70
     1
102
RTVSPost2010Prop29
280
     1
102
RTVSPost2010PropOp29
 70
     1
102
RTVSPost2010Prop30
280
     1
102
RTVSPost2010PropOp30
 70
     1
102
RTVSPost2010Prop31
280
     0
102
RTVSPost2010PropOp31
 70
     1
102
RTVSPost2010Prop32
280
     0
102
RTVSPost2010PropOp32
 70
     1
102
RTVSPost2010Prop33
280
     0
102
RTVSPost2010PropOp33
 70
     1
102
RTVSPost2010Prop34
280
     0
102
RTVSPost2010PropOp34
 70
     1
102
RTVSPost2010Prop35
280
     0
102
RTVSPost2010PropOp35
 70
     1
102
RTVSPost2010Prop36
280
     0
102
RTVSPost2010PropOp36
 70
     1
102
RTVSPost2010Prop37
 90
       50
102
RTVSPost2010PropOp37
 70
     1
102
RTVSPost2010Prop38
140
0.0
102
RTVSPost2010PropOp38
 70
     1
102
RTVSPost2010Prop39
140
1.0
102
RTVSPost2010PropOp39
 70
     1
102
RTVSPost2010Prop40
 90
        0
102
RTVSPost2010PropOp40
 70
     1
102
RTVSPost2010Prop41ColorIndex
 90
       18
102
RTVSPost2010Prop41ColorRGB
 90
        0
102
RTVSPost2010PropOp41
 70
     1
102
RTVSPost2010Prop42
 90
       50
102
RTVSPost2010PropOp42
 70
     1
102
RTVSPost2010Prop43
 90
        3
102
RTVSPost2010PropOp43
 70
     1
102
RTVSPost2010Prop44ColorIndex
 90
        5
102
RTVSPost2010Prop44ColorRGB
 90
      255
102
RTVSPost2010PropOp44
 70
     1
102
RTVSPost2010Prop45
280
     0
102
RTVSPost2010PropOp45
 70
     1
102
RTVSPost2010Prop46
 90
       50
102
RTVSPost2010PropOp46
 70
     1
102
RTVSPost2010Prop47
 90
       50
102
RTVSPost2010PropOp47
 70
     1
102
RTVSPost2010Prop48
 90
       50
102
RTVSPost2010PropOp48
 70
     1
102
RTVSPost2010Prop49
280
     0
102
RTVSPost2010PropOp49
 70
     1
102
RTVSPost2010Prop50
 90
       50
102
RTVSPost2010PropOp50
 70
     1
102
RTVSPost2010Prop51ColorIndex
 90
      256
102
RTVSPost2010Prop51ColorRGB
 90
-16777216
102
RTVSPost2010PropOp51
 70
     0
102
RTVSPost2010Prop52
140
1.0
102
RTVSPost2010PropOp52
 70
     0
102
RTVSPost2010Prop53
 90
        2
102
RTVSPost2010PropOp53
 70
     1
102
RTVSPost2010Prop54
  1
strokes_ogs.tif
102
RTVSPost2010PropOp54
 70
     1
102
RTVSPost2010Prop55
280
     0
102
RTVSPost2010PropOp55
 70
     1
102
RTVSPost2010Prop56
140
1.0
102
RTVSPost2010PropOp56
 70
     1
102
RTVSPost2010Prop57
140
1.0
102
RTVSPost2010PropOp57
 70
     1
  0
ENDSEC
  0
EOF
