  0
SECTION
  2
HEADER
  9
$ACADVER
  1
AC1015
  9
$ACADMAINTVER
 70
     6
  9
$DWGCODEPAGE
  3
ANSI_932
  9
$INSBASE
 10
0.0
 20
0.0
 30
0.0
  9
$EXTMIN
 10
-1.111111164093018
 20
0.0
 30
0.0
  9
$EXTMAX
 10
403.0
 20
284.0
 30
0.0
  9
$LIMMIN
 10
-1.111111164093018
 20
0.0
  9
$LIMMAX
 10
403.0
 20
284.0
  9
$ORTHOMODE
 70
     0
  9
$REGENMODE
 70
     1
  9
$FILLMODE
 70
     1
  9
$QTEXTMODE
 70
     0
  9
$MIRRTEXT
 70
     1
  9
$LTSCALE
 40
1.0
  9
$ATTMODE
 70
     1
  9
$TEXTSIZE
 40
2.5
  9
$TRACEWID
 40
1.0
  9
$TEXTSTYLE
  7
Standard
  9
$CLAYER
  8
0
  9
$CELTYPE
  6
ByLayer
  9
$CECOLOR
 62
   256
  9
$CELTSCALE
 40
1.0
  9
$DISPSILH
 70
     0
  9
$DIMSCALE
 40
1.0
  9
$DIMASZ
 40
2.5
  9
$DIMEXO
 40
0.625
  9
$DIMDLI
 40
3.75
  9
$DIMRND
 40
0.0
  9
$DIMDLE
 40
0.0
  9
$DIMEXE
 40
1.25
  9
$DIMTP
 40
0.0
  9
$DIMTM
 40
0.0
  9
$DIMTXT
 40
2.5
  9
$DIMCEN
 40
2.5
  9
$DIMTSZ
 40
0.0
  9
$DIMTOL
 70
     0
  9
$DIMLIM
 70
     0
  9
$DIMTIH
 70
     0
  9
$DIMTOH
 70
     0
  9
$DIMSE1
 70
     0
  9
$DIMSE2
 70
     0
  9
$DIMTAD
 70
     1
  9
$DIMZIN
 70
     8
  9
$DIMBLK
  1

  9
$DIMASO
 70
     1
  9
$DIMSHO
 70
     1
  9
$DIMPOST
  1

  9
$DIMAPOST
  1

  9
$DIMALT
 70
     0
  9
$DIMALTD
 70
     3
  9
$DIMALTF
 40
0.03937007874016
  9
$DIMLFAC
 40
1.0
  9
$DIMTOFL
 70
     1
  9
$DIMTVP
 40
0.0
  9
$DIMTIX
 70
     0
  9
$DIMSOXD
 70
     0
  9
$DIMSAH
 70
     0
  9
$DIMBLK1
  1

  9
$DIMBLK2
  1

  9
$DIMSTYLE
  2
ISO-25
  9
$DIMCLRD
 70
     0
  9
$DIMCLRE
 70
     0
  9
$DIMCLRT
 70
     0
  9
$DIMTFAC
 40
1.0
  9
$DIMGAP
 40
0.625
  9
$DIMJUST
 70
     0
  9
$DIMSD1
 70
     0
  9
$DIMSD2
 70
     0
  9
$DIMTOLJ
 70
     0
  9
$DIMTZIN
 70
     8
  9
$DIMALTZ
 70
     0
  9
$DIMALTTZ
 70
     0
  9
$DIMUPT
 70
     0
  9
$DIMDEC
 70
     2
  9
$DIMTDEC
 70
     2
  9
$DIMALTU
 70
     2
  9
$DIMALTTD
 70
     3
  9
$DIMTXSTY
  7
Standard
  9
$DIMAUNIT
 70
     0
  9
$DIMADEC
 70
     0
  9
$DIMALTRND
 40
0.0
  9
$DIMAZIN
 70
     0
  9
$DIMDSEP
 70
    44
  9
$DIMATFIT
 70
     3
  9
$DIMFRAC
 70
     0
  9
$DIMLDRBLK
  1

  9
$DIMLUNIT
 70
     2
  9
$DIMLWD
 70
    -2
  9
$DIMLWE
 70
    -2
  9
$DIMTMOVE
 70
     0
  9
$LUNITS
 70
     2
  9
$LUPREC
 70
     4
  9
$SKETCHINC
 40
1.0
  9
$FILLETRAD
 40
10.0
  9
$AUNITS
 70
     0
  9
$AUPREC
 70
     0
  9
$MENU
  1
.
  9
$ELEVATION
 40
0.0
  9
$PELEVATION
 40
0.0
  9
$THICKNESS
 40
0.0
  9
$LIMCHECK
 70
     0
  9
$CHAMFERA
 40
10.0
  9
$CHAMFERB
 40
10.0
  9
$CHAMFERC
 40
20.0
  9
$CHAMFERD
 40
0.0
  9
$SKPOLY
 70
     0
  9
$TDCREATE
 40
2456325.882958808
  9
$TDUCREATE
 40
2456325.507958808
  9
$TDUPDATE
 40
2456325.882960255
  9
$TDUUPDATE
 40
2456325.507960255
  9
$TDINDWG
 40
0.0000000116
  9
$TDUSRTIMER
 40
0.0000000116
  9
$USRTIMER
 70
     1
  9
$ANGBASE
 50
0.0
  9
$ANGDIR
 70
     0
  9
$PDMODE
 70
     0
  9
$PDSIZE
 40
0.0
  9
$PLINEWID
 40
0.0
  9
$SPLFRAME
 70
     0
  9
$SPLINETYPE
 70
     6
  9
$SPLINESEGS
 70
     8
  9
$HANDSEED
  5
563
  9
$SURFTAB1
 70
     6
  9
$SURFTAB2
 70
     6
  9
$SURFTYPE
 70
     6
  9
$SURFU
 70
     6
  9
$SURFV
 70
     6
  9
$UCSBASE
  2

  9
$UCSNAME
  2

  9
$UCSORG
 10
0.0
 20
0.0
 30
0.0
  9
$UCSXDIR
 10
1.0
 20
0.0
 30
0.0
  9
$UCSYDIR
 10
0.0
 20
1.0
 30
0.0
  9
$UCSORTHOREF
  2

  9
$UCSORTHOVIEW
 70
     0
  9
$UCSORGTOP
 10
0.0
 20
0.0
 30
0.0
  9
$UCSORGBOTTOM
 10
0.0
 20
0.0
 30
0.0
  9
$UCSORGLEFT
 10
0.0
 20
0.0
 30
0.0
  9
$UCSORGRIGHT
 10
0.0
 20
0.0
 30
0.0
  9
$UCSORGFRONT
 10
0.0
 20
0.0
 30
0.0
  9
$UCSORGBACK
 10
0.0
 20
0.0
 30
0.0
  9
$PUCSBASE
  2

  9
$PUCSNAME
  2

  9
$PUCSORG
 10
0.0
 20
0.0
 30
0.0
  9
$PUCSXDIR
 10
1.0
 20
0.0
 30
0.0
  9
$PUCSYDIR
 10
0.0
 20
1.0
 30
0.0
  9
$PUCSORTHOREF
  2

  9
$PUCSORTHOVIEW
 70
     0
  9
$PUCSORGTOP
 10
0.0
 20
0.0
 30
0.0
  9
$PUCSORGBOTTOM
 10
0.0
 20
0.0
 30
0.0
  9
$PUCSORGLEFT
 10
0.0
 20
0.0
 30
0.0
  9
$PUCSORGRIGHT
 10
0.0
 20
0.0
 30
0.0
  9
$PUCSORGFRONT
 10
0.0
 20
0.0
 30
0.0
  9
$PUCSORGBACK
 10
0.0
 20
0.0
 30
0.0
  9
$USERI1
 70
     0
  9
$USERI2
 70
     0
  9
$USERI3
 70
     0
  9
$USERI4
 70
     0
  9
$USERI5
 70
     0
  9
$USERR1
 40
0.0
  9
$USERR2
 40
0.0
  9
$USERR3
 40
0.0
  9
$USERR4
 40
0.0
  9
$USERR5
 40
0.0
  9
$WORLDVIEW
 70
     1
  9
$SHADEDGE
 70
     3
  9
$SHADEDIF
 70
    70
  9
$TILEMODE
 70
     1
  9
$MAXACTVP
 70
    64
  9
$PINSBASE
 10
0.0
 20
0.0
 30
0.0
  9
$PLIMCHECK
 70
     0
  9
$PEXTMIN
 10
1.000000000000000E+20
 20
1.000000000000000E+20
 30
1.000000000000000E+20
  9
$PEXTMAX
 10
-1.000000000000000E+20
 20
-1.000000000000000E+20
 30
-1.000000000000000E+20
  9
$PLIMMIN
 10
-1.111111164093018
 20
0.0
  9
$PLIMMAX
 10
403.0
 20
284.0
  9
$UNITMODE
 70
     0
  9
$VISRETAIN
 70
     1
  9
$PLINEGEN
 70
     0
  9
$PSLTSCALE
 70
     1
  9
$TREEDEPTH
 70
  3020
  9
$CMLSTYLE
  2
Standard
  9
$CMLJUST
 70
     0
  9
$CMLSCALE
 40
20.0
  9
$PROXYGRAPHICS
 70
     1
  9
$MEASUREMENT
 70
     1
  9
$CELWEIGHT
370
    -1
  9
$ENDCAPS
280
     0
  9
$JOINSTYLE
280
     0
  9
$LWDISPLAY
290
     0
  9
$INSUNITS
 70
     4
  9
$HYPERLINKBASE
  1

  9
$STYLESHEET
  1

  9
$XEDIT
290
     1
  9
$CEPSNTYPE
380
     0
  9
$PSTYLEMODE
290
     1
  9
$FINGERPRINTGUID
  2
{5F26E33D-B6ED-4E79-A897-E6126AA03ACD}
  9
$VERSIONGUID
  2
{FAEB1C32-E019-11D5-929B-00C0DF256EC4}
  9
$EXTNAMES
290
     1
  9
$PSVPSCALE
 40
0.0
  9
$OLESTARTUP
290
     0
  0
ENDSEC
  0
SECTION
  2
CLASSES
  0
CLASS
  1
ACDBDICTIONARYWDFLT
  2
AcDbDictionaryWithDefault
  3
ObjectDBX Classes
 90
        0
280
     0
281
     0
  0
CLASS
  1
VISUALSTYLE
  2
AcDbVisualStyle
  3
ObjectDBX Classes
 90
     4095
280
     0
281
     0
  0
CLASS
  1
MATERIAL
  2
AcDbMaterial
  3
ObjectDBX Classes
 90
     1153
280
     0
281
     0
  0
CLASS
  1
SUN
  2
AcDbSun
  3
SCENEOE
 90
     1024
280
     0
281
     0
  0
CLASS
  1
DICTIONARYVAR
  2
AcDbDictionaryVar
  3
ObjectDBX Classes
 90
        0
280
     0
281
     0
  0
CLASS
  1
ACDBPLACEHOLDER
  2
AcDbPlaceHolder
  3
ObjectDBX Classes
 90
        0
280
     0
281
     0
  0
CLASS
  1
LAYOUT
  2
AcDbLayout
  3
ObjectDBX Classes
 90
        0
280
     0
281
     0
  0
ENDSEC
  0
SECTION
  2
TABLES
  0
TABLE
  2
VPORT
  5
8
330
0
100
AcDbSymbolTable
 70
     1
  0
VPORT
  5
29
330
8
100
AcDbSymbolTableRecord
100
AcDbViewportTableRecord
  2
*Active
 70
     0
 10
0.0
 20
0.0
 11
1.0
 21
1.0
 12
344.1869158878504
 22
148.5
 13
0.0
 23
0.0
 14
10.0
 24
10.0
 15
10.0
 25
10.0
 16
0.0
 26
0.0
 36
1.0
 17
0.0
 27
0.0
 37
0.0
 40
297.0
 41
1.972972972850329
 42
50.0
 43
0.0
 44
0.0
 50
0.0
 51
0.0
 71
     0
 72
   100
 73
     1
 74
     3
 75
     0
 76
     0
 77
     0
 78
     0
281
     0
 65
     1
110
0.0
120
0.0
130
0.0
111
1.0
121
0.0
131
0.0
112
0.0
122
1.0
132
0.0
 79
     0
146
0.0
  0
ENDTAB
  0
TABLE
  2
LTYPE
  5
5
330
0
100
AcDbSymbolTable
 70
     5
  0
LTYPE
  5
14
330
5
100
AcDbSymbolTableRecord
100
AcDbLinetypeTableRecord
  2
ByBlock
 70
     0
  3

 72
    65
 73
     0
 40
0.0
  0
LTYPE
  5
15
330
5
100
AcDbSymbolTableRecord
100
AcDbLinetypeTableRecord
  2
ByLayer
 70
     0
  3

 72
    65
 73
     0
 40
0.0
  0
LTYPE
  5
16
330
5
100
AcDbSymbolTableRecord
100
AcDbLinetypeTableRecord
  2
Continuous
 70
     0
  3
Solid line
 72
    65
 73
     0
 40
0.0
  0
LTYPE
  5
40
330
5
100
AcDbSymbolTableRecord
100
AcDbLinetypeTableRecord
  2
CONTINOUS
 70
     0
  3
______________________________
 72
    65
 73
     0
 40
0.0
  0
LTYPE
  5
41
330
5
100
AcDbSymbolTableRecord
100
AcDbLinetypeTableRecord
  2
DASHED
 70
     0
  3
__ __ __ __ __ __ __ __ __ __ __ __ __ __ __ __
 72
    65
 73
     2
 40
4.5
 49
3.0
 74
     0
 49
-1.5
 74
     0
  0
LTYPE
  5
42
330
5
100
AcDbSymbolTableRecord
100
AcDbLinetypeTableRecord
  2
PHANTOM
 70
     0
  3
______  __  __  ______  __  __  _____
 72
    65
 73
     6
 40
15.0
 49
7.5
 74
     0
 49
-1.5
 74
     0
 49
1.5
 74
     0
 49
-1.5
 74
     0
 49
1.5
 74
     0
 49
-1.5
 74
     0
  0
LTYPE
  5
43
330
5
100
AcDbSymbolTableRecord
100
AcDbLinetypeTableRecord
  2
CENTER
 70
     0
  3
____ _ ____ _ ____ _ ____ _ ____ _ ____
 72
    65
 73
     4
 40
12.0
 49
7.5
 74
     0
 49
-1.5
 74
     0
 49
1.5
 74
     0
 49
-1.5
 74
     0
  0
ENDTAB
  0
TABLE
  2
LAYER
  5
2
330
0
100
AcDbSymbolTable
 70
     2
  0
LAYER
  5
10
330
2
100
AcDbSymbolTableRecord
100
AcDbLayerTableRecord
  2
0
 70
     0
 62
     7
  6
Continuous
370
    -3
390
F
  0
LAYER
  5
380
330
2
100
AcDbSymbolTableRecord
100
AcDbLayerTableRecord
  2
Defpoints
 70
     0
 62
     7
  6
Continuous
290
     0
370
    -3
390
F
  0
ENDTAB
  0
TABLE
  2
STYLE
  5
3
330
0
100
AcDbSymbolTable
 70
     1
  0
STYLE
  5
11
330
3
100
AcDbSymbolTableRecord
100
AcDbTextStyleTableRecord
  2
Standard
 70
     0
 40
0.0
 41
1.0
 50
0.0
 71
     0
 42
2.5
  3
ROMANS
  4
EXTFONT
  0
ENDTAB
  0
TABLE
  2
VIEW
  5
6
330
0
100
AcDbSymbolTable
 70
     0
  0
ENDTAB
  0
TABLE
  2
UCS
  5
7
330
0
100
AcDbSymbolTable
 70
     0
  0
ENDTAB
  0
TABLE
  2
APPID
  5
9
330
0
100
AcDbSymbolTable
 70
     1
  0
APPID
  5
12
330
9
100
AcDbSymbolTableRecord
100
AcDbRegAppTableRecord
  2
ACAD
 70
     0
  0
ENDTAB
  0
TABLE
  2
DIMSTYLE
  5
A
330
0
100
AcDbSymbolTable
 70
     1
100
AcDbDimStyleTable
  0
DIMSTYLE
105
27
102
{ACAD_REACTORS
330
379
330
38C
330
399
330
3CA
330
3D7
330
3E3
330
3EF
330
3FB
330
411
330
427
330
433
330
444
330
451
330
45C
330
467
330
474
330
480
330
48C
330
4FB
330
508
330
515
330
529
102
}
330
A
100
AcDbSymbolTableRecord
100
AcDbDimStyleTableRecord
  2
ISO-25
 70
     0
 41
2.5
 42
0.625
 43
3.75
 44
1.25
 73
     0
 74
     0
 77
     1
 78
     8
140
2.5
141
2.5
143
0.03937007874016
147
0.625
171
     3
172
     1
178
     0
271
     2
272
     2
274
     3
278
    44
283
     0
284
     8
340
11
  0
ENDTAB
  0
TABLE
  2
BLOCK_RECORD
  5
1
330
0
100
AcDbSymbolTable
 70
    41
  0
BLOCK_RECORD
  5
1F
330
1
100
AcDbSymbolTableRecord
100
AcDbBlockTableRecord
  2
*Model_Space
340
22
  0
BLOCK_RECORD
  5
1B
330
1
100
AcDbSymbolTableRecord
100
AcDbBlockTableRecord
  2
*Paper_Space
340
1E
  0
BLOCK_RECORD
  5
23
330
1
100
AcDbSymbolTableRecord
100
AcDbBlockTableRecord
  2
*Paper_Space0
340
26
  0
BLOCK_RECORD
  5
44
330
1
100
AcDbSymbolTableRecord
100
AcDbBlockTableRecord
  2
DTL0001
340
0
102
{BLKREFS
331
367
331
368
331
369
331
36A
331
36B
331
36C
331
36D
331
36E
331
36F
331
370
331
371
331
372
331
373
331
374
331
375
331
376
331
377
331
378
102
}
  0
BLOCK_RECORD
  5
37A
330
1
100
AcDbSymbolTableRecord
100
AcDbBlockTableRecord
  2
_OPEN
340
0
102
{BLKREFS
331
387
331
386
331
394
331
393
331
3A1
331
3A0
331
3D2
331
3D1
331
3DE
331
3DD
331
3EA
331
3E9
331
3F6
331
3F5
331
0
331
0
331
0
331
42E
331
42D
331
0
331
44C
331
44B
331
457
331
456
331
462
331
461
331
46F
331
46E
331
47B
331
47A
331
487
331
486
331
493
331
492
331
503
331
502
331
510
331
50F
331
0
331
0
331
531
331
530
102
}
  0
BLOCK_RECORD
  5
381
330
1
100
AcDbSymbolTableRecord
100
AcDbBlockTableRecord
  2
*D3
340
0
  0
BLOCK_RECORD
  5
38D
330
1
100
AcDbSymbolTableRecord
100
AcDbBlockTableRecord
  2
*D4
340
0
  0
BLOCK_RECORD
  5
39A
330
1
100
AcDbSymbolTableRecord
100
AcDbBlockTableRecord
  2
*D5
340
0
  0
BLOCK_RECORD
  5
3A6
330
1
100
AcDbSymbolTableRecord
100
AcDbBlockTableRecord
  2
SYM0001
340
0
102
{BLKREFS
331
3AC
102
}
  0
BLOCK_RECORD
  5
3AF
330
1
100
AcDbSymbolTableRecord
100
AcDbBlockTableRecord
  2
SYM0002
340
0
102
{BLKREFS
331
3B5
102
}
  0
BLOCK_RECORD
  5
3B8
330
1
100
AcDbSymbolTableRecord
100
AcDbBlockTableRecord
  2
SYM0003
340
0
102
{BLKREFS
331
3BE
102
}
  0
BLOCK_RECORD
  5
3C1
330
1
100
AcDbSymbolTableRecord
100
AcDbBlockTableRecord
  2
SYM0004
340
0
102
{BLKREFS
331
3C7
102
}
  0
BLOCK_RECORD
  5
3CB
330
1
100
AcDbSymbolTableRecord
100
AcDbBlockTableRecord
  2
*D10
340
0
  0
BLOCK_RECORD
  5
3D8
330
1
100
AcDbSymbolTableRecord
100
AcDbBlockTableRecord
  2
*D11
340
0
  0
BLOCK_RECORD
  5
3E4
330
1
100
AcDbSymbolTableRecord
100
AcDbBlockTableRecord
  2
*D12
340
0
  0
BLOCK_RECORD
  5
3F0
330
1
100
AcDbSymbolTableRecord
100
AcDbBlockTableRecord
  2
*D13
340
0
  0
BLOCK_RECORD
  5
3FC
330
1
100
AcDbSymbolTableRecord
100
AcDbBlockTableRecord
  2
*D14
340
0
  0
BLOCK_RECORD
  5
412
330
1
100
AcDbSymbolTableRecord
100
AcDbBlockTableRecord
  2
_NONE
340
0
102
{BLKREFS
331
0
331
0
102
}
  0
BLOCK_RECORD
  5
415
330
1
100
AcDbSymbolTableRecord
100
AcDbBlockTableRecord
  2
*D16
340
0
  0
BLOCK_RECORD
  5
428
330
1
100
AcDbSymbolTableRecord
100
AcDbBlockTableRecord
  2
*D17
340
0
  0
BLOCK_RECORD
  5
434
330
1
100
AcDbSymbolTableRecord
100
AcDbBlockTableRecord
  2
*D18
340
0
  0
BLOCK_RECORD
  5
445
330
1
100
AcDbSymbolTableRecord
100
AcDbBlockTableRecord
  2
*D19
340
0
  0
BLOCK_RECORD
  5
452
330
1
100
AcDbSymbolTableRecord
100
AcDbBlockTableRecord
  2
*D20
340
0
  0
BLOCK_RECORD
  5
45D
330
1
100
AcDbSymbolTableRecord
100
AcDbBlockTableRecord
  2
*D21
340
0
  0
BLOCK_RECORD
  5
468
330
1
100
AcDbSymbolTableRecord
100
AcDbBlockTableRecord
  2
*D22
340
0
  0
BLOCK_RECORD
  5
475
330
1
100
AcDbSymbolTableRecord
100
AcDbBlockTableRecord
  2
*D23
340
0
  0
BLOCK_RECORD
  5
481
330
1
100
AcDbSymbolTableRecord
100
AcDbBlockTableRecord
  2
*D24
340
0
  0
BLOCK_RECORD
  5
48D
330
1
100
AcDbSymbolTableRecord
100
AcDbBlockTableRecord
  2
*D25
340
0
  0
BLOCK_RECORD
  5
498
330
1
100
AcDbSymbolTableRecord
100
AcDbBlockTableRecord
  2
SYM0005
340
0
102
{BLKREFS
331
49E
102
}
  0
BLOCK_RECORD
  5
4A1
330
1
100
AcDbSymbolTableRecord
100
AcDbBlockTableRecord
  2
SYM0006
340
0
102
{BLKREFS
331
4A7
102
}
  0
BLOCK_RECORD
  5
4AA
330
1
100
AcDbSymbolTableRecord
100
AcDbBlockTableRecord
  2
SYM0007
340
0
102
{BLKREFS
331
4B0
102
}
  0
BLOCK_RECORD
  5
4B3
330
1
100
AcDbSymbolTableRecord
100
AcDbBlockTableRecord
  2
SYM0008
340
0
102
{BLKREFS
331
4B9
102
}
  0
BLOCK_RECORD
  5
4BC
330
1
100
AcDbSymbolTableRecord
100
AcDbBlockTableRecord
  2
SYM0009
340
0
102
{BLKREFS
331
4C2
102
}
  0
BLOCK_RECORD
  5
4C5
330
1
100
AcDbSymbolTableRecord
100
AcDbBlockTableRecord
  2
SYM0010
340
0
102
{BLKREFS
331
4CB
102
}
  0
BLOCK_RECORD
  5
4CE
330
1
100
AcDbSymbolTableRecord
100
AcDbBlockTableRecord
  2
SYM0011
340
0
102
{BLKREFS
331
4D4
102
}
  0
BLOCK_RECORD
  5
4D7
330
1
100
AcDbSymbolTableRecord
100
AcDbBlockTableRecord
  2
SYM0012
340
0
102
{BLKREFS
331
4DD
102
}
  0
BLOCK_RECORD
  5
4E0
330
1
100
AcDbSymbolTableRecord
100
AcDbBlockTableRecord
  2
SYM0013
340
0
102
{BLKREFS
331
4E6
102
}
  0
BLOCK_RECORD
  5
4E9
330
1
100
AcDbSymbolTableRecord
100
AcDbBlockTableRecord
  2
SYM0014
340
0
102
{BLKREFS
331
4EF
102
}
  0
BLOCK_RECORD
  5
4F2
330
1
100
AcDbSymbolTableRecord
100
AcDbBlockTableRecord
  2
SYM0015
340
0
102
{BLKREFS
331
4F8
102
}
  0
BLOCK_RECORD
  5
4FC
330
1
100
AcDbSymbolTableRecord
100
AcDbBlockTableRecord
  2
*D37
340
0
  0
BLOCK_RECORD
  5
509
330
1
100
AcDbSymbolTableRecord
100
AcDbBlockTableRecord
  2
*D38
340
0
  0
BLOCK_RECORD
  5
516
330
1
100
AcDbSymbolTableRecord
100
AcDbBlockTableRecord
  2
*D39
340
0
  0
BLOCK_RECORD
  5
52A
330
1
100
AcDbSymbolTableRecord
100
AcDbBlockTableRecord
  2
*D40
340
0
  0
ENDTAB
  0
ENDSEC
  0
SECTION
  2
BLOCKS
  0
BLOCK
  5
20
330
1F
100
AcDbEntity
  8
0
100
AcDbBlockBegin
  2
*Model_Space
 70
     0
 10
0.0
 20
0.0
 30
0.0
  3
*Model_Space
  1

  0
ENDBLK
  5
21
330
1F
100
AcDbEntity
  8
0
100
AcDbBlockEnd
  0
BLOCK
  5
1C
330
1B
100
AcDbEntity
 67
     1
  8
0
100
AcDbBlockBegin
  2
*Paper_Space
 70
     0
 10
0.0
 20
0.0
 30
0.0
  3
*Paper_Space
  1

  0
ENDBLK
  5
1D
330
1B
100
AcDbEntity
 67
     1
  8
0
100
AcDbBlockEnd
  0
BLOCK
  5
24
330
23
100
AcDbEntity
  8
0
100
AcDbBlockBegin
  2
*Paper_Space0
 70
     0
 10
0.0
 20
0.0
 30
0.0
  3
*Paper_Space0
  1

  0
ENDBLK
  5
25
330
23
100
AcDbEntity
  8
0
100
AcDbBlockEnd
  0
BLOCK
  5
45
330
44
100
AcDbEntity
  8
0
100
AcDbBlockBegin
  2
DTL0001
 70
     0
 10
0.0
 20
0.0
 30
0.0
  3
DTL0001
  1

  0
POINT
  5
47
330
44
100
AcDbEntity
  8
0
 62
     0
100
AcDbPoint
 10
0.0
 20
0.0
 30
0.0
  0
LINE
  5
48
330
44
100
AcDbEntity
  8
0
  6
CENTER
 62
     0
100
AcDbLine
 10
6.039999999999964
 20
0.0
 30
0.0
 11
-6.039999999999964
 21
0.0
 31
0.0
  0
LINE
  5
49
330
44
100
AcDbEntity
  8
0
  6
CENTER
 62
     0
100
AcDbLine
 10
0.0
 20
6.039999999999964
 30
0.0
 11
0.0
 21
-6.039999999999964
 31
0.0
  0
CIRCLE
  5
4A
330
44
100
AcDbEntity
  8
0
  6
Continuous
 62
     0
100
AcDbCircle
 10
0.0
 20
0.0
 30
0.0
 40
3.5
  0
ENDBLK
  5
46
330
44
100
AcDbEntity
  8
0
100
AcDbBlockEnd
  0
BLOCK
  5
37B
330
37A
100
AcDbEntity
  8
0
100
AcDbBlockBegin
  2
_OPEN
 70
     0
 10
0.0
 20
0.0
 30
0.0
  3
_OPEN
  1

  0
LINE
  5
37D
330
37A
100
AcDbEntity
  8
0
  6
ByBlock
 62
     0
370
    -2
100
AcDbLine
 10
-1.0
 20
0.166667
 30
0.0
 11
0.0
 21
0.0
 31
0.0
  0
LINE
  5
37E
330
37A
100
AcDbEntity
  8
0
  6
ByBlock
 62
     0
370
    -2
100
AcDbLine
 10
-1.0
 20
-0.166667
 30
0.0
 11
0.0
 21
0.0
 31
0.0
  0
LINE
  5
37F
330
37A
100
AcDbEntity
  8
0
  6
ByBlock
 62
     0
370
    -2
100
AcDbLine
 10
0.0
 20
0.0
 30
0.0
 11
-1.0
 21
0.0
 31
0.0
  0
ENDBLK
  5
37C
330
37A
100
AcDbEntity
  8
0
100
AcDbBlockEnd
  0
BLOCK
  5
382
330
381
100
AcDbEntity
  8
0
100
AcDbBlockBegin
  2
*D3
 70
     1
 10
0.0
 20
0.0
 30
0.0
  3
*D3
  1

  0
LINE
  5
384
330
381
100
AcDbEntity
  8
0
 62
     0
370
    -2
100
AcDbLine
 10
122.9446613724829
 20
217.7769881569795
 30
0.0
 11
143.588771501326
 21
217.7769881569795
 31
0.0
  0
LINE
  5
385
330
381
100
AcDbEntity
  8
0
 62
     0
370
    -2
100
AcDbLine
 10
141.6837625778899
 20
229.662987933462
 30
0.0
 11
141.6837625778899
 21
220.8909881569795
 31
0.0
  0
INSERT
  5
386
330
381
100
AcDbEntity
  8
0
 62
     0
370
    -2
100
AcDbBlockReference
  2
_OPEN
 10
141.6837625778899
 20
232.776987933462
 30
0.0
 41
3.114
 42
3.114
 43
3.114
 50
90.0
  0
INSERT
  5
387
330
381
100
AcDbEntity
  8
0
 62
     0
370
    -2
100
AcDbBlockReference
  2
_OPEN
 10
141.6837625778899
 20
217.7769881569795
 30
0.0
 41
3.114
 42
3.114
 43
3.114
 50
270.0
  0
MTEXT
  5
388
330
381
100
AcDbEntity
  8
0
 62
     0
100
AcDbMText
 10
139.6587625421271
 20
225.2780007608781
 30
0.0
 40
2.700000047683716
 41
0.0
 71
     5
 72
     1
  1
180
 11
0.0
 21
1.0
 31
0.0
 73
     1
 44
1.0
  0
POINT
  5
389
330
381
100
AcDbEntity
  8
Defpoints
 62
     0
100
AcDbPoint
 10
124.9879945568046
 20
232.776987933462
 30
0.0
  0
POINT
  5
38A
330
381
100
AcDbEntity
  8
Defpoints
 62
     0
100
AcDbPoint
 10
120.4046613724829
 20
217.7769881569795
 30
0.0
  0
POINT
  5
38B
330
381
100
AcDbEntity
  8
Defpoints
 62
     0
100
AcDbPoint
 10
141.6827625778899
 20
217.7769881569795
 30
0.0
  0
ENDBLK
  5
383
330
381
100
AcDbEntity
  8
0
100
AcDbBlockEnd
  0
BLOCK
  5
38E
330
38D
100
AcDbEntity
  8
0
100
AcDbBlockBegin
  2
*D4
 70
     1
 10
0.0
 20
0.0
 30
0.0
  3
*D4
  1

  0
LINE
  5
390
330
38D
100
AcDbEntity
  8
0
 62
     0
370
    -2
100
AcDbLine
 10
122.9446613724829
 20
232.776987933462
 30
0.0
 11
155.9453387000113
 21
232.776987933462
 31
0.0
  0
LINE
  5
391
330
38D
100
AcDbEntity
  8
0
 62
     0
370
    -2
100
AcDbLine
 10
122.9446613724829
 20
97.77700266077613
 30
0.0
 11
155.9453387000113
 21
97.77700266077609
 31
0.0
  0
LINE
  5
392
330
38D
100
AcDbEntity
  8
0
 62
     0
370
    -2
100
AcDbLine
 10
154.0403297765752
 20
229.662987933462
 30
0.0
 11
154.0403297765752
 21
100.8910026607761
 31
0.0
  0
INSERT
  5
393
330
38D
100
AcDbEntity
  8
0
 62
     0
370
    -2
100
AcDbBlockReference
  2
_OPEN
 10
154.0403297765752
 20
232.776987933462
 30
0.0
 41
3.114
 42
3.114
 43
3.114
 50
90.00000000000001
  0
INSERT
  5
394
330
38D
100
AcDbEntity
  8
0
 62
     0
370
    -2
100
AcDbBlockReference
  2
_OPEN
 10
154.0403297765752
 20
97.77700266077609
 30
0.0
 41
3.114
 42
3.114
 43
3.114
 50
270.0
  0
MTEXT
  5
395
330
38D
100
AcDbEntity
  8
0
 62
     0
100
AcDbMText
 10
152.0153297408124
 20
165.2780016549478
 30
0.0
 40
2.700000047683716
 41
0.0
 71
     5
 72
     1
  1
（端子板または試験弾器）　１６２０　（１８０×９）
 11
-4.210624078661212E-16
 21
1.0
 31
0.0
 73
     1
 44
1.0
  0
POINT
  5
396
330
38D
100
AcDbEntity
  8
Defpoints
 62
     0
100
AcDbPoint
 10
120.4046613724829
 20
232.776987933462
 30
0.0
  0
POINT
  5
397
330
38D
100
AcDbEntity
  8
Defpoints
 62
     0
100
AcDbPoint
 10
120.4046613724829
 20
97.77700266077613
 30
0.0
  0
POINT
  5
398
330
38D
100
AcDbEntity
  8
Defpoints
 62
     0
100
AcDbPoint
 10
154.0393297765752
 20
97.77700266077615
 30
0.0
  0
ENDBLK
  5
38F
330
38D
100
AcDbEntity
  8
0
100
AcDbBlockEnd
  0
BLOCK
  5
39B
330
39A
100
AcDbEntity
  8
0
100
AcDbBlockBegin
  2
*D5
 70
     1
 10
0.0
 20
0.0
 30
0.0
  3
*D5
  1

  0
LINE
  5
39D
330
39A
100
AcDbEntity
  8
0
 62
     0
370
    -2
100
AcDbLine
 10
115.8284199427304
 20
78.6103235640577
 30
0.0
 11
180.0531996281961
 21
78.61032356405765
 31
0.0
  0
LINE
  5
39E
330
39A
100
AcDbEntity
  8
0
 62
     0
370
    -2
100
AcDbLine
 10
136.0396267135
 20
245.2769877471975
 30
0.0
 11
180.0531996281962
 21
245.2769877471975
 31
0.0
  0
LINE
  5
39F
330
39A
100
AcDbEntity
  8
0
 62
     0
370
    -2
100
AcDbLine
 10
180.0531869125388
 20
81.72432356405766
 30
0.0
 11
180.0531869125388
 21
242.1629877471975
 31
0.0
  0
INSERT
  5
3A0
330
39A
100
AcDbEntity
  8
0
 62
     0
370
    -2
100
AcDbBlockReference
  2
_OPEN
 10
180.0531869125388
 20
78.61032356405765
 30
0.0
 41
3.114
 42
3.114
 43
3.114
 50
270.0
  0
INSERT
  5
3A1
330
39A
100
AcDbEntity
  8
0
 62
     0
370
    -2
100
AcDbBlockReference
  2
_OPEN
 10
180.0531869125388
 20
245.2769877471975
 30
0.0
 41
3.114
 42
3.114
 43
3.114
 50
90.0
  0
MTEXT
  5
3A2
330
39A
100
AcDbEntity
  8
0
 62
     0
100
AcDbMText
 10
178.028186876776
 20
161.9446556556276
 30
0.0
 40
2.700000047683716
 41
0.0
 71
     5
 72
     1
  1
2000
 11
1.705302591235229E-16
 21
1.0
 31
0.0
 73
     1
 44
1.0
  0
POINT
  5
3A3
330
39A
100
AcDbEntity
  8
Defpoints
 62
     0
100
AcDbPoint
 10
113.2884199427304
 20
78.6103235640577
 30
0.0
  0
POINT
  5
3A4
330
39A
100
AcDbEntity
  8
Defpoints
 62
     0
100
AcDbPoint
 10
133.4996267135
 20
245.2769877471975
 30
0.0
  0
POINT
  5
3A5
330
39A
100
AcDbEntity
  8
Defpoints
 62
     0
100
AcDbPoint
 10
180.0531869125388
 20
245.2769877471975
 30
0.0
  0
ENDBLK
  5
39C
330
39A
100
AcDbEntity
  8
0
100
AcDbBlockEnd
  0
BLOCK
  5
3AD
330
3A6
100
AcDbEntity
  8
0
100
AcDbBlockBegin
  2
SYM0001
 70
     0
 10
0.0
 20
0.0
 30
0.0
  3
SYM0001
  1

  0
LINE
  5
3A7
330
3A6
100
AcDbEntity
  8
0
  6
Continuous
 62
     7
100
AcDbLine
 10
0.0
 20
0.0
 30
0.0
 11
6.357294516044021
 21
6.745020232495307
 31
0.0
  0
LINE
  5
3A8
330
3A6
100
AcDbEntity
  8
0
  6
Continuous
 62
     7
100
AcDbLine
 10
0.0
 20
0.0
 30
0.0
 11
1.736321226411746
 21
2.642647460164142
 31
0.0
  0
LINE
  5
3A9
330
3A6
100
AcDbEntity
  8
0
  6
Continuous
 62
     7
100
AcDbLine
 10
0.0
 20
0.0
 30
0.0
 11
2.535350140120727
 21
1.889549329070292
 31
0.0
  0
LINE
  5
3AA
330
3A6
100
AcDbEntity
  8
0
  6
Continuous
 62
     7
100
AcDbLine
 10
6.357294516044021
 20
6.745020232495307
 30
0.0
 11
22.20749773531634
 21
6.74502023249525
 31
0.0
  0
MTEXT
  5
3AB
330
3A6
100
AcDbEntity
  8
0
 62
     7
100
AcDbMText
 10
7.574338687767749
 20
7.420015486819665
 30
0.0
 40
2.700000047683716
 41
0.0
 71
     7
 72
     1
  1
{\W0.833333;\Q15;方向板13}
 73
     1
 44
1.0
  0
ENDBLK
  5
3AE
330
3A6
100
AcDbEntity
  8
0
100
AcDbBlockEnd
  0
BLOCK
  5
3B6
330
3AF
100
AcDbEntity
  8
0
100
AcDbBlockBegin
  2
SYM0002
 70
     0
 10
0.0
 20
0.0
 30
0.0
  3
SYM0002
  1

  0
LINE
  5
3B0
330
3AF
100
AcDbEntity
  8
0
  6
Continuous
 62
     7
100
AcDbLine
 10
0.0
 20
0.0
 30
0.0
 11
8.247809342959584
 21
-3.90207922236101
 31
0.0
  0
LINE
  5
3B1
330
3AF
100
AcDbEntity
  8
0
  6
Continuous
 62
     7
100
AcDbLine
 10
0.0
 20
0.0
 30
0.0
 11
3.049654744748011
 21
-0.835465701172666
 31
0.0
  0
LINE
  5
3B2
330
3AF
100
AcDbEntity
  8
0
  6
Continuous
 62
     7
100
AcDbLine
 10
0.0
 20
0.0
 30
0.0
 11
2.580085581625781
 21
-1.827992174897531
 31
0.0
  0
LINE
  5
3B3
330
3AF
100
AcDbEntity
  8
0
  6
Continuous
 62
     7
100
AcDbLine
 10
8.247809342959613
 20
-3.90207922236101
 30
0.0
 11
25.24168833917048
 21
-3.90207922236101
 31
0.0
  0
MTEXT
  5
3B4
330
3AF
100
AcDbEntity
  8
0
 62
     7
100
AcDbMText
 10
10.60852929162189
 20
-3.227079210440024
 30
0.0
 40
2.700000047683716
 41
0.0
 71
     7
 72
     1
  1
{\W0.833333;\Q15;方向板１３}
 73
     1
 44
1.0
  0
ENDBLK
  5
3B7
330
3AF
100
AcDbEntity
  8
0
100
AcDbBlockEnd
  0
BLOCK
  5
3BF
330
3B8
100
AcDbEntity
  8
0
100
AcDbBlockBegin
  2
SYM0003
 70
     0
 10
0.0
 20
0.0
 30
0.0
  3
SYM0003
  1

  0
LINE
  5
3B9
330
3B8
100
AcDbEntity
  8
0
  6
Continuous
 62
     7
100
AcDbLine
 10
0.0
 20
0.0
 30
0.0
 11
11.05587610782607
 21
9.328907281516962
 31
0.0
  0
LINE
  5
3BA
330
3B8
100
AcDbEntity
  8
0
  6
Continuous
 62
     7
100
AcDbLine
 10
0.0
 20
0.0
 30
0.0
 11
2.025903884328869
 21
2.427778913216997
 31
0.0
  0
LINE
  5
3BB
330
3B8
100
AcDbEntity
  8
0
  6
Continuous
 62
     7
100
AcDbLine
 10
0.0
 20
0.0
 30
0.0
 11
2.733994868211681
 21
1.588606011757548
 31
0.0
  0
LINE
  5
3BC
330
3B8
100
AcDbEntity
  8
0
  6
Continuous
 62
     7
100
AcDbLine
 10
11.05587610782604
 20
9.328907281516962
 30
0.0
 11
36.14976866333069
 21
9.328907281516962
 31
0.0
  0
MTEXT
  5
3BD
330
3B8
100
AcDbEntity
  8
0
 62
     7
100
AcDbMText
 10
13.41660965154486
 20
10.00390729343792
 30
0.0
 40
2.700000047683716
 41
0.0
 71
     7
 72
     1
  1
{\W0.833333;\Q15;19号配線輪１６}
 73
     1
 44
1.0
  0
ENDBLK
  5
3C0
330
3B8
100
AcDbEntity
  8
0
100
AcDbBlockEnd
  0
BLOCK
  5
3C8
330
3C1
100
AcDbEntity
  8
0
100
AcDbBlockBegin
  2
SYM0004
 70
     0
 10
0.0
 20
0.0
 30
0.0
  3
SYM0004
  1

  0
LINE
  5
3C2
330
3C1
100
AcDbEntity
  8
0
  6
Continuous
 62
     7
100
AcDbLine
 10
0.0
 20
0.0
 30
0.0
 11
11.05319348544396
 21
7.122814750352489
 31
0.0
  0
LINE
  5
3C3
330
3C1
100
AcDbEntity
  8
0
  6
Continuous
 62
     7
100
AcDbLine
 10
0.0
 20
0.0
 30
0.0
 11
2.320192838489618
 21
2.148278890698691
 31
0.0
  0
LINE
  5
3C4
330
3C1
100
AcDbEntity
  8
0
  6
Continuous
 62
     7
100
AcDbLine
 10
0.0
 20
0.0
 30
0.0
 11
2.914959994448793
 21
1.225318420151723
 31
0.0
  0
LINE
  5
3C5
330
3C1
100
AcDbEntity
  8
0
  6
Continuous
 62
     7
100
AcDbLine
 10
11.05319348544396
 20
7.122814750352489
 30
0.0
 11
44.89744655489221
 21
7.122814750352489
 31
0.0
  0
MTEXT
  5
3C6
330
3C1
100
AcDbEntity
  8
0
 62
     7
100
AcDbMText
 10
14.0642875788692
 20
7.797814762273447
 30
0.0
 40
2.700000047683716
 41
0.0
 71
     7
 72
     1
  1
{\W0.833333;\Q15;Ｔ型端子板取付金具14}
 73
     1
 44
1.0
  0
ENDBLK
  5
3C9
330
3C1
100
AcDbEntity
  8
0
100
AcDbBlockEnd
  0
BLOCK
  5
3CC
330
3CB
100
AcDbEntity
  8
0
100
AcDbBlockBegin
  2
*D10
 70
     1
 10
0.0
 20
0.0
 30
0.0
  3
*D10
  1

  0
LINE
  5
3CE
330
3CB
100
AcDbEntity
  8
0
 62
     0
370
    -2
100
AcDbLine
 10
227.9479980709951
 20
245.2769877471975
 30
0.0
 11
202.406383627556
 21
245.2769877471975
 31
0.0
  0
LINE
  5
3CF
330
3CB
100
AcDbEntity
  8
0
 62
     0
370
    -2
100
AcDbLine
 10
227.9479980709951
 20
229.7769956075599
 30
0.0
 11
202.406383627556
 21
229.7769956075599
 31
0.0
  0
LINE
  5
3D0
330
3CB
100
AcDbEntity
  8
0
 62
     0
370
    -2
100
AcDbLine
 10
203.9063836052043
 20
242.1629877471975
 30
0.0
 11
203.9063836052043
 21
232.8909956075599
 31
0.0
  0
INSERT
  5
3D1
330
3CB
100
AcDbEntity
  8
0
 62
     0
370
    -2
100
AcDbBlockReference
  2
_OPEN
 10
203.9063836052043
 20
245.2769877471975
 30
0.0
 41
3.114
 42
3.114
 43
3.114
 50
90.0
  0
INSERT
  5
3D2
330
3CB
100
AcDbEntity
  8
0
 62
     0
370
    -2
100
AcDbBlockReference
  2
_OPEN
 10
203.9063836052043
 20
229.7769956075599
 30
0.0
 41
3.114
 42
3.114
 43
3.114
 50
270.0
  0
MTEXT
  5
3D3
330
3CB
100
AcDbEntity
  8
0
 62
     0
100
AcDbMText
 10
201.8813835694415
 20
237.5279916773788
 30
0.0
 40
2.700000047683716
 41
0.0
 71
     5
 72
     1
  1
186
 11
0.0
 21
1.0
 31
0.0
 73
     1
 44
1.0
  0
POINT
  5
3D4
330
3CB
100
AcDbEntity
  8
Defpoints
 62
     0
100
AcDbPoint
 10
230.487998070995
 20
245.2769877471975
 30
0.0
  0
POINT
  5
3D5
330
3CB
100
AcDbEntity
  8
Defpoints
 62
     0
100
AcDbPoint
 10
230.487998070995
 20
229.7769956075599
 30
0.0
  0
POINT
  5
3D6
330
3CB
100
AcDbEntity
  8
Defpoints
 62
     0
100
AcDbPoint
 10
203.9043836052043
 20
229.7769956075599
 30
0.0
  0
ENDBLK
  5
3CD
330
3CB
100
AcDbEntity
  8
0
100
AcDbBlockEnd
  0
BLOCK
  5
3D9
330
3D8
100
AcDbEntity
  8
0
100
AcDbBlockBegin
  2
*D11
 70
     1
 10
0.0
 20
0.0
 30
0.0
  3
*D11
  1

  0
LINE
  5
3DB
330
3D8
100
AcDbEntity
  8
0
 62
     0
370
    -2
100
AcDbLine
 10
227.9479980709951
 20
161.0269966320148
 30
0.0
 11
202.406383627556
 21
161.0269966320148
 31
0.0
  0
LINE
  5
3DC
330
3D8
100
AcDbEntity
  8
0
 62
     0
370
    -2
100
AcDbLine
 10
203.9063836052043
 20
226.6629956075599
 30
0.0
 11
203.9063836052043
 21
164.1409966320148
 31
0.0
  0
INSERT
  5
3DD
330
3D8
100
AcDbEntity
  8
0
 62
     0
370
    -2
100
AcDbBlockReference
  2
_OPEN
 10
203.9063836052043
 20
229.7769956075599
 30
0.0
 41
3.114
 42
3.114
 43
3.114
 50
90.00000000000001
  0
INSERT
  5
3DE
330
3D8
100
AcDbEntity
  8
0
 62
     0
370
    -2
100
AcDbBlockReference
  2
_OPEN
 10
203.9063836052043
 20
161.0269966320148
 30
0.0
 41
3.114
 42
3.114
 43
3.114
 50
270.0
  0
MTEXT
  5
3DF
330
3D8
100
AcDbEntity
  8
0
 62
     0
100
AcDbMText
 10
201.8813835694415
 20
195.4029961197874
 30
0.0
 40
2.700000047683716
 41
0.0
 71
     5
 72
     1
  1
825
 11
-4.134066887842980E-16
 21
1.0
 31
0.0
 73
     1
 44
1.0
  0
POINT
  5
3E0
330
3D8
100
AcDbEntity
  8
Defpoints
 62
     0
100
AcDbPoint
 10
231.4463263037852
 20
229.7769956075599
 30
0.0
  0
POINT
  5
3E1
330
3D8
100
AcDbEntity
  8
Defpoints
 62
     0
100
AcDbPoint
 10
230.487998070995
 20
161.0269966320148
 30
0.0
  0
POINT
  5
3E2
330
3D8
100
AcDbEntity
  8
Defpoints
 62
     0
100
AcDbPoint
 10
203.9043836052043
 20
161.0269966320148
 30
0.0
  0
ENDBLK
  5
3DA
330
3D8
100
AcDbEntity
  8
0
100
AcDbBlockEnd
  0
BLOCK
  5
3E5
330
3E4
100
AcDbEntity
  8
0
100
AcDbBlockBegin
  2
*D12
 70
     1
 10
0.0
 20
0.0
 30
0.0
  3
*D12
  1

  0
LINE
  5
3E7
330
3E4
100
AcDbEntity
  8
0
 62
     0
370
    -2
100
AcDbLine
 10
227.9479980709951
 20
106.0269974515786
 30
0.0
 11
202.406383627556
 21
106.0269974515786
 31
0.0
  0
LINE
  5
3E8
330
3E4
100
AcDbEntity
  8
0
 62
     0
370
    -2
100
AcDbLine
 10
203.9063836052043
 20
157.9129966320147
 30
0.0
 11
203.9063836052043
 21
109.1409974515786
 31
0.0
  0
INSERT
  5
3E9
330
3E4
100
AcDbEntity
  8
0
 62
     0
370
    -2
100
AcDbBlockReference
  2
_OPEN
 10
203.9063836052043
 20
161.0269966320147
 30
0.0
 41
3.114
 42
3.114
 43
3.114
 50
90.00000000000004
  0
INSERT
  5
3EA
330
3E4
100
AcDbEntity
  8
0
 62
     0
370
    -2
100
AcDbBlockReference
  2
_OPEN
 10
203.9063836052043
 20
106.0269974515786
 30
0.0
 41
3.114
 42
3.114
 43
3.114
 50
270.0000000000001
  0
MTEXT
  5
3EB
330
3E4
100
AcDbEntity
  8
0
 62
     0
100
AcDbMText
 10
201.8813835694415
 20
133.5279970417967
 30
0.0
 40
2.700000047683716
 41
0.0
 71
     5
 72
     1
  1
660
 11
-5.167583609803724E-16
 21
1.0
 31
0.0
 73
     1
 44
1.0
  0
POINT
  5
3EC
330
3E4
100
AcDbEntity
  8
Defpoints
 62
     0
100
AcDbPoint
 10
231.4463263037852
 20
161.0269966320148
 30
0.0
  0
POINT
  5
3ED
330
3E4
100
AcDbEntity
  8
Defpoints
 62
     0
100
AcDbPoint
 10
230.487998070995
 20
106.0269974515786
 30
0.0
  0
POINT
  5
3EE
330
3E4
100
AcDbEntity
  8
Defpoints
 62
     0
100
AcDbPoint
 10
203.9043836052043
 20
106.0269974515786
 30
0.0
  0
ENDBLK
  5
3E6
330
3E4
100
AcDbEntity
  8
0
100
AcDbBlockEnd
  0
BLOCK
  5
3F1
330
3F0
100
AcDbEntity
  8
0
100
AcDbBlockBegin
  2
*D13
 70
     1
 10
0.0
 20
0.0
 30
0.0
  3
*D13
  1

  0
LINE
  5
3F3
330
3F0
100
AcDbEntity
  8
0
 62
     0
370
    -2
100
AcDbLine
 10
227.6160558355442
 20
78.6103235640577
 30
0.0
 11
180.1813982526164
 21
78.61032356405767
 31
0.0
  0
LINE
  5
3F4
330
3F0
100
AcDbEntity
  8
0
 62
     0
370
    -2
100
AcDbLine
 10
203.9063836052043
 20
102.9129974515786
 30
0.0
 11
203.9063836052043
 21
81.72432356405768
 31
0.0
  0
INSERT
  5
3F5
330
3F0
100
AcDbEntity
  8
0
 62
     0
370
    -2
100
AcDbBlockReference
  2
_OPEN
 10
203.9063836052043
 20
106.0269974515786
 30
0.0
 41
3.114
 42
3.114
 43
3.114
 50
90.0
  0
INSERT
  5
3F6
330
3F0
100
AcDbEntity
  8
0
 62
     0
370
    -2
100
AcDbBlockReference
  2
_OPEN
 10
203.9063836052043
 20
78.61032356405768
 30
0.0
 41
3.114
 42
3.114
 43
3.114
 50
270.0
  0
MTEXT
  5
3F7
330
3F0
100
AcDbEntity
  8
0
 62
     0
100
AcDbMText
 10
201.8813835694415
 20
92.31966050781814
 30
0.0
 40
2.700000047683716
 41
0.0
 71
     5
 72
     1
  1
329
 11
0.0
 21
1.0
 31
0.0
 73
     1
 44
1.0
  0
POINT
  5
3F8
330
3F0
100
AcDbEntity
  8
Defpoints
 62
     0
100
AcDbPoint
 10
231.4463263037852
 20
106.0269974515786
 30
0.0
  0
POINT
  5
3F9
330
3F0
100
AcDbEntity
  8
Defpoints
 62
     0
100
AcDbPoint
 10
230.1560558355442
 20
78.6103235640577
 30
0.0
  0
POINT
  5
3FA
330
3F0
100
AcDbEntity
  8
Defpoints
 62
     0
100
AcDbPoint
 10
203.9043836052043
 20
78.61032356405768
 30
0.0
  0
ENDBLK
  5
3F2
330
3F0
100
AcDbEntity
  8
0
100
AcDbBlockEnd
  0
BLOCK
  5
3FD
330
3FC
100
AcDbEntity
  8
0
100
AcDbBlockBegin
  2
*D14
 70
     1
 10
0.0
 20
0.0
 30
0.0
  3
*D14
  1

  0
MTEXT
  5
406
330
3FC
100
AcDbEntity
  8
0
 62
     0
100
AcDbMText
 10
221.232619613707
 20
69.65871857948028
 30
0.0
 40
2.700000047683716
 41
0.0
 71
     5
 72
     1
  1
40
 73
     1
 44
1.0
  0
POINT
  5
407
330
3FC
100
AcDbEntity
  8
Defpoints
 62
     0
100
AcDbPoint
 10
230.3213339499434
 20
78.61032356405768
 30
0.0
  0
POINT
  5
408
330
3FC
100
AcDbEntity
  8
Defpoints
 62
     0
100
AcDbPoint
 10
233.6546672336061
 20
78.61032356405768
 30
0.0
  0
POINT
  5
409
330
3FC
100
AcDbEntity
  8
Defpoints
 62
     0
100
AcDbPoint
 10
233.6546672336061
 20
67.63271854371749
 30
0.0
  0
LINE
  5
40A
330
3FC
100
AcDbEntity
  8
0
  6
Continuous
 62
     7
100
AcDbLine
 10
233.6546672336061
 20
76.07032356405767
 30
0.0
 11
233.6546672336061
 21
65.83271854371748
 31
0.0
  0
LINE
  5
40B
330
3FC
100
AcDbEntity
  8
0
  6
Continuous
 62
     7
100
AcDbLine
 10
223.9713339499434
 20
67.63271854371749
 30
0.0
 11
240.0046672336061
 21
67.63271854371749
 31
0.0
  0
LINE
  5
40C
330
3FC
100
AcDbEntity
  8
0
  6
Continuous
 62
     7
100
AcDbLine
 10
230.3213339499434
 20
67.63271854371749
 30
0.0
 11
227.2073339499433
 21
67.08371854371748
 31
0.0
  0
LINE
  5
40D
330
3FC
100
AcDbEntity
  8
0
  6
Continuous
 62
     7
100
AcDbLine
 10
230.3213339499434
 20
67.63271854371749
 30
0.0
 11
227.2073339499433
 21
68.1817185437175
 31
0.0
  0
LINE
  5
40E
330
3FC
100
AcDbEntity
  8
0
  6
Continuous
 62
     7
100
AcDbLine
 10
233.6546672336061
 20
67.63271854371749
 30
0.0
 11
236.7686672336062
 21
68.1817185437175
 31
0.0
  0
LINE
  5
40F
330
3FC
100
AcDbEntity
  8
0
  6
Continuous
 62
     7
100
AcDbLine
 10
233.6546672336061
 20
67.63271854371749
 30
0.0
 11
236.7686672336062
 21
67.08371854371748
 31
0.0
  0
LINE
  5
410
330
3FC
100
AcDbEntity
  8
0
  6
Continuous
 62
     7
100
AcDbLine
 10
230.3213339499434
 20
67.63271854371749
 30
0.0
 11
224.8108020257191
 21
67.63271854371749
 31
0.0
  0
ENDBLK
  5
3FE
330
3FC
100
AcDbEntity
  8
0
100
AcDbBlockEnd
  0
BLOCK
  5
413
330
412
100
AcDbEntity
  8
0
100
AcDbBlockBegin
  2
_NONE
 70
     0
 10
0.0
 20
0.0
 30
0.0
  3
_NONE
  1

  0
ENDBLK
  5
414
330
412
100
AcDbEntity
  8
0
100
AcDbBlockEnd
  0
BLOCK
  5
416
330
415
100
AcDbEntity
  8
0
100
AcDbBlockBegin
  2
*D16
 70
     1
 10
0.0
 20
0.0
 30
0.0
  3
*D16
  1

  0
MTEXT
  5
41E
330
415
100
AcDbEntity
  8
0
 62
     0
100
AcDbMText
 10
75.739757017841
 20
61.73204798735109
 30
0.0
 40
2.700000047683716
 41
0.0
 71
     5
 72
     1
  1
19
 73
     1
 44
1.0
  0
POINT
  5
41F
330
415
100
AcDbEntity
  8
Defpoints
 62
     0
100
AcDbPoint
 10
84.57132849239315
 20
78.61032356405768
 30
0.0
  0
POINT
  5
420
330
415
100
AcDbEntity
  8
Defpoints
 62
     0
100
AcDbPoint
 10
86.15465671587003
 20
78.61032356405768
 30
0.0
  0
POINT
  5
421
330
415
100
AcDbEntity
  8
Defpoints
 62
     0
100
AcDbPoint
 10
86.15465671587003
 20
59.7060479515883
 30
0.0
  0
LINE
  5
422
330
415
100
AcDbEntity
  8
0
  6
Continuous
 62
     7
100
AcDbLine
 10
86.15465671587003
 20
76.07032356405767
 30
0.0
 11
86.15465671587003
 21
57.90604795158831
 31
0.0
  0
LINE
  5
423
330
415
100
AcDbEntity
  8
0
  6
Continuous
 62
     7
100
AcDbLine
 10
78.22132849239318
 20
59.7060479515883
 30
0.0
 11
86.15465671587006
 21
59.7060479515883
 31
0.0
  0
LINE
  5
424
330
415
100
AcDbEntity
  8
0
  6
Continuous
 62
     7
100
AcDbLine
 10
84.57132849239318
 20
59.7060479515883
 30
0.0
 11
81.45732849239317
 21
59.1570479515883
 31
0.0
  0
LINE
  5
425
330
415
100
AcDbEntity
  8
0
  6
Continuous
 62
     7
100
AcDbLine
 10
84.57132849239318
 20
59.7060479515883
 30
0.0
 11
81.45732849239317
 21
60.2550479515883
 31
0.0
  0
LINE
  5
426
330
415
100
AcDbEntity
  8
0
  6
Continuous
 62
     7
100
AcDbLine
 10
84.57132849239318
 20
59.7060479515883
 30
0.0
 11
77.49589333221047
 21
59.7060479515883
 31
0.0
  0
ENDBLK
  5
417
330
415
100
AcDbEntity
  8
0
100
AcDbBlockEnd
  0
BLOCK
  5
429
330
428
100
AcDbEntity
  8
0
100
AcDbBlockBegin
  2
*D17
 70
     1
 10
0.0
 20
0.0
 30
0.0
  3
*D17
  1

  0
LINE
  5
42B
330
428
100
AcDbEntity
  8
0
 62
     0
370
    -2
100
AcDbLine
 10
112.1546665009658
 20
76.07032356405767
 30
0.0
 11
112.1546665009658
 21
57.80204856489527
 31
0.0
  0
LINE
  5
42C
330
428
100
AcDbEntity
  8
0
 62
     0
370
    -2
100
AcDbLine
 10
89.26865671587004
 20
59.7070479515883
 30
0.0
 11
109.0406665009658
 21
59.7070479515883
 31
0.0
  0
INSERT
  5
42D
330
428
100
AcDbEntity
  8
0
 62
     0
370
    -2
100
AcDbBlockReference
  2
_OPEN
 10
86.15465671587003
 20
59.7070479515883
 30
0.0
 41
3.114
 42
3.114
 43
3.114
 50
180.0
  0
INSERT
  5
42E
330
428
100
AcDbEntity
  8
0
 62
     0
370
    -2
100
AcDbBlockReference
  2
_OPEN
 10
112.1546665009658
 20
59.7070479515883
 30
0.0
 41
3.114
 42
3.114
 43
3.114
  0
MTEXT
  5
42F
330
428
100
AcDbEntity
  8
0
 62
     0
100
AcDbMText
 10
99.15566160841789
 20
61.73204798735109
 30
0.0
 40
2.700000047683716
 41
0.0
 71
     5
 72
     1
  1
312
 73
     1
 44
1.0
  0
POINT
  5
430
330
428
100
AcDbEntity
  8
Defpoints
 62
     0
100
AcDbPoint
 10
86.15465671587003
 20
78.61032356405768
 30
0.0
  0
POINT
  5
431
330
428
100
AcDbEntity
  8
Defpoints
 62
     0
100
AcDbPoint
 10
112.1546665009658
 20
78.61032356405768
 30
0.0
  0
POINT
  5
432
330
428
100
AcDbEntity
  8
Defpoints
 62
     0
100
AcDbPoint
 10
112.1546665009658
 20
59.7060479515883
 30
0.0
  0
ENDBLK
  5
42A
330
428
100
AcDbEntity
  8
0
100
AcDbBlockEnd
  0
BLOCK
  5
435
330
434
100
AcDbEntity
  8
0
100
AcDbBlockBegin
  2
*D18
 70
     1
 10
0.0
 20
0.0
 30
0.0
  3
*D18
  1

  0
MTEXT
  5
43C
330
434
100
AcDbEntity
  8
0
 62
     0
100
AcDbMText
 10
122.5695661989948
 20
61.73204798735109
 30
0.0
 40
2.700000047683716
 41
0.0
 71
     5
 72
     1
  1
19
 73
     1
 44
1.0
  0
POINT
  5
43D
330
434
100
AcDbEntity
  8
Defpoints
 62
     0
100
AcDbPoint
 10
112.1546665009658
 20
78.61032356405768
 30
0.0
  0
POINT
  5
43E
330
434
100
AcDbEntity
  8
Defpoints
 62
     0
100
AcDbPoint
 10
113.7379947244426
 20
78.61032356405768
 30
0.0
  0
POINT
  5
43F
330
434
100
AcDbEntity
  8
Defpoints
 62
     0
100
AcDbPoint
 10
113.7379947244426
 20
59.7060479515883
 30
0.0
  0
LINE
  5
440
330
434
100
AcDbEntity
  8
0
  6
Continuous
 62
     7
100
AcDbLine
 10
112.1546665009658
 20
59.7060479515883
 30
0.0
 11
120.0879947244426
 21
59.7060479515883
 31
0.0
  0
LINE
  5
441
330
434
100
AcDbEntity
  8
0
  6
Continuous
 62
     7
100
AcDbLine
 10
113.7379947244426
 20
59.7060479515883
 30
0.0
 11
116.8519947244426
 21
60.2550479515883
 31
0.0
  0
LINE
  5
442
330
434
100
AcDbEntity
  8
0
  6
Continuous
 62
     7
100
AcDbLine
 10
113.7379947244426
 20
59.7060479515883
 30
0.0
 11
116.8519947244426
 21
59.1570479515883
 31
0.0
  0
LINE
  5
443
330
434
100
AcDbEntity
  8
0
  6
Continuous
 62
     7
100
AcDbLine
 10
113.7379947244426
 20
59.7060479515883
 30
0.0
 11
120.1956015246911
 21
59.7060479515883
 31
0.0
  0
ENDBLK
  5
436
330
434
100
AcDbEntity
  8
0
100
AcDbBlockEnd
  0
BLOCK
  5
446
330
445
100
AcDbEntity
  8
0
100
AcDbBlockBegin
  2
*D19
 70
     1
 10
0.0
 20
0.0
 30
0.0
  3
*D19
  1

  0
LINE
  5
448
330
445
100
AcDbEntity
  8
0
 62
     0
370
    -2
100
AcDbLine
 10
113.7379947244426
 20
76.07032356405767
 30
0.0
 11
113.7379947244426
 21
47.54140301530952
 31
0.0
  0
LINE
  5
449
330
445
100
AcDbEntity
  8
0
 62
     0
370
    -2
100
AcDbLine
 10
84.57132849239315
 20
76.07032356405767
 30
0.0
 11
84.57132849239315
 21
47.54140301530952
 31
0.0
  0
LINE
  5
44A
330
445
100
AcDbEntity
  8
0
 62
     0
370
    -2
100
AcDbLine
 10
110.6239947244426
 20
49.34140301530952
 30
0.0
 11
87.68532849239315
 21
49.34140301530952
 31
0.0
  0
INSERT
  5
44B
330
445
100
AcDbEntity
  8
0
 62
     0
370
    -2
100
AcDbBlockReference
  2
_OPEN
 10
113.7379947244426
 20
49.34140301530952
 30
0.0
 41
3.114
 42
3.114
 43
3.114
  0
INSERT
  5
44C
330
445
100
AcDbEntity
  8
0
 62
     0
370
    -2
100
AcDbBlockReference
  2
_OPEN
 10
84.57132849239315
 20
49.34140301530952
 30
0.0
 41
3.114
 42
3.114
 43
3.114
 50
180.0
  0
MTEXT
  5
44D
330
445
100
AcDbEntity
  8
0
 62
     0
100
AcDbMText
 10
99.15666160841792
 20
51.3664030510723
 30
0.0
 40
2.700000047683716
 41
0.0
 71
     5
 72
     1
  1
350
 73
     1
 44
1.0
  0
POINT
  5
44E
330
445
100
AcDbEntity
  8
Defpoints
 62
     0
100
AcDbPoint
 10
113.7379947244426
 20
78.61032356405768
 30
0.0
  0
POINT
  5
44F
330
445
100
AcDbEntity
  8
Defpoints
 62
     0
100
AcDbPoint
 10
84.57132849239315
 20
78.61032356405768
 30
0.0
  0
POINT
  5
450
330
445
100
AcDbEntity
  8
Defpoints
 62
     0
100
AcDbPoint
 10
84.57132849239315
 20
49.34040301530952
 30
0.0
  0
ENDBLK
  5
447
330
445
100
AcDbEntity
  8
0
100
AcDbBlockEnd
  0
BLOCK
  5
453
330
452
100
AcDbEntity
  8
0
100
AcDbBlockBegin
  2
*D20
 70
     1
 10
0.0
 20
0.0
 30
0.0
  3
*D20
  1

  0
LINE
  5
455
330
452
100
AcDbEntity
  8
0
 62
     0
370
    -2
100
AcDbLine
 10
154.0413297765752
 20
242.1629877471975
 30
0.0
 11
154.0413297765752
 21
235.890987933462
 31
0.0
  0
INSERT
  5
456
330
452
100
AcDbEntity
  8
0
 62
     0
370
    -2
100
AcDbBlockReference
  2
_OPEN
 10
154.0413297765752
 20
245.2769877471975
 30
0.0
 41
3.114
 42
3.114
 43
3.114
 50
90.0
  0
INSERT
  5
457
330
452
100
AcDbEntity
  8
0
 62
     0
370
    -2
100
AcDbBlockReference
  2
_OPEN
 10
154.0413297765752
 20
232.776987933462
 30
0.0
 41
3.114
 42
3.114
 43
3.114
 50
270.0
  0
MTEXT
  5
458
330
452
100
AcDbEntity
  8
0
 62
     0
100
AcDbMText
 10
152.0163297408124
 20
239.0279941981585
 30
0.0
 40
2.700000047683716
 41
0.0
 71
     5
 72
     1
  1
150
 11
0.0
 21
1.0
 31
0.0
 73
     1
 44
1.0
  0
POINT
  5
459
330
452
100
AcDbEntity
  8
Defpoints
 62
     0
100
AcDbPoint
 10
133.4996267135
 20
245.2769877471975
 30
0.0
  0
POINT
  5
45A
330
452
100
AcDbEntity
  8
Defpoints
 62
     0
100
AcDbPoint
 10
155.9443387000113
 20
232.776987933462
 30
0.0
  0
POINT
  5
45B
330
452
100
AcDbEntity
  8
Defpoints
 62
     0
100
AcDbPoint
 10
154.0393297765752
 20
232.776987933462
 30
0.0
  0
ENDBLK
  5
454
330
452
100
AcDbEntity
  8
0
100
AcDbBlockEnd
  0
BLOCK
  5
45E
330
45D
100
AcDbEntity
  8
0
100
AcDbBlockBegin
  2
*D21
 70
     1
 10
0.0
 20
0.0
 30
0.0
  3
*D21
  1

  0
LINE
  5
460
330
45D
100
AcDbEntity
  8
0
 62
     0
370
    -2
100
AcDbLine
 10
154.0413297765752
 20
94.66300266077613
 30
0.0
 11
154.0413297765752
 21
81.7243235640577
 31
0.0
  0
INSERT
  5
461
330
45D
100
AcDbEntity
  8
0
 62
     0
370
    -2
100
AcDbBlockReference
  2
_OPEN
 10
154.0413297765752
 20
97.77700266077613
 30
0.0
 41
3.114
 42
3.114
 43
3.114
 50
90.0
  0
INSERT
  5
462
330
45D
100
AcDbEntity
  8
0
 62
     0
370
    -2
100
AcDbBlockReference
  2
_OPEN
 10
154.0413297765752
 20
78.6103235640577
 30
0.0
 41
3.114
 42
3.114
 43
3.114
 50
270.0
  0
MTEXT
  5
463
330
45D
100
AcDbEntity
  8
0
 62
     0
100
AcDbMText
 10
152.0163297408124
 20
88.1946631124169
 30
0.0
 40
2.700000047683716
 41
0.0
 71
     5
 72
     1
  1
230
 11
0.0
 21
1.0
 31
0.0
 73
     1
 44
1.0
  0
POINT
  5
464
330
45D
100
AcDbEntity
  8
Defpoints
 62
     0
100
AcDbPoint
 10
155.9443387000113
 20
97.77700266077613
 30
0.0
  0
POINT
  5
465
330
45D
100
AcDbEntity
  8
Defpoints
 62
     0
100
AcDbPoint
 10
128.5713176642162
 20
78.6103235640577
 30
0.0
  0
POINT
  5
466
330
45D
100
AcDbEntity
  8
Defpoints
 62
     0
100
AcDbPoint
 10
154.0393297765752
 20
78.61032356405771
 30
0.0
  0
ENDBLK
  5
45F
330
45D
100
AcDbEntity
  8
0
100
AcDbBlockEnd
  0
BLOCK
  5
469
330
468
100
AcDbEntity
  8
0
100
AcDbBlockBegin
  2
*D22
 70
     1
 10
0.0
 20
0.0
 30
0.0
  3
*D22
  1

  0
LINE
  5
46B
330
468
100
AcDbEntity
  8
0
 62
     0
370
    -2
100
AcDbLine
 10
81.76465572618461
 20
245.2769877471975
 30
0.0
 11
57.99869815108135
 21
245.2769877471975
 31
0.0
  0
LINE
  5
46C
330
468
100
AcDbEntity
  8
0
 62
     0
370
    -2
100
AcDbLine
 10
82.03132849239317
 20
231.9436546125463
 30
0.0
 11
57.99869815108136
 21
231.9436546125463
 31
0.0
  0
LINE
  5
46D
330
468
100
AcDbEntity
  8
0
 62
     0
370
    -2
100
AcDbLine
 10
59.90370707451738
 20
242.1629877471975
 30
0.0
 11
59.90370707451739
 21
235.0576546125463
 31
0.0
  0
INSERT
  5
46E
330
468
100
AcDbEntity
  8
0
 62
     0
370
    -2
100
AcDbBlockReference
  2
_OPEN
 10
59.90370707451738
 20
245.2769877471975
 30
0.0
 41
3.114
 42
3.114
 43
3.114
 50
90.00000000000004
  0
INSERT
  5
46F
330
468
100
AcDbEntity
  8
0
 62
     0
370
    -2
100
AcDbBlockReference
  2
_OPEN
 10
59.90370707451739
 20
231.9436546125463
 30
0.0
 41
3.114
 42
3.114
 43
3.114
 50
270.0000000000001
  0
MTEXT
  5
470
330
468
100
AcDbEntity
  8
0
 62
     0
100
AcDbMText
 10
57.8787070387546
 20
238.6113275377006
 30
0.0
 40
2.700000047683716
 41
0.0
 71
     5
 72
     1
  1
160
 11
-5.329070597610091E-16
 21
1.0
 31
0.0
 73
     1
 44
1.0
  0
POINT
  5
471
330
468
100
AcDbEntity
  8
Defpoints
 62
     0
100
AcDbPoint
 10
84.30465572618462
 20
245.2769877471975
 30
0.0
  0
POINT
  5
472
330
468
100
AcDbEntity
  8
Defpoints
 62
     0
100
AcDbPoint
 10
84.57132849239318
 20
231.9436546125463
 30
0.0
  0
POINT
  5
473
330
468
100
AcDbEntity
  8
Defpoints
 62
     0
100
AcDbPoint
 10
59.90170707451739
 20
231.9436546125463
 30
0.0
  0
ENDBLK
  5
46A
330
468
100
AcDbEntity
  8
0
100
AcDbBlockEnd
  0
BLOCK
  5
476
330
475
100
AcDbEntity
  8
0
100
AcDbBlockBegin
  2
*D23
 70
     1
 10
0.0
 20
0.0
 30
0.0
  3
*D23
  1

  0
LINE
  5
478
330
475
100
AcDbEntity
  8
0
 62
     0
370
    -2
100
AcDbLine
 10
82.03132849239317
 20
108.193656456565
 30
0.0
 11
57.99869815108138
 21
108.193656456565
 31
0.0
  0
LINE
  5
479
330
475
100
AcDbEntity
  8
0
 62
     0
370
    -2
100
AcDbLine
 10
59.90370707451736
 20
228.8296546125463
 30
0.0
 11
59.90370707451741
 21
111.307656456565
 31
0.0
  0
INSERT
  5
47A
330
475
100
AcDbEntity
  8
0
 62
     0
370
    -2
100
AcDbBlockReference
  2
_OPEN
 10
59.90370707451736
 20
231.9436546125463
 30
0.0
 41
3.114
 42
3.114
 43
3.114
 50
90.00000000000001
  0
INSERT
  5
47B
330
475
100
AcDbEntity
  8
0
 62
     0
370
    -2
100
AcDbBlockReference
  2
_OPEN
 10
59.90370707451741
 20
108.193656456565
 30
0.0
 41
3.114
 42
3.114
 43
3.114
 50
270.0
  0
MTEXT
  5
47C
330
475
100
AcDbEntity
  8
0
 62
     0
100
AcDbMText
 10
57.8787070387546
 20
170.0696618923844
 30
0.0
 40
2.700000047683716
 41
0.0
 71
     5
 72
     1
  1
１４８５　（１６５×９）
 11
-4.019231696514007E-16
 21
1.0
 31
0.0
 73
     1
 44
1.0
  0
POINT
  5
47D
330
475
100
AcDbEntity
  8
Defpoints
 62
     0
100
AcDbPoint
 10
84.57132849239318
 20
231.9436546125463
 30
0.0
  0
POINT
  5
47E
330
475
100
AcDbEntity
  8
Defpoints
 62
     0
100
AcDbPoint
 10
84.57132849239318
 20
108.193656456565
 30
0.0
  0
POINT
  5
47F
330
475
100
AcDbEntity
  8
Defpoints
 62
     0
100
AcDbPoint
 10
59.90170707451739
 20
108.193656456565
 30
0.0
  0
ENDBLK
  5
477
330
475
100
AcDbEntity
  8
0
100
AcDbBlockEnd
  0
BLOCK
  5
482
330
481
100
AcDbEntity
  8
0
100
AcDbBlockBegin
  2
*D24
 70
     1
 10
0.0
 20
0.0
 30
0.0
  3
*D24
  1

  0
LINE
  5
484
330
481
100
AcDbEntity
  8
0
 62
     0
370
    -2
100
AcDbLine
 10
80.19798501385274
 20
78.6103235640577
 30
0.0
 11
57.99869815108136
 21
78.6103235640577
 31
0.0
  0
LINE
  5
485
330
481
100
AcDbEntity
  8
0
 62
     0
370
    -2
100
AcDbLine
 10
59.90370707451738
 20
105.079656456565
 30
0.0
 11
59.90370707451739
 21
81.7243235640577
 31
0.0
  0
INSERT
  5
486
330
481
100
AcDbEntity
  8
0
 62
     0
370
    -2
100
AcDbBlockReference
  2
_OPEN
 10
59.90370707451738
 20
108.193656456565
 30
0.0
 41
3.114
 42
3.114
 43
3.114
 50
90.00000000000001
  0
INSERT
  5
487
330
481
100
AcDbEntity
  8
0
 62
     0
370
    -2
100
AcDbBlockReference
  2
_OPEN
 10
59.90370707451739
 20
78.6103235640577
 30
0.0
 41
3.114
 42
3.114
 43
3.114
 50
270.0
  0
MTEXT
  5
488
330
481
100
AcDbEntity
  8
0
 62
     0
100
AcDbMText
 10
57.8787070387546
 20
93.40299001031134
 30
0.0
 40
2.700000047683716
 41
0.0
 71
     5
 72
     1
  1
355
 11
-4.803669271085153E-16
 21
1.0
 31
0.0
 73
     1
 44
1.0
  0
POINT
  5
489
330
481
100
AcDbEntity
  8
Defpoints
 62
     0
100
AcDbPoint
 10
84.57132849239318
 20
108.193656456565
 30
0.0
  0
POINT
  5
48A
330
481
100
AcDbEntity
  8
Defpoints
 62
     0
100
AcDbPoint
 10
82.73798501385275
 20
78.6103235640577
 30
0.0
  0
POINT
  5
48B
330
481
100
AcDbEntity
  8
Defpoints
 62
     0
100
AcDbPoint
 10
59.90170707451739
 20
78.6103235640577
 30
0.0
  0
ENDBLK
  5
483
330
481
100
AcDbEntity
  8
0
100
AcDbBlockEnd
  0
BLOCK
  5
48E
330
48D
100
AcDbEntity
  8
0
100
AcDbBlockBegin
  2
*D25
 70
     1
 10
0.0
 20
0.0
 30
0.0
  3
*D25
  1

  0
LINE
  5
490
330
48D
100
AcDbEntity
  8
0
 62
     0
370
    -2
100
AcDbLine
 10
82.03132849239317
 20
218.1936548174373
 30
0.0
 11
71.00562036123446
 21
218.1936548174373
 31
0.0
  0
LINE
  5
491
330
48D
100
AcDbEntity
  8
0
 62
     0
370
    -2
100
AcDbLine
 10
72.9106292846705
 20
228.8296546125463
 30
0.0
 11
72.9106292846705
 21
221.3076548174373
 31
0.0
  0
INSERT
  5
492
330
48D
100
AcDbEntity
  8
0
 62
     0
370
    -2
100
AcDbBlockReference
  2
_OPEN
 10
72.9106292846705
 20
231.9436546125463
 30
0.0
 41
3.114
 42
3.114
 43
3.114
 50
90.0
  0
INSERT
  5
493
330
48D
100
AcDbEntity
  8
0
 62
     0
370
    -2
100
AcDbBlockReference
  2
_OPEN
 10
72.9106292846705
 20
218.1936548174373
 30
0.0
 41
3.114
 42
3.114
 43
3.114
 50
270.0
  0
MTEXT
  5
494
330
48D
100
AcDbEntity
  8
0
 62
     0
100
AcDbMText
 10
70.88562924890772
 20
225.0696547149918
 30
0.0
 40
2.700000047683716
 41
0.0
 71
     5
 72
     1
  1
165
 11
0.0
 21
1.0
 31
0.0
 73
     1
 44
1.0
  0
POINT
  5
495
330
48D
100
AcDbEntity
  8
Defpoints
 62
     0
100
AcDbPoint
 10
84.57132849239318
 20
231.9436546125463
 30
0.0
  0
POINT
  5
496
330
48D
100
AcDbEntity
  8
Defpoints
 62
     0
100
AcDbPoint
 10
84.57132849239318
 20
218.1936548174373
 30
0.0
  0
POINT
  5
497
330
48D
100
AcDbEntity
  8
Defpoints
 62
     0
100
AcDbPoint
 10
72.9086292846705
 20
218.1936548174373
 30
0.0
  0
ENDBLK
  5
48F
330
48D
100
AcDbEntity
  8
0
100
AcDbBlockEnd
  0
BLOCK
  5
49F
330
498
100
AcDbEntity
  8
0
100
AcDbBlockBegin
  2
SYM0005
 70
     0
 10
0.0
 20
0.0
 30
0.0
  3
SYM0005
  1

  0
LINE
  5
499
330
498
100
AcDbEntity
  8
0
  6
Continuous
 62
     7
100
AcDbLine
 10
0.0
 20
0.0
 30
0.0
 11
-20.45722319032407
 21
-12.42466225526255
 31
0.0
  0
LINE
  5
49A
330
498
100
AcDbEntity
  8
0
  6
Continuous
 62
     7
100
AcDbLine
 10
0.0
 20
0.0
 30
0.0
 11
-2.376576105959117
 21
-2.0857332074319
 31
0.0
  0
LINE
  5
49B
330
498
100
AcDbEntity
  8
0
  6
Continuous
 62
     7
100
AcDbLine
 10
0.0
 20
0.0
 30
0.0
 11
-2.946555048833346
 21
-1.14726210788757
 31
0.0
  0
LINE
  5
49C
330
498
100
AcDbEntity
  8
0
  6
Continuous
 62
     7
100
AcDbLine
 10
-20.45722319032407
 20
-12.42466225526255
 30
0.0
 11
-37.02445071637089
 21
-12.42466225526255
 31
0.0
  0
MTEXT
  5
49D
330
498
100
AcDbEntity
  8
0
 62
     7
100
AcDbMText
 10
-35.84332675057567
 20
-11.7496606936876
 30
0.0
 40
2.700000047683716
 41
0.0
 71
     7
 72
     1
  1
{\W0.833333;\Q15;2-\U+220512}
 73
     1
 44
1.0
  0
ENDBLK
  5
4A0
330
498
100
AcDbEntity
  8
0
100
AcDbBlockEnd
  0
BLOCK
  5
4A8
330
4A1
100
AcDbEntity
  8
0
100
AcDbBlockBegin
  2
SYM0006
 70
     0
 10
0.0
 20
0.0
 30
0.0
  3
SYM0006
  1

  0
LINE
  5
4A2
330
4A1
100
AcDbEntity
  8
0
  6
Continuous
 62
     7
100
AcDbLine
 10
0.0
 20
0.0
 30
0.0
 11
17.41136229464519
 21
-8.083932962463322
 31
0.0
  0
LINE
  5
4A3
330
4A1
100
AcDbEntity
  8
0
  6
Continuous
 62
     7
100
AcDbLine
 10
0.0
 20
0.0
 30
0.0
 11
3.05561272063315
 21
-0.813405127537834
 31
0.0
  0
LINE
  5
4A4
330
4A1
100
AcDbEntity
  8
0
  6
Continuous
 62
     7
100
AcDbLine
 10
0.0
 20
0.0
 30
0.0
 11
2.593228450839007
 21
-1.809299091294491
 31
0.0
  0
LINE
  5
4A5
330
4A1
100
AcDbEntity
  8
0
  6
Continuous
 62
     7
100
AcDbLine
 10
17.41136229464519
 20
-8.083932962463322
 30
0.0
 11
33.26404437262659
 21
-8.083932962463322
 31
0.0
  0
MTEXT
  5
4A6
330
4A1
100
AcDbEntity
  8
0
 62
     7
100
AcDbMText
 10
18.630885325078
 20
-7.408932950542422
 30
0.0
 40
2.700000047683716
 41
0.0
 71
     7
 72
     1
  1
{\W0.833333;\Q15;下部平鋼用}
 73
     1
 44
1.0
  0
ENDBLK
  5
4A9
330
4A1
100
AcDbEntity
  8
0
100
AcDbBlockEnd
  0
BLOCK
  5
4B1
330
4AA
100
AcDbEntity
  8
0
100
AcDbBlockBegin
  2
SYM0007
 70
     0
 10
0.0
 20
0.0
 30
0.0
  3
SYM0007
  1

  0
LINE
  5
4AB
330
4AA
100
AcDbEntity
  8
0
  6
Continuous
 62
     7
100
AcDbLine
 10
0.0
 20
0.0
 30
0.0
 11
-6.785608895003961
 21
13.13964848619275
 31
0.0
  0
LINE
  5
4AC
330
4AA
100
AcDbEntity
  8
0
  6
Continuous
 62
     7
100
AcDbLine
 10
0.0
 20
0.0
 30
0.0
 11
-1.916649387861924
 21
2.514925868491645
 31
0.0
  0
LINE
  5
4AD
330
4AA
100
AcDbEntity
  8
0
  6
Continuous
 62
     7
100
AcDbLine
 10
0.0
 20
0.0
 30
0.0
 11
-0.941060581383823
 21
3.018741787925165
 31
0.0
  0
LINE
  5
4AE
330
4AA
100
AcDbEntity
  8
0
  6
Continuous
 62
     7
100
AcDbLine
 10
-6.785608895003975
 20
13.13964848619275
 30
0.0
 11
-21.82956421736496
 21
13.13964848619275
 31
0.0
  0
MTEXT
  5
4AF
330
4AA
100
AcDbEntity
  8
0
 62
     7
100
AcDbMText
 10
-21.22894495605271
 20
13.81464354457415
 30
0.0
 40
2.700000047683716
 41
0.0
 71
     7
 72
     1
  1
{\W0.833333;\Q15;上部平鋼8}
 73
     1
 44
1.0
  0
ENDBLK
  5
4B2
330
4AA
100
AcDbEntity
  8
0
100
AcDbBlockEnd
  0
BLOCK
  5
4BA
330
4B3
100
AcDbEntity
  8
0
100
AcDbBlockBegin
  2
SYM0008
 70
     0
 10
0.0
 20
0.0
 30
0.0
  3
SYM0008
  1

  0
LINE
  5
4B4
330
4B3
100
AcDbEntity
  8
0
  6
Continuous
 62
     7
100
AcDbLine
 10
0.0
 20
0.0
 30
0.0
 11
14.5406593037944
 21
21.90994266466757
 31
0.0
  0
LINE
  5
4B5
330
4B3
100
AcDbEntity
  8
0
  6
Continuous
 62
     7
100
AcDbLine
 10
0.0
 20
0.0
 30
0.0
 11
1.264493946657751
 21
2.898180818870003
 31
0.0
  0
LINE
  5
4B6
330
4B3
100
AcDbEntity
  8
0
  6
Continuous
 62
     7
100
AcDbLine
 10
0.0
 20
0.0
 30
0.0
 11
2.179354521486317
 21
2.29102834327233
 31
0.0
  0
LINE
  5
4B7
330
4B3
100
AcDbEntity
  8
0
  6
Continuous
 62
     7
100
AcDbLine
 10
14.5406593037944
 20
21.90994266466757
 30
0.0
 11
41.54676729859673
 21
21.90994266466757
 31
0.0
  0
MTEXT
  5
4B8
330
4B3
100
AcDbEntity
  8
0
 62
     7
100
AcDbMText
 10
16.11360829873186
 20
22.5849421080429
 30
0.0
 40
2.700000047683716
 41
0.0
 71
     7
 72
     1
  1
{\W0.833333;\Q15;方向板取付金物12}
 73
     1
 44
1.0
  0
ENDBLK
  5
4BB
330
4B3
100
AcDbEntity
  8
0
100
AcDbBlockEnd
  0
BLOCK
  5
4C3
330
4BC
100
AcDbEntity
  8
0
100
AcDbBlockBegin
  2
SYM0009
 70
     0
 10
0.0
 20
0.0
 30
0.0
  3
SYM0009
  1

  0
LINE
  5
4BD
330
4BC
100
AcDbEntity
  8
0
  6
Continuous
 62
     7
100
AcDbLine
 10
0.0
 20
0.0
 30
0.0
 11
-7.561118233036112
 21
10.23153645528967
 31
0.0
  0
LINE
  5
4BE
330
4BC
100
AcDbEntity
  8
0
  6
Continuous
 62
     7
100
AcDbLine
 10
0.0
 20
0.0
 30
0.0
 11
-2.292244498597356
 21
2.17807533355716
 31
0.0
  0
LINE
  5
4BF
330
4BC
100
AcDbEntity
  8
0
  6
Continuous
 62
     7
100
AcDbLine
 10
0.0
 20
0.0
 30
0.0
 11
-1.409204571033669
 21
2.830642944099054
 31
0.0
  0
LINE
  5
4C0
330
4BC
100
AcDbEntity
  8
0
  6
Continuous
 62
     7
100
AcDbLine
 10
-7.561118233036098
 20
10.23153645528967
 30
0.0
 11
-26.66111141238879
 21
10.23153645528967
 31
0.0
  0
MTEXT
  5
4C1
330
4BC
100
AcDbEntity
  8
0
 62
     7
100
AcDbMText
 10
-25.47998744659358
 20
10.90653299497504
 30
0.0
 40
2.700000047683716
 41
0.0
 71
     7
 72
     1
  1
{\W0.833333;\Q15;上部山形鋼4}
 73
     1
 44
1.0
  0
ENDBLK
  5
4C4
330
4BC
100
AcDbEntity
  8
0
100
AcDbBlockEnd
  0
BLOCK
  5
4CC
330
4C5
100
AcDbEntity
  8
0
100
AcDbBlockBegin
  2
SYM0010
 70
     0
 10
0.0
 20
0.0
 30
0.0
  3
SYM0010
  1

  0
LINE
  5
4C6
330
4C5
100
AcDbEntity
  8
0
  6
Continuous
 62
     7
100
AcDbLine
 10
0.0
 20
0.0
 30
0.0
 11
12.24406235760992
 21
-3.781254551614808
 31
0.0
  0
LINE
  5
4C7
330
4C5
100
AcDbEntity
  8
0
  6
Continuous
 62
     7
100
AcDbLine
 10
0.0
 20
0.0
 30
0.0
 11
3.137343301790111
 21
-0.394301923293227
 31
0.0
  0
LINE
  5
4C8
330
4C5
100
AcDbEntity
  8
0
  6
Continuous
 62
     7
100
AcDbLine
 10
0.0
 20
0.0
 30
0.0
 11
2.813353074889136
 21
-1.443413134210658
 31
0.0
  0
LINE
  5
4C9
330
4C5
100
AcDbEntity
  8
0
  6
Continuous
 62
     7
100
AcDbLine
 10
12.24406235760991
 20
-3.781254551614822
 30
0.0
 11
25.2121602889398
 21
-3.781254551614822
 31
0.0
  0
MTEXT
  5
4CA
330
4C5
100
AcDbEntity
  8
0
 62
     7
100
AcDbMText
 10
15.97900121754935
 20
-3.106253142687137
 30
0.0
 40
2.700000047683716
 41
0.0
 71
     7
 72
     1
  1
{\W0.833333;\Q15;本体3}
 73
     1
 44
1.0
  0
ENDBLK
  5
4CD
330
4C5
100
AcDbEntity
  8
0
100
AcDbBlockEnd
  0
BLOCK
  5
4D5
330
4CE
100
AcDbEntity
  8
0
100
AcDbBlockBegin
  2
SYM0011
 70
     0
 10
0.0
 20
0.0
 30
0.0
  3
SYM0011
  1

  0
LINE
  5
4CF
330
4CE
100
AcDbEntity
  8
0
  6
Continuous
 62
     7
100
AcDbLine
 10
0.0
 20
0.0
 30
0.0
 11
10.23859741301828
 21
-7.810996549993433
 31
0.0
  0
LINE
  5
4D0
330
4CE
100
AcDbEntity
  8
0
  6
Continuous
 62
     7
100
AcDbLine
 10
0.0
 20
0.0
 30
0.0
 11
2.808781225835446
 21
-1.452289580419247
 31
0.0
  0
LINE
  5
4D1
330
4CE
100
AcDbEntity
  8
0
  6
Continuous
 62
     7
100
AcDbLine
 10
0.0
 20
0.0
 30
0.0
 11
2.142797787714585
 21
-2.325255822692512
 31
0.0
  0
LINE
  5
4D2
330
4CE
100
AcDbEntity
  8
0
  6
Continuous
 62
     7
100
AcDbLine
 10
10.23859741301828
 20
-7.810996549993433
 30
0.0
 11
26.4690128135399
 21
-7.810996549993433
 31
0.0
  0
MTEXT
  5
4D3
330
4CE
100
AcDbEntity
  8
0
 62
     7
100
AcDbMText
 10
11.8358537659913
 20
-7.136000448129408
 30
0.0
 40
2.700000047683716
 41
0.0
 71
     7
 72
     1
  1
{\W0.833333;\Q15;下部平鋼1}
 73
     1
 44
1.0
  0
ENDBLK
  5
4D6
330
4CE
100
AcDbEntity
  8
0
100
AcDbBlockEnd
  0
BLOCK
  5
4DE
330
4D7
100
AcDbEntity
  8
0
100
AcDbBlockBegin
  2
SYM0012
 70
     0
 10
0.0
 20
0.0
 30
0.0
  3
SYM0012
  1

  0
LINE
  5
4D8
330
4D7
100
AcDbEntity
  8
0
  6
Continuous
 62
     7
100
AcDbLine
 10
0.0
 20
0.0
 30
0.0
 11
-13.94350071322377
 21
-11.57981996527027
 31
0.0
  0
LINE
  5
4D9
330
4D7
100
AcDbEntity
  8
0
  6
Continuous
 62
     7
100
AcDbLine
 10
0.0
 20
0.0
 30
0.0
 11
-2.044847623192155
 21
-2.411844770694287
 31
0.0
  0
LINE
  5
4DA
330
4D7
100
AcDbEntity
  8
0
  6
Continuous
 62
     7
100
AcDbLine
 10
0.0
 20
0.0
 30
0.0
 11
-2.746347460751011
 21
-1.567154307918187
 31
0.0
  0
LINE
  5
4DB
330
4D7
100
AcDbEntity
  8
0
  6
Continuous
 62
     7
100
AcDbLine
 10
-13.94350071322377
 20
-11.57981996527027
 30
0.0
 11
-34.18036686953914
 21
-11.57981996527027
 31
0.0
  0
MTEXT
  5
4DC
330
4D7
100
AcDbEntity
  8
0
 62
     7
100
AcDbMText
 10
-32.99924290374393
 20
-10.90482504445093
 30
0.0
 40
2.700000047683716
 41
0.0
 71
     7
 72
     1
  1
{\W0.833333;\Q15;下部山形鋼2}
 73
     1
 44
1.0
  0
ENDBLK
  5
4DF
330
4D7
100
AcDbEntity
  8
0
100
AcDbBlockEnd
  0
BLOCK
  5
4E7
330
4E0
100
AcDbEntity
  8
0
100
AcDbBlockBegin
  2
SYM0013
 70
     0
 10
0.0
 20
0.0
 30
0.0
  3
SYM0013
  1

  0
LINE
  5
4E1
330
4E0
100
AcDbEntity
  8
0
  6
Continuous
 62
     7
100
AcDbLine
 10
0.0
 20
0.0
 30
0.0
 11
8.826680590377464
 21
-8.826676126177233
 31
0.0
  0
LINE
  5
4E2
330
4E0
100
AcDbEntity
  8
0
  6
Continuous
 62
     7
100
AcDbLine
 10
0.0
 20
0.0
 30
0.0
 11
2.590132598143981
 21
-1.813728238747984
 31
0.0
  0
LINE
  5
4E3
330
4E0
100
AcDbEntity
  8
0
  6
Continuous
 62
     7
100
AcDbLine
 10
0.0
 20
0.0
 30
0.0
 11
1.813729548738905
 21
-2.590131680828478
 31
0.0
  0
LINE
  5
4E4
330
4E0
100
AcDbEntity
  8
0
  6
Continuous
 62
     7
100
AcDbLine
 10
8.826680590377435
 20
-8.826676126177261
 30
0.0
 11
27.56610018192481
 21
-8.826676126177261
 31
0.0
  0
MTEXT
  5
4E5
330
4E0
100
AcDbEntity
  8
0
 62
     7
100
AcDbMText
 10
10.23294114629712
 20
-8.151676114256304
 30
0.0
 40
2.700000047683716
 41
0.0
 71
     7
 72
     1
  1
{\W0.833333;\Q15;振れ止平鋼用}
 73
     1
 44
1.0
  0
ENDBLK
  5
4E8
330
4E0
100
AcDbEntity
  8
0
100
AcDbBlockEnd
  0
BLOCK
  5
4F0
330
4E9
100
AcDbEntity
  8
0
100
AcDbBlockBegin
  2
SYM0014
 70
     0
 10
0.0
 20
0.0
 30
0.0
  3
SYM0014
  1

  0
LINE
  5
4EA
330
4E9
100
AcDbEntity
  8
0
  6
Continuous
 62
     7
100
AcDbLine
 10
0.0
 20
0.0
 30
0.0
 11
-8.686807986186011
 21
11.0702496610418
 31
0.0
  0
LINE
  5
4EB
330
4E9
100
AcDbEntity
  8
0
  6
Continuous
 62
     7
100
AcDbLine
 10
0.0
 20
0.0
 30
0.0
 11
-2.354259094332292
 21
2.110891071740468
 31
0.0
  0
LINE
  5
4EC
330
4E9
100
AcDbEntity
  8
0
  6
Continuous
 62
     7
100
AcDbLine
 10
0.0
 20
0.0
 30
0.0
 11
-1.490455452795914
 21
2.788716468777523
 31
0.0
  0
LINE
  5
4ED
330
4E9
100
AcDbEntity
  8
0
  6
Continuous
 62
     7
100
AcDbLine
 10
-8.686807986186011
 20
11.07024966104177
 30
0.0
 11
-26.43076329662608
 21
11.07024966104177
 31
0.0
  0
MTEXT
  5
4EE
330
4E9
100
AcDbEntity
  8
0
 62
     7
100
AcDbMText
 10
-25.81797021192605
 20
11.74524967296259
 30
0.0
 40
2.700000047683716
 41
0.0
 71
     7
 72
     1
  1
{\W0.833333;\Q15;振れ止平鋼5}
 73
     1
 44
1.0
  0
ENDBLK
  5
4F1
330
4E9
100
AcDbEntity
  8
0
100
AcDbBlockEnd
  0
BLOCK
  5
4F9
330
4F2
100
AcDbEntity
  8
0
100
AcDbBlockBegin
  2
SYM0015
 70
     0
 10
0.0
 20
0.0
 30
0.0
  3
SYM0015
  1

  0
LINE
  5
4F3
330
4F2
100
AcDbEntity
  8
0
  6
Continuous
 62
     7
100
AcDbLine
 10
0.0
 20
0.0
 30
0.0
 11
-11.14539927320246
 21
13.53516966413449
 31
0.0
  0
LINE
  5
4F4
330
4F2
100
AcDbEntity
  8
0
  6
Continuous
 62
     7
100
AcDbLine
 10
0.0
 20
0.0
 30
0.0
 11
-2.40327252531236
 21
2.054915611181798
 31
0.0
  0
LINE
  5
4F5
330
4F2
100
AcDbEntity
  8
0
  6
Continuous
 62
     7
100
AcDbLine
 10
0.0
 20
0.0
 30
0.0
 11
-1.555655911877324
 21
2.752876983056296
 31
0.0
  0
LINE
  5
4F6
330
4F2
100
AcDbEntity
  8
0
  6
Continuous
 62
     7
100
AcDbLine
 10
-11.14539927320243
 20
13.53516966413453
 30
0.0
 11
-30.16140858940898
 21
13.53516966413453
 31
0.0
  0
MTEXT
  5
4F7
330
4F2
100
AcDbEntity
  8
0
 62
     7
100
AcDbMText
 10
-28.98028462361376
 20
14.21016707189439
 30
0.0
 40
2.700000047683716
 41
0.0
 71
     7
 72
     1
  1
{\W0.833333;\Q15;下部山形鋼2}
 73
     1
 44
1.0
  0
ENDBLK
  5
4FA
330
4F2
100
AcDbEntity
  8
0
100
AcDbBlockEnd
  0
BLOCK
  5
4FD
330
4FC
100
AcDbEntity
  8
0
100
AcDbBlockBegin
  2
*D37
 70
     1
 10
0.0
 20
0.0
 30
0.0
  3
*D37
  1

  0
LINE
  5
4FF
330
4FC
100
AcDbEntity
  8
0
 62
     0
370
    -2
100
AcDbLine
 10
237.1546646383206
 20
76.07032356405767
 30
0.0
 11
237.1546646383206
 21
57.80204856489527
 31
0.0
  0
LINE
  5
500
330
4FC
100
AcDbEntity
  8
0
 62
     0
370
    -2
100
AcDbLine
 10
245.1546696053743
 20
76.07032356405767
 30
0.0
 11
245.1546696053743
 21
57.80204856489527
 31
0.0
  0
LINE
  5
501
330
4FC
100
AcDbEntity
  8
0
 62
     0
370
    -2
100
AcDbLine
 10
240.2686646383206
 20
59.7070479515883
 30
0.0
 11
242.0406696053743
 21
59.7070479515883
 31
0.0
  0
INSERT
  5
502
330
4FC
100
AcDbEntity
  8
0
 62
     0
370
    -2
100
AcDbBlockReference
  2
_OPEN
 10
237.1546646383206
 20
59.7070479515883
 30
0.0
 41
3.114
 42
3.114
 43
3.114
 50
180.0
  0
INSERT
  5
503
330
4FC
100
AcDbEntity
  8
0
 62
     0
370
    -2
100
AcDbBlockReference
  2
_OPEN
 10
245.1546696053743
 20
59.7070479515883
 30
0.0
 41
3.114
 42
3.114
 43
3.114
  0
MTEXT
  5
504
330
4FC
100
AcDbEntity
  8
0
 62
     0
100
AcDbMText
 10
241.1556671218475
 20
61.73204798735109
 30
0.0
 40
2.700000047683716
 41
0.0
 71
     5
 72
     1
  1
96
 73
     1
 44
1.0
  0
POINT
  5
505
330
4FC
100
AcDbEntity
  8
Defpoints
 62
     0
100
AcDbPoint
 10
237.1546646383206
 20
78.61032356405768
 30
0.0
  0
POINT
  5
506
330
4FC
100
AcDbEntity
  8
Defpoints
 62
     0
100
AcDbPoint
 10
245.1546696053743
 20
78.61032356405768
 30
0.0
  0
POINT
  5
507
330
4FC
100
AcDbEntity
  8
Defpoints
 62
     0
100
AcDbPoint
 10
245.1546696053743
 20
59.7060479515883
 30
0.0
  0
ENDBLK
  5
4FE
330
4FC
100
AcDbEntity
  8
0
100
AcDbBlockEnd
  0
BLOCK
  5
50A
330
509
100
AcDbEntity
  8
0
100
AcDbBlockBegin
  2
*D38
 70
     1
 10
0.0
 20
0.0
 30
0.0
  3
*D38
  1

  0
LINE
  5
50C
330
509
100
AcDbEntity
  8
0
 62
     0
370
    -2
100
AcDbLine
 10
245.1546696053743
 20
76.07032356405767
 30
0.0
 11
245.1546696053743
 21
65.72871915702441
 31
0.0
  0
LINE
  5
50D
330
509
100
AcDbEntity
  8
0
 62
     0
370
    -2
100
AcDbLine
 10
233.6546545179488
 20
75.16793468692002
 30
0.0
 11
233.6546545179488
 21
65.72871915702441
 31
0.0
  0
LINE
  5
50E
330
509
100
AcDbEntity
  8
0
 62
     0
370
    -2
100
AcDbLine
 10
242.0406696053743
 20
67.63371854371749
 30
0.0
 11
236.7686545179488
 21
67.63371854371749
 31
0.0
  0
INSERT
  5
50F
330
509
100
AcDbEntity
  8
0
 62
     0
370
    -2
100
AcDbBlockReference
  2
_OPEN
 10
245.1546696053743
 20
67.63371854371749
 30
0.0
 41
3.114
 42
3.114
 43
3.114
  0
INSERT
  5
510
330
509
100
AcDbEntity
  8
0
 62
     0
370
    -2
100
AcDbBlockReference
  2
_OPEN
 10
233.6546545179488
 20
67.63371854371749
 30
0.0
 41
3.114
 42
3.114
 43
3.114
 50
180.0
  0
MTEXT
  5
511
330
509
100
AcDbEntity
  8
0
 62
     0
100
AcDbMText
 10
239.4066620616616
 20
69.65871857948028
 30
0.0
 40
2.700000047683716
 41
0.0
 71
     5
 72
     1
  1
138
 73
     1
 44
1.0
  0
POINT
  5
512
330
509
100
AcDbEntity
  8
Defpoints
 62
     0
100
AcDbPoint
 10
245.1546696053743
 20
78.61032356405768
 30
0.0
  0
POINT
  5
513
330
509
100
AcDbEntity
  8
Defpoints
 62
     0
100
AcDbPoint
 10
233.6546545179488
 20
77.70793468692003
 30
0.0
  0
POINT
  5
514
330
509
100
AcDbEntity
  8
Defpoints
 62
     0
100
AcDbPoint
 10
233.6546545179488
 20
67.63271854371749
 30
0.0
  0
ENDBLK
  5
50B
330
509
100
AcDbEntity
  8
0
100
AcDbBlockEnd
  0
BLOCK
  5
517
330
516
100
AcDbEntity
  8
0
100
AcDbBlockBegin
  2
*D39
 70
     1
 10
0.0
 20
0.0
 30
0.0
  3
*D39
  1

  0
MTEXT
  5
51F
330
516
100
AcDbEntity
  8
0
 62
     0
100
AcDbMText
 10
233.739999294132
 20
61.73204798735109
 30
0.0
 40
2.700000047683716
 41
0.0
 71
     5
 72
     1
  1
82
 73
     1
 44
1.0
  0
POINT
  5
520
330
516
100
AcDbEntity
  8
Defpoints
 62
     0
100
AcDbPoint
 10
237.1546646383206
 20
78.61032356405768
 30
0.0
  0
POINT
  5
521
330
516
100
AcDbEntity
  8
Defpoints
 62
     0
100
AcDbPoint
 10
230.3213339499434
 20
47.84040303766127
 30
0.0
  0
POINT
  5
522
330
516
100
AcDbEntity
  8
Defpoints
 62
     0
100
AcDbPoint
 10
230.3213339499434
 20
59.7060479515883
 30
0.0
  0
LINE
  5
523
330
516
100
AcDbEntity
  8
0
  6
Continuous
 62
     7
100
AcDbLine
 10
230.3213339499434
 20
50.38040303766127
 30
0.0
 11
230.3213339499434
 21
61.20604792923655
 31
0.0
  0
LINE
  5
524
330
516
100
AcDbEntity
  8
0
  6
Continuous
 62
     7
100
AcDbLine
 10
243.5046646383206
 20
59.7060479515883
 30
0.0
 11
223.9713339499434
 21
59.7060479515883
 31
0.0
  0
LINE
  5
525
330
516
100
AcDbEntity
  8
0
  6
Continuous
 62
     7
100
AcDbLine
 10
237.1546646383206
 20
59.7060479515883
 30
0.0
 11
240.2686646383206
 21
60.2550479515883
 31
0.0
  0
LINE
  5
526
330
516
100
AcDbEntity
  8
0
  6
Continuous
 62
     7
100
AcDbLine
 10
237.1546646383206
 20
59.7060479515883
 30
0.0
 11
240.2686646383206
 21
59.1570479515883
 31
0.0
  0
LINE
  5
527
330
516
100
AcDbEntity
  8
0
  6
Continuous
 62
     7
100
AcDbLine
 10
230.3213339499434
 20
59.7060479515883
 30
0.0
 11
227.2073339499433
 21
59.1570479515883
 31
0.0
  0
LINE
  5
528
330
516
100
AcDbEntity
  8
0
  6
Continuous
 62
     7
100
AcDbLine
 10
230.3213339499434
 20
59.7060479515883
 30
0.0
 11
227.2073339499433
 21
60.2550479515883
 31
0.0
  0
ENDBLK
  5
518
330
516
100
AcDbEntity
  8
0
100
AcDbBlockEnd
  0
BLOCK
  5
52B
330
52A
100
AcDbEntity
  8
0
100
AcDbBlockBegin
  2
*D40
 70
     1
 10
0.0
 20
0.0
 30
0.0
  3
*D40
  1

  0
LINE
  5
52D
330
52A
100
AcDbEntity
  8
0
 62
     0
370
    -2
100
AcDbLine
 10
245.1546696053743
 20
76.07032356405769
 30
0.0
 11
245.1546696053743
 21
47.54140301530952
 31
0.0
  0
LINE
  5
52E
330
52A
100
AcDbEntity
  8
0
 62
     0
370
    -2
100
AcDbLine
 10
230.3213339499434
 20
76.07032356405767
 30
0.0
 11
230.3213339499434
 21
47.54140301530952
 31
0.0
  0
LINE
  5
52F
330
52A
100
AcDbEntity
  8
0
 62
     0
370
    -2
100
AcDbLine
 10
242.0406696053743
 20
49.34140301530952
 30
0.0
 11
233.4353339499434
 21
49.34140301530952
 31
0.0
  0
INSERT
  5
530
330
52A
100
AcDbEntity
  8
0
 62
     0
370
    -2
100
AcDbBlockReference
  2
_OPEN
 10
245.1546696053743
 20
49.34140301530952
 30
0.0
 41
3.114
 42
3.114
 43
3.114
  0
INSERT
  5
531
330
52A
100
AcDbEntity
  8
0
 62
     0
370
    -2
100
AcDbBlockReference
  2
_OPEN
 10
230.3213339499434
 20
49.34140301530952
 30
0.0
 41
3.114
 42
3.114
 43
3.114
 50
180.0
  0
MTEXT
  5
532
330
52A
100
AcDbEntity
  8
0
 62
     0
100
AcDbMText
 10
237.7400017776588
 20
51.3664030510723
 30
0.0
 40
2.700000047683716
 41
0.0
 71
     5
 72
     1
  1
178
 73
     1
 44
1.0
  0
POINT
  5
533
330
52A
100
AcDbEntity
  8
Defpoints
 62
     0
100
AcDbPoint
 10
245.1546696053743
 20
78.6103235640577
 30
0.0
  0
POINT
  5
534
330
52A
100
AcDbEntity
  8
Defpoints
 62
     0
100
AcDbPoint
 10
230.3213339499434
 20
78.61032356405768
 30
0.0
  0
POINT
  5
535
330
52A
100
AcDbEntity
  8
Defpoints
 62
     0
100
AcDbPoint
 10
230.3213339499434
 20
49.34040301530952
 30
0.0
  0
ENDBLK
  5
52C
330
52A
100
AcDbEntity
  8
0
100
AcDbBlockEnd
  0
ENDSEC
  0
SECTION
  2
ENTITIES
  0
POINT
  5
4B
330
1F
100
AcDbEntity
  8
0
 62
     7
100
AcDbPoint
 10
0.0
 20
284.0
 30
0.0
  0
POINT
  5
4C
330
1F
100
AcDbEntity
  8
0
 62
     7
100
AcDbPoint
 10
257.625
 20
279.0
 30
0.0
  0
POINT
  5
4D
330
1F
100
AcDbEntity
  8
0
 62
     7
100
AcDbPoint
 10
348.875
 20
279.0
 30
0.0
  0
POINT
  5
4E
330
1F
100
AcDbEntity
  8
0
 62
     7
100
AcDbPoint
 10
299.75
 20
279.0
 30
0.0
  0
POINT
  5
4F
330
1F
100
AcDbEntity
  8
0
 62
     7
100
AcDbPoint
 10
250.625
 20
279.0
 30
0.0
  0
POINT
  5
50
330
1F
100
AcDbEntity
  8
0
 62
     7
100
AcDbPoint
 10
201.5
 20
279.0
 30
0.0
  0
POINT
  5
51
330
1F
100
AcDbEntity
  8
0
 62
     7
100
AcDbPoint
 10
152.375
 20
279.0
 30
0.0
  0
POINT
  5
52
330
1F
100
AcDbEntity
  8
0
 62
     7
100
AcDbPoint
 10
103.25
 20
279.0
 30
0.0
  0
POINT
  5
53
330
1F
100
AcDbEntity
  8
0
 62
     7
100
AcDbPoint
 10
54.125
 20
279.0
 30
0.0
  0
POINT
  5
54
330
1F
100
AcDbEntity
  8
0
 62
     7
100
AcDbPoint
 10
5.0
 20
279.0
 30
0.0
  0
POINT
  5
55
330
1F
100
AcDbEntity
  8
0
 62
     7
100
AcDbPoint
 10
398.0
 20
279.0
 30
0.0
  0
POINT
  5
56
330
1F
100
AcDbEntity
  8
0
 62
     7
100
AcDbPoint
 10
398.0
 20
279.0
 30
0.0
  0
POINT
  5
57
330
1F
100
AcDbEntity
  8
0
 62
     7
100
AcDbPoint
 10
398.0
 20
233.3333333333333
 30
0.0
  0
POINT
  5
58
330
1F
100
AcDbEntity
  8
0
 62
     7
100
AcDbPoint
 10
398.0
 20
187.6666666666667
 30
0.0
  0
POINT
  5
59
330
1F
100
AcDbEntity
  8
0
 62
     7
100
AcDbPoint
 10
398.0
 20
142.0
 30
0.0
  0
POINT
  5
5A
330
1F
100
AcDbEntity
  8
0
 62
     7
100
AcDbPoint
 10
398.0
 20
96.33333333333334
 30
0.0
  0
POINT
  5
5B
330
1F
100
AcDbEntity
  8
0
 62
     7
100
AcDbPoint
 10
398.0
 20
50.66666666666669
 30
0.0
  0
POINT
  5
5C
330
1F
100
AcDbEntity
  8
0
 62
     7
100
AcDbPoint
 10
398.0
 20
5.000000000000028
 30
0.0
  0
POINT
  5
5D
330
1F
100
AcDbEntity
  8
0
 62
     7
100
AcDbPoint
 10
333.75
 20
15.0
 30
0.0
  0
POINT
  5
5E
330
1F
100
AcDbEntity
  8
0
 62
     7
100
AcDbPoint
 10
15.68516679833374
 20
17.34281636024127
 30
0.0
  0
POINT
  5
5F
330
1F
100
AcDbEntity
  8
0
 62
     7
100
AcDbPoint
 10
15.23601066503869
 20
22.29976838552138
 30
0.0
  0
POINT
  5
60
330
1F
100
AcDbEntity
  8
0
 62
     7
100
AcDbPoint
 10
7.417717609882146
 20
17.34281636024127
 30
0.0
  0
POINT
  5
61
330
1F
100
AcDbEntity
  8
0
 62
     7
100
AcDbPoint
 10
7.270897339488727
 20
22.64715695633092
 30
0.0
  0
POINT
  5
62
330
1F
100
AcDbEntity
  8
0
 62
     7
100
AcDbPoint
 10
263.625
 20
279.0
 30
0.0
  0
POINT
  5
63
330
1F
100
AcDbEntity
  8
0
 62
     7
100
AcDbPoint
 10
348.0
 20
279.0
 30
0.0
  0
POINT
  5
64
330
1F
100
AcDbEntity
  8
0
 62
     7
100
AcDbPoint
 10
398.0
 20
279.0
 30
0.0
  0
POINT
  5
65
330
1F
100
AcDbEntity
  8
0
 62
     7
100
AcDbPoint
 10
245.75
 20
13.25
 30
0.0
  0
POINT
  5
66
330
1F
100
AcDbEntity
  8
0
 62
     7
100
AcDbPoint
 10
253.0
 20
10.0
 30
0.0
  0
POINT
  5
67
330
1F
100
AcDbEntity
  8
0
 62
     7
100
AcDbPoint
 10
7.417717609882146
 20
12.81540370942253
 30
0.0
  0
POINT
  5
68
330
1F
100
AcDbEntity
  8
0
 62
     7
100
AcDbPoint
 10
245.75
 20
23.25
 30
0.0
  0
POINT
  5
69
330
1F
100
AcDbEntity
  8
0
 62
     7
100
AcDbPoint
 10
253.0
 20
20.0
 30
0.0
  0
POINT
  5
6A
330
1F
100
AcDbEntity
  8
0
 62
     7
100
AcDbPoint
 10
7.417717609882146
 20
7.500614945417936
 30
0.0
  0
POINT
  5
6B
330
1F
100
AcDbEntity
  8
0
 62
     7
100
AcDbPoint
 10
15.48832277003729
 20
12.42171565282959
 30
0.0
  0
POINT
  5
6C
330
1F
100
AcDbEntity
  8
0
 62
     7
100
AcDbPoint
 10
15.88201082663022
 20
7.69745897371439
 30
0.0
  0
POINT
  5
6D
330
1F
100
AcDbEntity
  8
0
 62
     7
100
AcDbPoint
 10
333.75
 20
30.0
 30
0.0
  0
POINT
  5
6E
330
1F
100
AcDbEntity
  8
0
 62
     7
100
AcDbPoint
 10
336.5
 20
13.25
 30
0.0
  0
POINT
  5
6F
330
1F
100
AcDbEntity
  8
0
 62
     7
100
AcDbPoint
 10
338.25
 20
9.0
 30
0.0
  0
POINT
  5
70
330
1F
100
AcDbEntity
  8
0
 62
     7
100
AcDbPoint
 10
0.0
 20
0.0
 30
0.0
  0
POINT
  5
71
330
1F
100
AcDbEntity
  8
0
 62
     7
100
AcDbPoint
 10
403.0
 20
0.0
 30
0.0
  0
POINT
  5
72
330
1F
100
AcDbEntity
  8
0
 62
     7
100
AcDbPoint
 10
403.0
 20
284.0
 30
0.0
  0
POINT
  5
73
330
1F
100
AcDbEntity
  8
0
 62
     7
100
AcDbPoint
 10
1.0
 20
2.5
 30
0.0
  0
POINT
  5
74
330
1F
100
AcDbEntity
  8
0
 62
     7
100
AcDbPoint
 10
345.4375
 20
20.0
 30
0.0
  0
POINT
  5
75
330
1F
100
AcDbEntity
  8
0
 62
     7
100
AcDbPoint
 10
342.4612191565195
 20
20.0
 30
0.0
  0
POINT
  5
76
330
1F
100
AcDbEntity
  8
0
 62
     7
100
AcDbPoint
 10
345.4375
 20
20.0
 30
0.0
  0
POINT
  5
77
330
1F
100
AcDbEntity
  8
0
 62
     7
100
AcDbPoint
 10
112.1546665009658
 20
78.6103235640577
 30
0.0
  0
POINT
  5
78
330
1F
100
AcDbEntity
  8
0
 62
     7
100
AcDbPoint
 10
89.57132841788734
 20
245.2769877471975
 30
0.0
  0
POINT
  5
79
330
1F
100
AcDbEntity
  8
0
 62
     7
100
AcDbPoint
 10
123.1129945847443
 20
236.9436545380405
 30
0.0
  0
POINT
  5
7A
330
1F
100
AcDbEntity
  8
0
 62
     7
100
AcDbPoint
 10
123.1129945847443
 20
237.6507849596324
 30
0.0
  0
POINT
  5
7B
330
1F
100
AcDbEntity
  8
0
 62
     7
100
AcDbPoint
 10
131.5982544680697
 20
246.1360575586151
 30
0.0
  0
POINT
  5
7C
330
1F
100
AcDbEntity
  8
0
 62
     7
100
AcDbPoint
 10
126.0592632582893
 20
237.6507849596324
 30
0.0
  0
POINT
  5
7D
330
1F
100
AcDbEntity
  8
0
 62
     7
100
AcDbPoint
 10
0.0
 20
0.0
 30
0.0
  0
POINT
  5
7E
330
1F
100
AcDbEntity
  8
0
 62
     7
100
AcDbPoint
 10
231.4463263037851
 20
106.0269974515786
 30
0.0
  0
POINT
  5
7F
330
1F
100
AcDbEntity
  8
0
 62
     7
100
AcDbPoint
 10
233.1129929456165
 20
106.0269974515786
 30
0.0
  0
POINT
  5
80
330
1F
100
AcDbEntity
  8
0
 62
     7
100
AcDbPoint
 10
242.4463363123983
 20
106.0269974515786
 30
0.0
  0
POINT
  5
81
330
1F
100
AcDbEntity
  8
0
 62
     7
100
AcDbPoint
 10
244.1130029542297
 20
106.0269974515786
 30
0.0
  0
POINT
  5
82
330
1F
100
AcDbEntity
  8
0
 62
     7
100
AcDbPoint
 10
246.1963362565189
 20
106.0269974515786
 30
0.0
  0
POINT
  5
83
330
1F
100
AcDbEntity
  8
0
 62
     7
100
AcDbPoint
 10
247.8630028983503
 20
106.0269974515786
 30
0.0
  0
POINT
  5
84
330
1F
100
AcDbEntity
  8
0
 62
     7
100
AcDbPoint
 10
231.4463263037851
 20
229.7769956075599
 30
0.0
  0
POINT
  5
85
330
1F
100
AcDbEntity
  8
0
 62
     7
100
AcDbPoint
 10
233.1129929456165
 20
229.7769956075599
 30
0.0
  0
POINT
  5
86
330
1F
100
AcDbEntity
  8
0
 62
     7
100
AcDbPoint
 10
242.4463363123983
 20
229.7769956075599
 30
0.0
  0
POINT
  5
87
330
1F
100
AcDbEntity
  8
0
 62
     7
100
AcDbPoint
 10
244.1130029542297
 20
229.7769956075599
 30
0.0
  0
POINT
  5
88
330
1F
100
AcDbEntity
  8
0
 62
     7
100
AcDbPoint
 10
246.1963362565189
 20
229.7769956075599
 30
0.0
  0
POINT
  5
89
330
1F
100
AcDbEntity
  8
0
 62
     7
100
AcDbPoint
 10
247.8630028983503
 20
229.7769956075599
 30
0.0
  0
POINT
  5
8A
330
1F
100
AcDbEntity
  8
0
 62
     7
100
AcDbPoint
 10
231.4463263037851
 20
161.0269966320148
 30
0.0
  0
POINT
  5
8B
330
1F
100
AcDbEntity
  8
0
 62
     7
100
AcDbPoint
 10
233.1129929456165
 20
161.0269966320148
 30
0.0
  0
POINT
  5
8C
330
1F
100
AcDbEntity
  8
0
 62
     7
100
AcDbPoint
 10
242.4463363123983
 20
161.0269966320148
 30
0.0
  0
POINT
  5
8D
330
1F
100
AcDbEntity
  8
0
 62
     7
100
AcDbPoint
 10
244.1130029542297
 20
161.0269966320148
 30
0.0
  0
POINT
  5
8E
330
1F
100
AcDbEntity
  8
0
 62
     7
100
AcDbPoint
 10
246.1963362565189
 20
161.0269966320148
 30
0.0
  0
POINT
  5
8F
330
1F
100
AcDbEntity
  8
0
 62
     7
100
AcDbPoint
 10
247.8630028983503
 20
161.0269966320148
 30
0.0
  0
POINT
  5
90
330
1F
100
AcDbEntity
  8
0
 62
     7
100
AcDbPoint
 10
84.57132849239315
 20
231.9436546125463
 30
0.0
  0
POINT
  5
91
330
1F
100
AcDbEntity
  8
0
 62
     7
100
AcDbPoint
 10
84.57132849239315
 20
218.1936548174373
 30
0.0
  0
POINT
  5
92
330
1F
100
AcDbEntity
  8
0
 62
     7
100
AcDbPoint
 10
84.30465572618459
 20
245.2769877471975
 30
0.0
  0
POINT
  5
93
330
1F
100
AcDbEntity
  8
0
 62
     7
100
AcDbPoint
 10
84.57132849239315
 20
108.193656456565
 30
0.0
  0
POINT
  5
94
330
1F
100
AcDbEntity
  8
0
 62
     7
100
AcDbPoint
 10
245.1546696053743
 20
78.6103235640577
 30
0.0
  0
POINT
  5
95
330
1F
100
AcDbEntity
  8
0
 62
     7
100
AcDbPoint
 10
237.1546646383206
 20
78.6103235640577
 30
0.0
  0
POINT
  5
96
330
1F
100
AcDbEntity
  8
0
 62
     7
100
AcDbPoint
 10
237.1546646383206
 20
78.6103235640577
 30
0.0
  0
POINT
  5
97
330
1F
100
AcDbEntity
  8
0
 62
     7
100
AcDbPoint
 10
230.1546646383206
 20
78.6103235640577
 30
0.0
  0
POINT
  5
98
330
1F
100
AcDbEntity
  8
0
 62
     7
100
AcDbPoint
 10
325.5
 20
269.0
 30
0.0
  0
POINT
  5
99
330
1F
100
AcDbEntity
  8
0
 62
     7
100
AcDbPoint
 10
398.0
 20
279.0
 30
0.0
  0
POINT
  5
9A
330
1F
100
AcDbEntity
  8
0
 62
     7
100
AcDbPoint
 10
237.1546646383206
 20
232.776987933462
 30
0.0
  0
POINT
  5
9B
330
1F
100
AcDbEntity
  8
0
 62
     7
100
AcDbPoint
 10
237.1546646383206
 20
217.7769881569795
 30
0.0
  0
POINT
  5
9C
330
1F
100
AcDbEntity
  8
0
 62
     7
100
AcDbPoint
 10
237.1546646383206
 20
187.7770013196717
 30
0.0
  0
POINT
  5
9D
330
1F
100
AcDbEntity
  8
0
 62
     7
100
AcDbPoint
 10
237.1546646383206
 20
202.7769883804969
 30
0.0
  0
POINT
  5
9E
330
1F
100
AcDbEntity
  8
0
 62
     7
100
AcDbPoint
 10
237.1546646383206
 20
187.7770013196717
 30
0.0
  0
POINT
  5
9F
330
1F
100
AcDbEntity
  8
0
 62
     7
100
AcDbPoint
 10
237.1546646383206
 20
172.7770142588464
 30
0.0
  0
POINT
  5
A0
330
1F
100
AcDbEntity
  8
0
 62
     7
100
AcDbPoint
 10
243.57132866624
 20
169.0894990550056
 30
0.0
  0
POINT
  5
A1
330
1F
100
AcDbEntity
  8
0
 62
     7
100
AcDbPoint
 10
243.57132866624
 20
196.5894859295663
 30
0.0
  0
POINT
  5
A2
330
1F
100
AcDbEntity
  8
0
 62
     7
100
AcDbPoint
 10
237.1546646383206
 20
157.7770144823639
 30
0.0
  0
POINT
  5
A3
330
1F
100
AcDbEntity
  8
0
 62
     7
100
AcDbPoint
 10
237.1546646383206
 20
142.7770147058812
 30
0.0
  0
POINT
  5
A4
330
1F
100
AcDbEntity
  8
0
 62
     7
100
AcDbPoint
 10
237.1546646383206
 20
127.7770022137413
 30
0.0
  0
POINT
  5
A5
330
1F
100
AcDbEntity
  8
0
 62
     7
100
AcDbPoint
 10
237.1546646383206
 20
112.7770087950874
 30
0.0
  0
POINT
  5
A6
330
1F
100
AcDbEntity
  8
0
 62
     7
100
AcDbPoint
 10
243.57132866624
 20
141.5894867491301
 30
0.0
  0
POINT
  5
A7
330
1F
100
AcDbEntity
  8
0
 62
     7
100
AcDbPoint
 10
243.57132866624
 20
114.0894935167408
 30
0.0
  0
POINT
  5
A8
330
1F
100
AcDbEntity
  8
0
 62
     7
100
AcDbPoint
 10
237.1546646383206
 20
78.6103235640577
 30
0.0
  0
POINT
  5
A9
330
1F
100
AcDbEntity
  8
0
 62
     7
100
AcDbPoint
 10
237.1546646383206
 20
97.77700901860483
 30
0.0
  0
POINT
  5
AA
330
1F
100
AcDbEntity
  8
0
 62
     7
100
AcDbPoint
 10
233.6963364427834
 20
98.86034487892671
 30
0.0
  0
POINT
  5
AB
330
1F
100
AcDbEntity
  8
0
 62
     7
100
AcDbPoint
 10
233.6963364427834
 20
96.69367315828295
 30
0.0
  0
POINT
  5
AC
330
1F
100
AcDbEntity
  8
0
 62
     7
100
AcDbPoint
 10
237.1546646383206
 20
78.6103235640577
 30
0.0
  0
POINT
  5
AD
330
1F
100
AcDbEntity
  8
0
 62
     7
100
AcDbPoint
 10
230.1546646383206
 20
78.6103235640577
 30
0.0
  0
POINT
  5
AE
330
1F
100
AcDbEntity
  8
0
 62
     7
100
AcDbPoint
 10
230.3213339499434
 20
78.6103235640577
 30
0.0
  0
POINT
  5
AF
330
1F
100
AcDbEntity
  8
0
 62
     7
100
AcDbPoint
 10
133.0713412195246
 20
244.6629939831377
 30
0.0
  0
LINE
  5
B0
330
1F
100
AcDbEntity
  8
0
  6
Continuous
 62
     7
100
AcDbLine
 10
5.0
 20
279.0
 30
0.0
 11
398.0
 21
279.0
 31
0.0
  0
LINE
  5
B1
330
1F
100
AcDbEntity
  8
0
  6
Continuous
 62
     7
100
AcDbLine
 10
5.0
 20
5.0
 30
0.0
 11
398.0
 21
5.0
 31
0.0
  0
LINE
  5
B2
330
1F
100
AcDbEntity
  8
0
  6
Continuous
 62
     7
100
AcDbLine
 10
5.0
 20
279.0
 30
0.0
 11
5.0
 21
5.0
 31
0.0
  0
LINE
  5
B3
330
1F
100
AcDbEntity
  8
0
  6
Continuous
 62
     7
100
AcDbLine
 10
398.0
 20
279.0
 30
0.0
 11
398.0
 21
5.0
 31
0.0
  0
LINE
  5
B4
330
1F
100
AcDbEntity
  8
0
  6
Continuous
 62
     7
100
AcDbLine
 10
54.125
 20
284.0
 30
0.0
 11
54.125
 21
279.0
 31
0.0
  0
LINE
  5
B5
330
1F
100
AcDbEntity
  8
0
  6
Continuous
 62
     7
100
AcDbLine
 10
201.5
 20
284.0
 30
0.0
 11
201.5
 21
279.0
 31
0.0
  0
LINE
  5
B6
330
1F
100
AcDbEntity
  8
0
  6
Continuous
 62
     7
100
AcDbLine
 10
152.375
 20
284.0
 30
0.0
 11
152.375
 21
279.0
 31
0.0
  0
LINE
  5
B7
330
1F
100
AcDbEntity
  8
0
  6
Continuous
 62
     7
100
AcDbLine
 10
103.25
 20
284.0
 30
0.0
 11
103.25
 21
279.0
 31
0.0
  0
LINE
  5
B8
330
1F
100
AcDbEntity
  8
0
  6
Continuous
 62
     7
100
AcDbLine
 10
250.625
 20
284.0
 30
0.0
 11
250.625
 21
279.0
 31
0.0
  0
LINE
  5
B9
330
1F
100
AcDbEntity
  8
0
  6
Continuous
 62
     7
100
AcDbLine
 10
299.75
 20
284.0
 30
0.0
 11
299.75
 21
279.0
 31
0.0
  0
LINE
  5
BA
330
1F
100
AcDbEntity
  8
0
  6
Continuous
 62
     7
100
AcDbLine
 10
348.875
 20
284.0
 30
0.0
 11
348.875
 21
279.0
 31
0.0
  0
LINE
  5
BB
330
1F
100
AcDbEntity
  8
0
  6
Continuous
 62
     7
100
AcDbLine
 10
13.0
 20
25.0
 30
0.0
 11
13.0
 21
5.0
 31
0.0
  0
LINE
  5
BC
330
1F
100
AcDbEntity
  8
0
  6
Continuous
 62
     7
100
AcDbLine
 10
82.25
 20
25.0
 30
0.0
 11
82.25
 21
5.0
 31
0.0
  0
LINE
  5
BD
330
1F
100
AcDbEntity
  8
0
  6
Continuous
 62
     7
100
AcDbLine
 10
159.5
 20
25.0
 30
0.0
 11
159.5
 21
5.0
 31
0.0
  0
LINE
  5
BE
330
1F
100
AcDbEntity
  8
0
  6
Continuous
 62
     7
100
AcDbLine
 10
101.5625
 20
25.0
 30
0.0
 11
101.5625
 21
23.3
 31
0.0
  0
LINE
  5
BF
330
1F
100
AcDbEntity
  8
0
  6
Continuous
 62
     7
100
AcDbLine
 10
5.0
 20
5.000000000000028
 30
0.0
 11
0.0
 21
5.000000000000028
 31
0.0
  0
LINE
  5
C0
330
1F
100
AcDbEntity
  8
0
  6
Continuous
 62
     7
100
AcDbLine
 10
5.0
 20
50.66666666666669
 30
0.0
 11
0.0
 21
50.66666666666669
 31
0.0
  0
LINE
  5
C1
330
1F
100
AcDbEntity
  8
0
  6
Continuous
 62
     7
100
AcDbLine
 10
5.0
 20
96.33333333333334
 30
0.0
 11
0.0
 21
96.33333333333334
 31
0.0
  0
LINE
  5
C2
330
1F
100
AcDbEntity
  8
0
  6
Continuous
 62
     7
100
AcDbLine
 10
5.0
 20
142.0
 30
0.0
 11
0.0
 21
142.0
 31
0.0
  0
LINE
  5
C3
330
1F
100
AcDbEntity
  8
0
  6
Continuous
 62
     7
100
AcDbLine
 10
5.0
 20
187.6666666666667
 30
0.0
 11
0.0
 21
187.6666666666667
 31
0.0
  0
LINE
  5
C4
330
1F
100
AcDbEntity
  8
0
  6
Continuous
 62
     7
100
AcDbLine
 10
5.0
 20
233.3333333333333
 30
0.0
 11
0.0
 21
233.3333333333333
 31
0.0
  0
LINE
  5
C5
330
1F
100
AcDbEntity
  8
0
  6
Continuous
 62
     7
100
AcDbLine
 10
357.125
 20
25.0
 30
0.0
 11
357.125
 21
15.0
 31
0.0
  0
LINE
  5
C6
330
1F
100
AcDbEntity
  8
0
  6
Continuous
 62
     7
100
AcDbLine
 10
5.0
 20
15.0
 30
0.0
 11
82.25
 21
15.0
 31
0.0
  0
LINE
  5
C7
330
1F
100
AcDbEntity
  8
0
  6
Continuous
 62
     7
100
AcDbLine
 10
380.5
 20
30.0
 30
0.0
 11
380.5
 21
5.0
 31
0.0
  0
LINE
  5
C8
330
1F
100
AcDbEntity
  8
0
  6
Continuous
 62
     7
100
AcDbLine
 10
140.1875
 20
25.0
 30
0.0
 11
140.1875
 21
23.3
 31
0.0
  0
LINE
  5
C9
330
1F
100
AcDbEntity
  8
0
  6
Continuous
 62
     7
100
AcDbLine
 10
82.25
 20
25.0
 30
0.0
 11
398.0
 21
25.0
 31
0.0
  0
LINE
  5
CA
330
1F
100
AcDbEntity
  8
0
  6
Continuous
 62
     7
100
AcDbLine
 10
5.0
 20
25.0
 30
0.0
 11
82.25
 21
25.0
 31
0.0
  0
LINE
  5
CB
330
1F
100
AcDbEntity
  8
0
  6
Continuous
 62
     7
100
AcDbLine
 10
120.875
 20
25.0
 30
0.0
 11
120.875
 21
23.3
 31
0.0
  0
LINE
  5
CC
330
1F
100
AcDbEntity
  8
0
  6
Continuous
 62
     7
100
AcDbLine
 10
243.5
 20
15.0
 30
0.0
 11
398.0
 21
15.0
 31
0.0
  0
LINE
  5
CD
330
1F
100
AcDbEntity
  8
0
  6
Continuous
 62
     7
100
AcDbLine
 10
82.25
 20
25.0
 30
0.0
 11
82.25
 21
5.0
 31
0.0
  0
LINE
  5
CE
330
1F
100
AcDbEntity
  8
0
  6
Continuous
 62
     7
100
AcDbLine
 10
5.0
 20
20.0
 30
0.0
 11
82.25
 21
20.0
 31
0.0
  0
LINE
  5
CF
330
1F
100
AcDbEntity
  8
0
  6
Continuous
 62
     7
100
AcDbLine
 10
5.0
 20
10.0
 30
0.0
 11
82.25
 21
10.0
 31
0.0
  0
LINE
  5
D0
330
1F
100
AcDbEntity
  8
0
  6
Continuous
 62
     7
100
AcDbLine
 10
62.15000000000001
 20
15.0
 30
0.0
 11
62.15000000000001
 21
5.0
 31
0.0
  0
LINE
  5
D1
330
1F
100
AcDbEntity
  8
0
  6
Continuous
 62
     7
100
AcDbLine
 10
70.15
 20
15.0
 30
0.0
 11
70.15
 21
5.0
 31
0.0
  0
LINE
  5
D2
330
1F
100
AcDbEntity
  8
0
  6
Continuous
 62
     7
100
AcDbLine
 10
140.1875
 20
6.699999999999989
 30
0.0
 11
140.1875
 21
5.0
 31
0.0
  0
LINE
  5
D3
330
1F
100
AcDbEntity
  8
0
  6
Continuous
 62
     7
100
AcDbLine
 10
101.5625
 20
6.699999999999989
 30
0.0
 11
101.5625
 21
5.0
 31
0.0
  0
LINE
  5
D4
330
1F
100
AcDbEntity
  8
0
  6
Continuous
 62
     7
100
AcDbLine
 10
120.875
 20
6.699999999999989
 30
0.0
 11
120.875
 21
5.0
 31
0.0
  0
LINE
  5
D5
330
1F
100
AcDbEntity
  8
0
  6
Continuous
 62
     7
100
AcDbLine
 10
333.75
 20
30.0
 30
0.0
 11
333.75
 21
5.0
 31
0.0
  0
LINE
  5
D6
330
1F
100
AcDbEntity
  8
0
  6
Continuous
 62
     7
100
AcDbLine
 10
243.5
 20
25.0
 30
0.0
 11
243.5
 21
5.0
 31
0.0
  0
LINE
  5
D7
330
1F
100
AcDbEntity
  8
0
  6
Continuous
 62
     7
100
AcDbLine
 10
159.5
 20
25.0
 30
0.0
 11
159.5
 21
5.0
 31
0.0
  0
LINE
  5
D8
330
1F
100
AcDbEntity
  8
0
  6
Continuous
 62
     7
100
AcDbLine
 10
333.75
 20
30.0
 30
0.0
 11
398.0
 21
30.0
 31
0.0
  0
LINE
  5
D9
330
1F
100
AcDbEntity
  8
0
  6
Continuous
 62
     7
100
AcDbLine
 10
199.8564144080155
 20
16.57481773121327
 30
0.0
 11
202.7542334416271
 21
16.57481773121327
 31
0.0
  0
LINE
  5
DA
330
1F
100
AcDbEntity
  8
0
  6
Continuous
 62
     7
100
AcDbLine
 10
199.8564144080155
 20
16.57481773121327
 30
0.0
 11
199.8564144080155
 21
16.19846391746892
 31
0.0
  0
LINE
  5
DB
330
1F
100
AcDbEntity
  8
0
  6
Continuous
 62
     7
100
AcDbLine
 10
202.7542334416271
 20
16.57481773121327
 30
0.0
 11
202.7542334416271
 21
16.19846391746892
 31
0.0
  0
LINE
  5
DC
330
1F
100
AcDbEntity
  8
0
  6
Continuous
 62
     7
100
AcDbLine
 10
199.8564144080155
 20
16.19846391746892
 30
0.0
 11
202.7542334416271
 21
16.19846391746892
 31
0.0
  0
LINE
  5
DD
330
1F
100
AcDbEntity
  8
0
  6
Continuous
 62
     7
100
AcDbLine
 10
199.8564144080155
 20
15.72481773121327
 30
0.0
 11
202.7542334416271
 21
15.72481773121327
 31
0.0
  0
LINE
  5
DE
330
1F
100
AcDbEntity
  8
0
  6
Continuous
 62
     7
100
AcDbLine
 10
199.8564144080155
 20
15.72481773121327
 30
0.0
 11
199.8564144080155
 21
15.34846391746892
 31
0.0
  0
LINE
  5
DF
330
1F
100
AcDbEntity
  8
0
  6
Continuous
 62
     7
100
AcDbLine
 10
202.7542334416271
 20
15.72481773121327
 30
0.0
 11
202.7542334416271
 21
15.34846391746892
 31
0.0
  0
LINE
  5
E0
330
1F
100
AcDbEntity
  8
0
  6
Continuous
 62
     7
100
AcDbLine
 10
199.8564144080155
 20
15.34846391746892
 30
0.0
 11
202.7542334416271
 21
15.34846391746892
 31
0.0
  0
LINE
  5
E1
330
1F
100
AcDbEntity
  8
0
  6
Continuous
 62
     7
100
AcDbLine
 10
193.4653340736119
 20
17.88205607931857
 30
0.0
 11
195.640052162565
 21
17.88205607931857
 31
0.0
  0
LINE
  5
E2
330
1F
100
AcDbEntity
  8
0
  6
Continuous
 62
     7
100
AcDbLine
 10
194.5394441067292
 20
17.77733558949441
 30
0.0
 11
195.1212685728625
 21
17.46702920755664
 31
0.0
  0
LINE
  5
E3
330
1F
100
AcDbEntity
  8
0
  6
CENTER
 62
     7
100
AcDbLine
 10
339.7684739164864
 20
20.0
 30
0.0
 11
351.1065260835136
 21
20.0
 31
0.0
  0
LINE
  5
E4
330
1F
100
AcDbEntity
  8
0
  6
CENTER
 62
     7
100
AcDbLine
 10
342.4612191565195
 20
23.23200000000001
 30
0.0
 11
342.4612191565195
 21
16.768
 31
0.0
  0
LINE
  5
E5
330
1F
100
AcDbEntity
  8
0
  6
Continuous
 62
     7
100
AcDbLine
 10
346.4612191565196
 20
19.0
 30
0.0
 11
346.4612191565196
 21
21.0
 31
0.0
  0
LINE
  5
E6
330
1F
100
AcDbEntity
  8
0
  6
Continuous
 62
     7
100
AcDbLine
 10
350.4612191565196
 20
22.0
 30
0.0
 11
350.4612191565196
 21
18.0
 31
0.0
  0
LINE
  5
E7
330
1F
100
AcDbEntity
  8
0
  6
Continuous
 62
     7
100
AcDbLine
 10
346.4612191565195
 20
20.99999999999999
 30
0.0
 11
350.4612191565195
 21
21.99999999999999
 31
0.0
  0
LINE
  5
E8
330
1F
100
AcDbEntity
  8
0
  6
Continuous
 62
     7
100
AcDbLine
 10
346.4612191565195
 20
19.0
 30
0.0
 11
350.4612191565196
 21
17.99999999999991
 31
0.0
  0
LINE
  5
E9
330
1F
100
AcDbEntity
  8
0
  6
Continuous
 62
     7
100
AcDbLine
 10
110.5713382774889
 20
78.6103235640577
 30
0.0
 11
113.7379947244426
 21
78.6103235640577
 31
0.0
  0
LINE
  5
EA
330
1F
100
AcDbEntity
  8
0
  6
Continuous
 62
     7
100
AcDbLine
 10
84.57132849239318
 20
79.1103254639557
 30
0.0
 11
113.7379947244426
 21
79.1103254639557
 31
0.0
  0
LINE
  5
EB
330
1F
100
AcDbEntity
  8
0
  6
Continuous
 62
     7
100
AcDbLine
 10
110.5713382774889
 20
244.7770080996999
 30
0.0
 11
110.5713382774889
 21
232.9853339793484
 31
0.0
  0
LINE
  5
EC
330
1F
100
AcDbEntity
  8
0
  6
Continuous
 62
     7
100
AcDbLine
 10
110.5713382774889
 20
244.7770080996999
 30
0.0
 11
113.7379947244426
 21
244.7770080996999
 31
0.0
  0
LINE
  5
ED
330
1F
100
AcDbEntity
  8
0
  6
Continuous
 62
     7
100
AcDbLine
 10
111.1129998498211
 20
245.2769877471975
 30
0.0
 11
113.1963331521104
 21
245.2769877471975
 31
0.0
  0
LINE
  5
EE
330
1F
100
AcDbEntity
  8
0
  6
Continuous
 62
     7
100
AcDbLine
 10
230.3213339499434
 20
79.11032228504136
 30
0.0
 11
230.3213339499434
 21
78.61032356405768
 31
0.0
  0
LINE
  5
EF
330
1F
100
AcDbEntity
  8
0
  6
Continuous
 62
     7
100
AcDbLine
 10
243.2796569176566
 20
79.61032418493942
 30
0.0
 11
247.0296568617772
 21
79.61032418493942
 31
0.0
  0
LINE
  5
F0
330
1F
100
AcDbEntity
  8
0
  6
CENTER
 62
     7
100
AcDbLine
 10
230.3213314043284
 20
246.1360575586152
 30
0.0
 11
230.3213314043284
 21
245.2769877471976
 31
0.0
  0
LINE
  5
F1
330
1F
100
AcDbEntity
  8
0
  6
CENTER
 62
     7
100
AcDbLine
 10
245.1546568897169
 20
246.1360575586152
 30
0.0
 11
245.1546568897169
 21
245.2769877471976
 31
0.0
  0
LINE
  5
F2
330
1F
100
AcDbEntity
  8
0
  6
Continuous
 62
     7
100
AcDbLine
 10
241.6963286941797
 20
244.7770080996999
 30
0.0
 11
241.6963286941797
 21
244.2769775895728
 31
0.0
  0
LINE
  5
F3
330
1F
100
AcDbEntity
  8
0
  6
Continuous
 62
     7
100
AcDbLine
 10
248.7796619219631
 20
244.7770080996999
 30
0.0
 11
248.7796619219631
 21
244.2769775895728
 31
0.0
  0
LINE
  5
F4
330
1F
100
AcDbEntity
  8
0
  6
Continuous
 62
     7
100
AcDbLine
 10
241.6963286941797
 20
244.2769775895728
 30
0.0
 11
248.7796619219631
 21
244.2769775895728
 31
0.0
  0
LINE
  5
F5
330
1F
100
AcDbEntity
  8
0
  6
Continuous
 62
     7
100
AcDbLine
 10
111.1129998498211
 20
245.2769877471976
 30
0.0
 11
111.1129998498211
 21
244.7770080996999
 31
0.0
  0
LINE
  5
F6
330
1F
100
AcDbEntity
  8
0
  6
Continuous
 62
     7
100
AcDbLine
 10
113.1963331521104
 20
245.2769877471976
 30
0.0
 11
113.1963331521104
 21
244.7770080996999
 31
0.0
  0
LINE
  5
F7
330
1F
100
AcDbEntity
  8
0
  6
Continuous
 62
     7
100
AcDbLine
 10
85.98797987916103
 20
230.9019879614017
 30
0.0
 11
112.1546665009658
 21
230.9019879614017
 31
0.0
  0
LINE
  5
F8
330
1F
100
AcDbEntity
  8
0
  6
Continuous
 62
     7
100
AcDbLine
 10
85.98797987916103
 20
232.985321263691
 30
0.0
 11
112.1546665009658
 21
232.985321263691
 31
0.0
  0
LINE
  5
F9
330
1F
100
AcDbEntity
  8
0
  6
Continuous
 62
     7
100
AcDbLine
 10
112.1546665009658
 20
232.9853339793484
 30
0.0
 11
112.1546665009658
 21
230.9020006770591
 31
0.0
  0
LINE
  5
FA
330
1F
100
AcDbEntity
  8
0
  6
Continuous
 62
     7
100
AcDbLine
 10
85.987979879161
 20
232.9853339793484
 30
0.0
 11
85.987979879161
 21
230.9020006770591
 31
0.0
  0
LINE
  5
FB
330
1F
100
AcDbEntity
  8
0
  6
Continuous
 62
     7
100
AcDbLine
 10
85.98797987916103
 20
217.1519881662927
 30
0.0
 11
112.1546665009658
 21
217.1519881662927
 31
0.0
  0
LINE
  5
FC
330
1F
100
AcDbEntity
  8
0
  6
Continuous
 62
     7
100
AcDbLine
 10
85.98797987916103
 20
219.2353214685819
 30
0.0
 11
112.1546665009658
 21
219.2353214685819
 31
0.0
  0
LINE
  5
FD
330
1F
100
AcDbEntity
  8
0
  6
Continuous
 62
     7
100
AcDbLine
 10
85.98797987916103
 20
205.4853216734729
 30
0.0
 11
112.1546665009658
 21
205.4853216734729
 31
0.0
  0
LINE
  5
FE
330
1F
100
AcDbEntity
  8
0
  6
Continuous
 62
     7
100
AcDbLine
 10
85.98797987916103
 20
203.4019883711836
 30
0.0
 11
112.1546665009658
 21
203.4019883711836
 31
0.0
  0
LINE
  5
FF
330
1F
100
AcDbEntity
  8
0
  6
Continuous
 62
     7
100
AcDbLine
 10
85.98797987916103
 20
191.7353218783639
 30
0.0
 11
112.1546665009658
 21
191.7353218783639
 31
0.0
  0
LINE
  5
100
330
1F
100
AcDbEntity
  8
0
  6
Continuous
 62
     7
100
AcDbLine
 10
85.98797987916103
 20
189.6519885760746
 30
0.0
 11
112.1546665009658
 21
189.6519885760746
 31
0.0
  0
LINE
  5
101
330
1F
100
AcDbEntity
  8
0
  6
Continuous
 62
     7
100
AcDbLine
 10
85.98797987916103
 20
177.9853220832548
 30
0.0
 11
112.1546665009658
 21
177.9853220832548
 31
0.0
  0
LINE
  5
102
330
1F
100
AcDbEntity
  8
0
  6
Continuous
 62
     7
100
AcDbLine
 10
85.98797987916103
 20
175.9019887809656
 30
0.0
 11
112.1546665009658
 21
175.9019887809656
 31
0.0
  0
LINE
  5
103
330
1F
100
AcDbEntity
  8
0
  6
Continuous
 62
     7
100
AcDbLine
 10
85.98797987916103
 20
164.2353222881458
 30
0.0
 11
112.1546665009658
 21
164.2353222881458
 31
0.0
  0
LINE
  5
104
330
1F
100
AcDbEntity
  8
0
  6
Continuous
 62
     7
100
AcDbLine
 10
85.98797987916103
 20
162.1519889858565
 30
0.0
 11
112.1546665009658
 21
162.1519889858565
 31
0.0
  0
LINE
  5
105
330
1F
100
AcDbEntity
  8
0
  6
Continuous
 62
     7
100
AcDbLine
 10
85.98797987916103
 20
150.4853224930367
 30
0.0
 11
112.1546665009658
 21
150.4853224930367
 31
0.0
  0
LINE
  5
106
330
1F
100
AcDbEntity
  8
0
  6
Continuous
 62
     7
100
AcDbLine
 10
85.98797987916103
 20
148.4019891907475
 30
0.0
 11
112.1546665009658
 21
148.4019891907475
 31
0.0
  0
LINE
  5
107
330
1F
100
AcDbEntity
  8
0
  6
Continuous
 62
     7
100
AcDbLine
 10
85.98797987916103
 20
136.7353226979277
 30
0.0
 11
112.1546665009658
 21
136.7353226979277
 31
0.0
  0
LINE
  5
108
330
1F
100
AcDbEntity
  8
0
  6
Continuous
 62
     7
100
AcDbLine
 10
85.98797987916103
 20
134.6519893956384
 30
0.0
 11
112.1546665009658
 21
134.6519893956384
 31
0.0
  0
LINE
  5
109
330
1F
100
AcDbEntity
  8
0
  6
Continuous
 62
     7
100
AcDbLine
 10
85.98797987916103
 20
122.9853229028187
 30
0.0
 11
112.1546665009658
 21
122.9853229028187
 31
0.0
  0
LINE
  5
10A
330
1F
100
AcDbEntity
  8
0
  6
Continuous
 62
     7
100
AcDbLine
 10
85.98797987916103
 20
120.9019896005294
 30
0.0
 11
112.1546665009658
 21
120.9019896005294
 31
0.0
  0
LINE
  5
10B
330
1F
100
AcDbEntity
  8
0
  6
Continuous
 62
     7
100
AcDbLine
 10
85.98797987916103
 20
107.1519898054204
 30
0.0
 11
112.1546665009658
 21
107.1519898054204
 31
0.0
  0
LINE
  5
10C
330
1F
100
AcDbEntity
  8
0
  6
Continuous
 62
     7
100
AcDbLine
 10
85.98797987916103
 20
109.2353231077096
 30
0.0
 11
112.1546665009658
 21
109.2353231077096
 31
0.0
  0
LINE
  5
10D
330
1F
100
AcDbEntity
  8
0
  6
Continuous
 62
     7
100
AcDbLine
 10
85.987979879161
 20
219.235321468582
 30
0.0
 11
85.987979879161
 21
217.1519881662927
 31
0.0
  0
LINE
  5
10E
330
1F
100
AcDbEntity
  8
0
  6
Continuous
 62
     7
100
AcDbLine
 10
85.987979879161
 20
205.4853216734729
 30
0.0
 11
85.987979879161
 21
203.4019883711837
 31
0.0
  0
LINE
  5
10F
330
1F
100
AcDbEntity
  8
0
  6
Continuous
 62
     7
100
AcDbLine
 10
85.987979879161
 20
191.7353218783639
 30
0.0
 11
85.987979879161
 21
189.6519885760746
 31
0.0
  0
LINE
  5
110
330
1F
100
AcDbEntity
  8
0
  6
Continuous
 62
     7
100
AcDbLine
 10
85.987979879161
 20
177.9853220832548
 30
0.0
 11
85.987979879161
 21
175.9019887809656
 31
0.0
  0
LINE
  5
111
330
1F
100
AcDbEntity
  8
0
  6
Continuous
 62
     7
100
AcDbLine
 10
85.987979879161
 20
164.2353222881458
 30
0.0
 11
85.987979879161
 21
162.1519889858565
 31
0.0
  0
LINE
  5
112
330
1F
100
AcDbEntity
  8
0
  6
Continuous
 62
     7
100
AcDbLine
 10
85.987979879161
 20
150.4853224930367
 30
0.0
 11
85.987979879161
 21
148.4019891907475
 31
0.0
  0
LINE
  5
113
330
1F
100
AcDbEntity
  8
0
  6
Continuous
 62
     7
100
AcDbLine
 10
85.987979879161
 20
136.7353226979277
 30
0.0
 11
85.987979879161
 21
134.6519893956385
 31
0.0
  0
LINE
  5
114
330
1F
100
AcDbEntity
  8
0
  6
Continuous
 62
     7
100
AcDbLine
 10
85.987979879161
 20
122.9853229028186
 30
0.0
 11
85.987979879161
 21
120.9019896005294
 31
0.0
  0
LINE
  5
115
330
1F
100
AcDbEntity
  8
0
  6
Continuous
 62
     7
100
AcDbLine
 10
85.987979879161
 20
109.2353231077096
 30
0.0
 11
85.987979879161
 21
107.1519898054204
 31
0.0
  0
LINE
  5
116
330
1F
100
AcDbEntity
  8
0
  6
Continuous
 62
     7
100
AcDbLine
 10
112.1546665009658
 20
109.2353231077096
 30
0.0
 11
112.1546665009658
 21
107.1519898054204
 31
0.0
  0
LINE
  5
117
330
1F
100
AcDbEntity
  8
0
  6
Continuous
 62
     7
100
AcDbLine
 10
112.1546665009658
 20
122.9853229028186
 30
0.0
 11
112.1546665009658
 21
120.9019896005294
 31
0.0
  0
LINE
  5
118
330
1F
100
AcDbEntity
  8
0
  6
Continuous
 62
     7
100
AcDbLine
 10
112.1546665009658
 20
136.7353226979277
 30
0.0
 11
112.1546665009658
 21
134.6519893956385
 31
0.0
  0
LINE
  5
119
330
1F
100
AcDbEntity
  8
0
  6
Continuous
 62
     7
100
AcDbLine
 10
112.1546665009658
 20
150.4853224930367
 30
0.0
 11
112.1546665009658
 21
148.4019891907475
 31
0.0
  0
LINE
  5
11A
330
1F
100
AcDbEntity
  8
0
  6
Continuous
 62
     7
100
AcDbLine
 10
112.1546665009658
 20
164.2353222881458
 30
0.0
 11
112.1546665009658
 21
162.1519889858565
 31
0.0
  0
LINE
  5
11B
330
1F
100
AcDbEntity
  8
0
  6
Continuous
 62
     7
100
AcDbLine
 10
112.1546665009658
 20
177.9853220832548
 30
0.0
 11
112.1546665009658
 21
175.9019887809656
 31
0.0
  0
LINE
  5
11C
330
1F
100
AcDbEntity
  8
0
  6
Continuous
 62
     7
100
AcDbLine
 10
113.7379947244426
 20
244.7770080996999
 30
0.0
 11
113.7379947244426
 21
233.8603492250986
 31
0.0
  0
LINE
  5
11D
330
1F
100
AcDbEntity
  8
0
  6
Continuous
 62
     7
100
AcDbLine
 10
112.1546665009658
 20
191.7353218783639
 30
0.0
 11
112.1546665009658
 21
189.6519885760746
 31
0.0
  0
LINE
  5
11E
330
1F
100
AcDbEntity
  8
0
  6
Continuous
 62
     7
100
AcDbLine
 10
112.1546665009658
 20
205.4853216734729
 30
0.0
 11
112.1546665009658
 21
203.4019883711837
 31
0.0
  0
LINE
  5
11F
330
1F
100
AcDbEntity
  8
0
  6
Continuous
 62
     7
100
AcDbLine
 10
112.1546665009658
 20
219.235321468582
 30
0.0
 11
112.1546665009658
 21
217.1519881662927
 31
0.0
  0
LINE
  5
120
330
1F
100
AcDbEntity
  8
0
  6
Continuous
 62
     7
100
AcDbLine
 10
84.57132849239315
 20
245.010314980989
 30
0.0
 11
84.57132849239315
 21
78.61032356405768
 31
0.0
  0
LINE
  5
121
330
1F
100
AcDbEntity
  8
0
  6
Continuous
 62
     7
100
AcDbLine
 10
89.57132841788734
 20
245.010314980989
 30
0.0
 11
89.57132841788734
 21
232.9853339793484
 31
0.0
  0
LINE
  5
122
330
1F
100
AcDbEntity
  8
0
  6
Continuous
 62
     7
100
AcDbLine
 10
110.5713382774889
 20
79.11032228504136
 30
0.0
 11
110.5713382774889
 21
78.61032356405768
 31
0.0
  0
LINE
  5
123
330
1F
100
AcDbEntity
  8
0
  6
Continuous
 62
     7
100
AcDbLine
 10
84.57132849239318
 20
78.6103235640577
 30
0.0
 11
87.73801037066167
 21
78.6103235640577
 31
0.0
  0
LINE
  5
124
330
1F
100
AcDbEntity
  8
0
  6
Continuous
 62
     7
100
AcDbLine
 10
84.57132849239318
 20
83.27698888961987
 30
0.0
 11
113.7379947244426
 21
83.27698888961987
 31
0.0
  0
LINE
  5
125
330
1F
100
AcDbEntity
  8
0
  6
Continuous
 62
     7
100
AcDbLine
 10
241.6130029914826
 20
107.0686513870659
 30
0.0
 11
248.696336219266
 21
107.0686513870659
 31
0.0
  0
LINE
  5
126
330
1F
100
AcDbEntity
  8
0
  6
Continuous
 62
     7
100
AcDbLine
 10
241.6130029914826
 20
104.9853180847766
 30
0.0
 11
248.696336219266
 21
104.9853180847766
 31
0.0
  0
LINE
  5
127
330
1F
100
AcDbEntity
  8
0
  6
Continuous
 62
     7
100
AcDbLine
 10
112.1963382122963
 20
98.86033852109802
 30
0.0
 11
114.9463382122963
 21
98.86033852109802
 31
0.0
  0
LINE
  5
128
330
1F
100
AcDbEntity
  8
0
  6
Continuous
 62
     7
100
AcDbLine
 10
112.1963382122963
 20
96.69366680045425
 30
0.0
 11
114.9463382122963
 21
96.69366680045425
 31
0.0
  0
LINE
  5
129
330
1F
100
AcDbEntity
  8
0
  6
Continuous
 62
     7
100
AcDbLine
 10
114.9463382122963
 20
98.860338521098
 30
0.0
 11
114.9463382122963
 21
96.69366680045424
 31
0.0
  0
LINE
  5
12A
330
1F
100
AcDbEntity
  8
0
  6
Continuous
 62
     7
100
AcDbLine
 10
114.613009970193
 20
98.860338521098
 30
0.0
 11
114.613009970193
 21
96.69366680045424
 31
0.0
  0
LINE
  5
12B
330
1F
100
AcDbEntity
  8
0
  6
Continuous
 62
     7
100
AcDbLine
 10
112.1963382122963
 20
233.8603492250986
 30
0.0
 11
114.9463382122963
 21
233.8603492250986
 31
0.0
  0
LINE
  5
12C
330
1F
100
AcDbEntity
  8
0
  6
Continuous
 62
     7
100
AcDbLine
 10
114.9463382122963
 20
233.8603365094413
 30
0.0
 11
114.9463382122963
 21
231.6936647887975
 31
0.0
  0
LINE
  5
12D
330
1F
100
AcDbEntity
  8
0
  6
Continuous
 62
     7
100
AcDbLine
 10
114.613009970193
 20
233.8603365094413
 30
0.0
 11
114.613009970193
 21
231.6936647887975
 31
0.0
  0
LINE
  5
12E
330
1F
100
AcDbEntity
  8
0
  6
Continuous
 62
     7
100
AcDbLine
 10
112.1963382122963
 20
231.6936520731402
 30
0.0
 11
114.9463382122963
 21
231.6936520731402
 31
0.0
  0
LINE
  5
12F
330
1F
100
AcDbEntity
  8
0
  6
Continuous
 62
     7
100
AcDbLine
 10
112.1963382122963
 20
218.8603494486161
 30
0.0
 11
114.9463382122963
 21
218.8603494486161
 31
0.0
  0
LINE
  5
130
330
1F
100
AcDbEntity
  8
0
  6
Continuous
 62
     7
100
AcDbLine
 10
114.9463382122963
 20
218.8603367329587
 30
0.0
 11
114.9463382122963
 21
216.693665012315
 31
0.0
  0
LINE
  5
131
330
1F
100
AcDbEntity
  8
0
  6
Continuous
 62
     7
100
AcDbLine
 10
114.613009970193
 20
218.8603367329587
 30
0.0
 11
114.613009970193
 21
216.693665012315
 31
0.0
  0
LINE
  5
132
330
1F
100
AcDbEntity
  8
0
  6
Continuous
 62
     7
100
AcDbLine
 10
112.1963382122963
 20
216.6936522966576
 30
0.0
 11
114.9463382122963
 21
216.6936522966576
 31
0.0
  0
LINE
  5
133
330
1F
100
AcDbEntity
  8
0
  6
Continuous
 62
     7
100
AcDbLine
 10
112.1963382122963
 20
203.8603496721335
 30
0.0
 11
114.9463382122963
 21
203.8603496721335
 31
0.0
  0
LINE
  5
134
330
1F
100
AcDbEntity
  8
0
  6
Continuous
 62
     7
100
AcDbLine
 10
114.9463382122963
 20
203.8603369564761
 30
0.0
 11
114.9463382122963
 21
201.6936652358324
 31
0.0
  0
LINE
  5
135
330
1F
100
AcDbEntity
  8
0
  6
Continuous
 62
     7
100
AcDbLine
 10
114.613009970193
 20
203.8603369564761
 30
0.0
 11
114.613009970193
 21
201.6936652358324
 31
0.0
  0
LINE
  5
136
330
1F
100
AcDbEntity
  8
0
  6
Continuous
 62
     7
100
AcDbLine
 10
112.1963382122963
 20
201.693652520175
 30
0.0
 11
114.9463382122963
 21
201.693652520175
 31
0.0
  0
LINE
  5
137
330
1F
100
AcDbEntity
  8
0
  6
Continuous
 62
     7
100
AcDbLine
 10
112.1963382122963
 20
188.8603371799935
 30
0.0
 11
114.9463382122963
 21
188.8603371799935
 31
0.0
  0
LINE
  5
138
330
1F
100
AcDbEntity
  8
0
  6
Continuous
 62
     7
100
AcDbLine
 10
114.9463382122963
 20
188.8603371799936
 30
0.0
 11
114.9463382122963
 21
186.6936654593497
 31
0.0
  0
LINE
  5
139
330
1F
100
AcDbEntity
  8
0
  6
Continuous
 62
     7
100
AcDbLine
 10
114.613009970193
 20
188.8603371799936
 30
0.0
 11
114.613009970193
 21
186.6936654593497
 31
0.0
  0
LINE
  5
13A
330
1F
100
AcDbEntity
  8
0
  6
Continuous
 62
     7
100
AcDbLine
 10
112.1963382122963
 20
186.6936654593498
 30
0.0
 11
114.9463382122963
 21
186.6936654593498
 31
0.0
  0
LINE
  5
13B
330
1F
100
AcDbEntity
  8
0
  6
Continuous
 62
     7
100
AcDbLine
 10
112.1963382122963
 20
173.860337403511
 30
0.0
 11
114.9463382122963
 21
173.860337403511
 31
0.0
  0
LINE
  5
13C
330
1F
100
AcDbEntity
  8
0
  6
Continuous
 62
     7
100
AcDbLine
 10
114.9463382122963
 20
173.8603374035109
 30
0.0
 11
114.9463382122963
 21
171.6936656828672
 31
0.0
  0
LINE
  5
13D
330
1F
100
AcDbEntity
  8
0
  6
Continuous
 62
     7
100
AcDbLine
 10
114.613009970193
 20
173.8603374035109
 30
0.0
 11
114.613009970193
 21
171.6936656828672
 31
0.0
  0
LINE
  5
13E
330
1F
100
AcDbEntity
  8
0
  6
Continuous
 62
     7
100
AcDbLine
 10
112.1963382122963
 20
171.6936656828672
 30
0.0
 11
114.9463382122963
 21
171.6936656828672
 31
0.0
  0
LINE
  5
13F
330
1F
100
AcDbEntity
  8
0
  6
Continuous
 62
     7
100
AcDbLine
 10
112.1963382122963
 20
158.8603376270284
 30
0.0
 11
114.9463382122963
 21
158.8603376270284
 31
0.0
  0
LINE
  5
140
330
1F
100
AcDbEntity
  8
0
  6
Continuous
 62
     7
100
AcDbLine
 10
114.9463382122963
 20
158.8603376270283
 30
0.0
 11
114.9463382122963
 21
156.6936659063846
 31
0.0
  0
LINE
  5
141
330
1F
100
AcDbEntity
  8
0
  6
Continuous
 62
     7
100
AcDbLine
 10
114.613009970193
 20
158.8603376270283
 30
0.0
 11
114.613009970193
 21
156.6936659063846
 31
0.0
  0
LINE
  5
142
330
1F
100
AcDbEntity
  8
0
  6
Continuous
 62
     7
100
AcDbLine
 10
112.1963382122963
 20
156.6936659063846
 30
0.0
 11
114.9463382122963
 21
156.6936659063846
 31
0.0
  0
LINE
  5
143
330
1F
100
AcDbEntity
  8
0
  6
Continuous
 62
     7
100
AcDbLine
 10
112.1963382122963
 20
143.8603378505457
 30
0.0
 11
114.9463382122963
 21
143.8603378505457
 31
0.0
  0
LINE
  5
144
330
1F
100
AcDbEntity
  8
0
  6
Continuous
 62
     7
100
AcDbLine
 10
114.9463382122963
 20
143.8603378505458
 30
0.0
 11
114.9463382122963
 21
141.693666129902
 31
0.0
  0
LINE
  5
145
330
1F
100
AcDbEntity
  8
0
  6
Continuous
 62
     7
100
AcDbLine
 10
114.613009970193
 20
143.8603378505458
 30
0.0
 11
114.613009970193
 21
141.693666129902
 31
0.0
  0
LINE
  5
146
330
1F
100
AcDbEntity
  8
0
  6
Continuous
 62
     7
100
AcDbLine
 10
112.1963382122963
 20
141.693666129902
 30
0.0
 11
114.9463382122963
 21
141.693666129902
 31
0.0
  0
LINE
  5
147
330
1F
100
AcDbEntity
  8
0
  6
Continuous
 62
     7
100
AcDbLine
 10
112.1963382122963
 20
128.8603317162345
 30
0.0
 11
114.9463382122963
 21
128.8603317162345
 31
0.0
  0
LINE
  5
148
330
1F
100
AcDbEntity
  8
0
  6
Continuous
 62
     7
100
AcDbLine
 10
114.9463382122963
 20
128.8603380740632
 30
0.0
 11
114.9463382122963
 21
126.6936663534194
 31
0.0
  0
LINE
  5
149
330
1F
100
AcDbEntity
  8
0
  6
Continuous
 62
     7
100
AcDbLine
 10
114.613009970193
 20
128.8603380740632
 30
0.0
 11
114.613009970193
 21
126.6936663534194
 31
0.0
  0
LINE
  5
14A
330
1F
100
AcDbEntity
  8
0
  6
Continuous
 62
     7
100
AcDbLine
 10
112.1963382122963
 20
126.6936663534194
 30
0.0
 11
114.9463382122963
 21
126.6936663534194
 31
0.0
  0
LINE
  5
14B
330
1F
100
AcDbEntity
  8
0
  6
Continuous
 62
     7
100
AcDbLine
 10
112.1963382122963
 20
113.8603382975806
 30
0.0
 11
114.9463382122963
 21
113.8603382975806
 31
0.0
  0
LINE
  5
14C
330
1F
100
AcDbEntity
  8
0
  6
Continuous
 62
     7
100
AcDbLine
 10
114.9463382122963
 20
113.8603382975806
 30
0.0
 11
114.9463382122963
 21
111.6936665769368
 31
0.0
  0
LINE
  5
14D
330
1F
100
AcDbEntity
  8
0
  6
Continuous
 62
     7
100
AcDbLine
 10
114.613009970193
 20
113.8603382975806
 30
0.0
 11
114.613009970193
 21
111.6936665769368
 31
0.0
  0
LINE
  5
14E
330
1F
100
AcDbEntity
  8
0
  6
Continuous
 62
     7
100
AcDbLine
 10
112.1963382122963
 20
111.6936665769368
 30
0.0
 11
114.9463382122963
 21
111.6936665769368
 31
0.0
  0
LINE
  5
14F
330
1F
100
AcDbEntity
  8
0
  6
Continuous
 62
     7
100
AcDbLine
 10
110.5713382774889
 20
230.9020006770591
 30
0.0
 11
110.5713382774889
 21
219.235321468582
 31
0.0
  0
LINE
  5
150
330
1F
100
AcDbEntity
  8
0
  6
Continuous
 62
     7
100
AcDbLine
 10
110.5713382774889
 20
217.1519881662927
 30
0.0
 11
110.5713382774889
 21
205.4853216734729
 31
0.0
  0
LINE
  5
151
330
1F
100
AcDbEntity
  8
0
  6
Continuous
 62
     7
100
AcDbLine
 10
110.5713382774889
 20
203.4019883711837
 30
0.0
 11
110.5713382774889
 21
191.7353218783639
 31
0.0
  0
LINE
  5
152
330
1F
100
AcDbEntity
  8
0
  6
Continuous
 62
     7
100
AcDbLine
 10
110.5713382774889
 20
189.6519885760746
 30
0.0
 11
110.5713382774889
 21
177.9853220832548
 31
0.0
  0
LINE
  5
153
330
1F
100
AcDbEntity
  8
0
  6
Continuous
 62
     7
100
AcDbLine
 10
110.5713382774889
 20
175.9019887809656
 30
0.0
 11
110.5713382774889
 21
164.2353222881458
 31
0.0
  0
LINE
  5
154
330
1F
100
AcDbEntity
  8
0
  6
Continuous
 62
     7
100
AcDbLine
 10
110.5713382774889
 20
162.1519889858565
 30
0.0
 11
110.5713382774889
 21
150.4853224930367
 31
0.0
  0
LINE
  5
155
330
1F
100
AcDbEntity
  8
0
  6
Continuous
 62
     7
100
AcDbLine
 10
110.5713382774889
 20
148.4019891907475
 30
0.0
 11
110.5713382774889
 21
136.7353226979277
 31
0.0
  0
LINE
  5
156
330
1F
100
AcDbEntity
  8
0
  6
Continuous
 62
     7
100
AcDbLine
 10
110.5713382774889
 20
134.6519893956385
 30
0.0
 11
110.5713382774889
 21
122.9853229028186
 31
0.0
  0
LINE
  5
157
330
1F
100
AcDbEntity
  8
0
  6
Continuous
 62
     7
100
AcDbLine
 10
110.5713382774889
 20
120.9019896005294
 30
0.0
 11
110.5713382774889
 21
109.2353231077096
 31
0.0
  0
LINE
  5
158
330
1F
100
AcDbEntity
  8
0
  6
Continuous
 62
     7
100
AcDbLine
 10
110.5713382774889
 20
107.1519898054204
 30
0.0
 11
110.5713382774889
 21
83.27698888961986
 31
0.0
  0
LINE
  5
159
330
1F
100
AcDbEntity
  8
0
  6
Continuous
 62
     7
100
AcDbLine
 10
89.57132841788734
 20
230.9020006770591
 30
0.0
 11
89.57132841788734
 21
219.235321468582
 31
0.0
  0
LINE
  5
15A
330
1F
100
AcDbEntity
  8
0
  6
Continuous
 62
     7
100
AcDbLine
 10
89.57132841788734
 20
217.1519881662927
 30
0.0
 11
89.57132841788734
 21
205.4853216734729
 31
0.0
  0
LINE
  5
15B
330
1F
100
AcDbEntity
  8
0
  6
Continuous
 62
     7
100
AcDbLine
 10
89.57132841788734
 20
203.4019883711837
 30
0.0
 11
89.57132841788734
 21
191.7353218783639
 31
0.0
  0
LINE
  5
15C
330
1F
100
AcDbEntity
  8
0
  6
Continuous
 62
     7
100
AcDbLine
 10
89.57132841788734
 20
189.6519885760746
 30
0.0
 11
89.57132841788734
 21
177.9853220832548
 31
0.0
  0
LINE
  5
15D
330
1F
100
AcDbEntity
  8
0
  6
Continuous
 62
     7
100
AcDbLine
 10
89.57132841788734
 20
175.9019887809656
 30
0.0
 11
89.57132841788734
 21
164.2353222881458
 31
0.0
  0
LINE
  5
15E
330
1F
100
AcDbEntity
  8
0
  6
Continuous
 62
     7
100
AcDbLine
 10
89.57132841788734
 20
162.1519889858565
 30
0.0
 11
89.57132841788734
 21
150.4853224930367
 31
0.0
  0
LINE
  5
15F
330
1F
100
AcDbEntity
  8
0
  6
Continuous
 62
     7
100
AcDbLine
 10
89.57132841788734
 20
148.4019891907475
 30
0.0
 11
89.57132841788734
 21
136.7353226979277
 31
0.0
  0
LINE
  5
160
330
1F
100
AcDbEntity
  8
0
  6
Continuous
 62
     7
100
AcDbLine
 10
89.57132841788734
 20
134.6519893956385
 30
0.0
 11
89.57132841788734
 21
122.9853229028186
 31
0.0
  0
LINE
  5
161
330
1F
100
AcDbEntity
  8
0
  6
Continuous
 62
     7
100
AcDbLine
 10
89.57132841788734
 20
120.9019896005294
 30
0.0
 11
89.57132841788734
 21
109.2353231077096
 31
0.0
  0
LINE
  5
162
330
1F
100
AcDbEntity
  8
0
  6
Continuous
 62
     7
100
AcDbLine
 10
89.57132841788734
 20
107.1519898054204
 30
0.0
 11
89.57132841788734
 21
83.27698888961986
 31
0.0
  0
LINE
  5
163
330
1F
100
AcDbEntity
  8
0
  6
Continuous
 62
     7
100
AcDbLine
 10
230.3213314043284
 20
107.0686513870659
 30
0.0
 11
230.3213314043284
 21
104.9853180847766
 31
0.0
  0
LINE
  5
164
330
1F
100
AcDbEntity
  8
0
  6
Continuous
 62
     7
100
AcDbLine
 10
248.696336219266
 20
107.0686513870659
 30
0.0
 11
248.696336219266
 21
104.9853180847766
 31
0.0
  0
LINE
  5
165
330
1F
100
AcDbEntity
  8
0
  6
Continuous
 62
     7
100
AcDbLine
 10
230.3213314043284
 20
230.8186495430472
 30
0.0
 11
230.3213314043284
 21
228.735316240758
 31
0.0
  0
LINE
  5
166
330
1F
100
AcDbEntity
  8
0
  6
Continuous
 62
     7
100
AcDbLine
 10
241.6130029914826
 20
230.8186622587046
 30
0.0
 11
248.696336219266
 21
230.8186622587046
 31
0.0
  0
LINE
  5
167
330
1F
100
AcDbEntity
  8
0
  6
Continuous
 62
     7
100
AcDbLine
 10
241.6130029914826
 20
228.7353289564153
 30
0.0
 11
248.696336219266
 21
228.7353289564153
 31
0.0
  0
LINE
  5
168
330
1F
100
AcDbEntity
  8
0
  6
Continuous
 62
     7
100
AcDbLine
 10
248.696336219266
 20
230.8186495430472
 30
0.0
 11
248.696336219266
 21
228.735316240758
 31
0.0
  0
LINE
  5
169
330
1F
100
AcDbEntity
  8
0
  6
Continuous
 62
     7
100
AcDbLine
 10
230.3213314043284
 20
162.068650567502
 30
0.0
 11
230.3213314043284
 21
159.9853172652128
 31
0.0
  0
LINE
  5
16A
330
1F
100
AcDbEntity
  8
0
  6
Continuous
 62
     7
100
AcDbLine
 10
241.6130029914826
 20
162.068650567502
 30
0.0
 11
248.696336219266
 21
162.068650567502
 31
0.0
  0
LINE
  5
16B
330
1F
100
AcDbEntity
  8
0
  6
Continuous
 62
     7
100
AcDbLine
 10
241.6130029914826
 20
159.9853172652128
 30
0.0
 11
248.696336219266
 21
159.9853172652128
 31
0.0
  0
LINE
  5
16C
330
1F
100
AcDbEntity
  8
0
  6
Continuous
 62
     7
100
AcDbLine
 10
248.696336219266
 20
162.068650567502
 30
0.0
 11
248.696336219266
 21
159.9853172652128
 31
0.0
  0
LINE
  5
16D
330
1F
100
AcDbEntity
  8
0
  6
Continuous
 62
     7
100
AcDbLine
 10
84.30465572618462
 20
245.2769877471975
 30
0.0
 11
88.47132233076312
 21
245.2769877471975
 31
0.0
  0
LINE
  5
16E
330
1F
100
AcDbEntity
  8
0
  6
Continuous
 62
     7
100
AcDbLine
 10
84.57132849239318
 20
245.010314980989
 30
0.0
 11
89.57132841788737
 21
245.010314980989
 31
0.0
  0
LINE
  5
16F
330
1F
100
AcDbEntity
  8
0
  6
Continuous
 62
     7
100
AcDbLine
 10
84.30465572618459
 20
245.2769877471976
 30
0.0
 11
84.30465572618459
 21
241.1103338582764
 31
0.0
  0
LINE
  5
170
330
1F
100
AcDbEntity
  8
0
  6
Continuous
 62
     7
100
AcDbLine
 10
84.30465572618462
 20
241.110321142619
 30
0.0
 11
84.57132849239318
 21
241.110321142619
 31
0.0
  0
LINE
  5
171
330
1F
100
AcDbEntity
  8
0
  6
Continuous
 62
     7
100
AcDbLine
 10
88.47132233076309
 20
245.2769877471976
 30
0.0
 11
88.47132233076309
 21
245.010314980989
 31
0.0
  0
LINE
  5
172
330
1F
100
AcDbEntity
  8
0
  6
CENTER
 62
     7
100
AcDbLine
 10
85.19632848307992
 20
239.0270005559872
 30
0.0
 11
85.19632848307992
 21
236.9436672536979
 31
0.0
  0
LINE
  5
173
330
1F
100
AcDbEntity
  8
0
  6
CENTER
 62
     7
100
AcDbLine
 10
85.19632848307995
 20
236.9436545380405
 30
0.0
 11
123.1129945847443
 21
236.9436545380405
 31
0.0
  0
LINE
  5
174
330
1F
100
AcDbEntity
  8
0
  6
CENTER
 62
     7
100
AcDbLine
 10
85.19632848307995
 20
239.0269878403298
 30
0.0
 11
121.7367789883895
 21
239.0269878403298
 31
0.0
  0
LINE
  5
175
330
1F
100
AcDbEntity
  8
0
  6
CENTER
 62
     7
100
AcDbLine
 10
123.1129153625326
 20
236.9437331185337
 30
0.0
 11
131.9517559877645
 21
245.7825729987071
 31
0.0
  0
LINE
  5
176
330
1F
100
AcDbEntity
  8
0
  6
CENTER
 62
     7
100
AcDbLine
 10
123.112940118487
 20
237.6508718083953
 30
0.0
 11
131.5982192512977
 21
246.1361502259505
 31
0.0
  0
LINE
  5
177
330
1F
100
AcDbEntity
  8
0
  6
CENTER
 62
     7
100
AcDbLine
 10
131.5982925143962
 20
246.1360425640974
 30
0.0
 11
133.0714316820049
 21
244.6629035206651
 31
0.0
  0
LINE
  5
178
330
1F
100
AcDbEntity
  8
0
  6
CENTER
 62
     7
100
AcDbLine
 10
121.7367795279272
 20
239.0269900167814
 30
0.0
 11
123.1129921804796
 21
237.6507774802351
 31
0.0
  0
LINE
  5
179
330
1F
100
AcDbEntity
  8
0
  6
CENTER
 62
     7
100
AcDbLine
 10
126.0592115860321
 20
237.6508649407235
 30
0.0
 11
133.0713459316542
 21
244.6629986952669
 31
0.0
  0
LINE
  5
17A
330
1F
100
AcDbEntity
  8
0
  6
CENTER
 62
     7
100
AcDbLine
 10
124.9396972119963
 20
238.7703686722171
 30
0.0
 11
126.0592793828477
 21
237.6507865957394
 31
0.0
  0
LINE
  5
17B
330
1F
100
AcDbEntity
  8
0
  6
Continuous
 62
     7
100
AcDbLine
 10
94.0088130929746
 20
120.9019896005294
 30
0.0
 11
94.0088130929746
 21
114.4019871542555
 31
0.0
  0
LINE
  5
17C
330
1F
100
AcDbEntity
  8
0
  6
Continuous
 62
     7
100
AcDbLine
 10
94.63381308366138
 20
120.9019896005294
 30
0.0
 11
94.63381308366138
 21
114.4019871542555
 31
0.0
  0
LINE
  5
17D
330
1F
100
AcDbEntity
  8
0
  6
Continuous
 62
     7
100
AcDbLine
 10
94.0088130929746
 20
203.4019883711837
 30
0.0
 11
94.0088130929746
 21
196.9019859249098
 31
0.0
  0
LINE
  5
17E
330
1F
100
AcDbEntity
  8
0
  6
Continuous
 62
     7
100
AcDbLine
 10
94.63381308366138
 20
203.4019883711837
 30
0.0
 11
94.63381308366138
 21
196.9019859249098
 31
0.0
  0
LINE
  5
17F
330
1F
100
AcDbEntity
  8
0
  6
Continuous
 62
     7
100
AcDbLine
 10
94.0088130929746
 20
175.9019887809656
 30
0.0
 11
94.0088130929746
 21
169.401999050349
 31
0.0
  0
LINE
  5
180
330
1F
100
AcDbEntity
  8
0
  6
Continuous
 62
     7
100
AcDbLine
 10
94.63381308366138
 20
175.9019887809656
 30
0.0
 11
94.63381308366138
 21
169.401999050349
 31
0.0
  0
LINE
  5
181
330
1F
100
AcDbEntity
  8
0
  6
Continuous
 62
     7
100
AcDbLine
 10
94.0088130929746
 20
148.4019891907475
 30
0.0
 11
94.0088130929746
 21
141.9019867444736
 31
0.0
  0
LINE
  5
182
330
1F
100
AcDbEntity
  8
0
  6
Continuous
 62
     7
100
AcDbLine
 10
94.63381308366138
 20
148.4019891907475
 30
0.0
 11
94.63381308366138
 21
141.9019867444736
 31
0.0
  0
LINE
  5
183
330
1F
100
AcDbEntity
  8
0
  6
Continuous
 62
     7
100
AcDbLine
 10
89.57132841788737
 20
104.9853180847766
 30
0.0
 11
90.07133349669974
 21
104.9853180847766
 31
0.0
  0
LINE
  5
184
330
1F
100
AcDbEntity
  8
0
  6
Continuous
 62
     7
100
AcDbLine
 10
89.57132841788737
 20
107.0686513870659
 30
0.0
 11
90.07133349669974
 21
107.0686513870659
 31
0.0
  0
LINE
  5
185
330
1F
100
AcDbEntity
  8
0
  6
Continuous
 62
     7
100
AcDbLine
 10
89.57132841788737
 20
159.9853172652128
 30
0.0
 11
90.07133349669974
 21
159.9853172652128
 31
0.0
  0
LINE
  5
186
330
1F
100
AcDbEntity
  8
0
  6
Continuous
 62
     7
100
AcDbLine
 10
89.57132841788737
 20
162.068650567502
 30
0.0
 11
90.07133349669974
 21
162.068650567502
 31
0.0
  0
LINE
  5
187
330
1F
100
AcDbEntity
  8
0
  6
Continuous
 62
     7
100
AcDbLine
 10
89.57132841788737
 20
230.8186622587046
 30
0.0
 11
90.07133349669974
 21
230.8186622587046
 31
0.0
  0
LINE
  5
188
330
1F
100
AcDbEntity
  8
0
  6
Continuous
 62
     7
100
AcDbLine
 10
89.57132841788737
 20
228.7353289564153
 30
0.0
 11
90.07133349669974
 21
228.7353289564153
 31
0.0
  0
LINE
  5
189
330
1F
100
AcDbEntity
  8
0
  6
Continuous
 62
     7
100
AcDbLine
 10
90.07133349669971
 20
230.8186495430472
 30
0.0
 11
90.07133349669971
 21
228.735316240758
 31
0.0
  0
LINE
  5
18A
330
1F
100
AcDbEntity
  8
0
  6
Continuous
 62
     7
100
AcDbLine
 10
90.07133349669971
 20
162.068650567502
 30
0.0
 11
90.07133349669971
 21
159.9853172652128
 31
0.0
  0
LINE
  5
18B
330
1F
100
AcDbEntity
  8
0
  6
Continuous
 62
     7
100
AcDbLine
 10
90.07133349669971
 20
107.0686513870659
 30
0.0
 11
90.07133349669971
 21
104.9853180847766
 31
0.0
  0
LINE
  5
18C
330
1F
100
AcDbEntity
  8
0
  6
CENTER
 62
     7
100
AcDbLine
 10
114.9879947058162
 20
232.7770006491194
 30
0.0
 11
114.9879947058162
 21
97.77700266077612
 31
0.0
  0
LINE
  5
18D
330
1F
100
AcDbEntity
  8
0
  6
CENTER
 62
     7
100
AcDbLine
 10
116.2379946871897
 20
232.7770006491194
 30
0.0
 11
116.2379946871897
 21
97.77700266077612
 31
0.0
  0
LINE
  5
18E
330
1F
100
AcDbEntity
  8
0
  6
CENTER
 62
     7
100
AcDbLine
 10
114.9879947058162
 20
112.7770024372587
 30
0.0
 11
120.4046613724829
 21
112.7770024372587
 31
0.0
  0
LINE
  5
18F
330
1F
100
AcDbEntity
  8
0
  6
CENTER
 62
     7
100
AcDbLine
 10
114.9879947058162
 20
97.77700266077613
 30
0.0
 11
120.4046613724829
 21
97.77700266077613
 31
0.0
  0
LINE
  5
190
330
1F
100
AcDbEntity
  8
0
  6
CENTER
 62
     7
100
AcDbLine
 10
114.9879947058162
 20
232.776987933462
 30
0.0
 11
120.4046613724829
 21
232.776987933462
 31
0.0
  0
LINE
  5
191
330
1F
100
AcDbEntity
  8
0
  6
CENTER
 62
     7
100
AcDbLine
 10
114.9879947058162
 20
217.7769881569795
 30
0.0
 11
120.4046613724829
 21
217.7769881569795
 31
0.0
  0
LINE
  5
192
330
1F
100
AcDbEntity
  8
0
  6
CENTER
 62
     7
100
AcDbLine
 10
114.9879947058162
 20
202.7769883804969
 30
0.0
 11
120.4046613724829
 21
202.7769883804969
 31
0.0
  0
LINE
  5
193
330
1F
100
AcDbEntity
  8
0
  6
CENTER
 62
     7
100
AcDbLine
 10
114.9879947058162
 20
187.7770013196717
 30
0.0
 11
120.4046613724829
 21
187.7770013196717
 31
0.0
  0
LINE
  5
194
330
1F
100
AcDbEntity
  8
0
  6
CENTER
 62
     7
100
AcDbLine
 10
114.9879947058162
 20
172.7770015431891
 30
0.0
 11
120.4046613724829
 21
172.7770015431891
 31
0.0
  0
LINE
  5
195
330
1F
100
AcDbEntity
  8
0
  6
CENTER
 62
     7
100
AcDbLine
 10
114.9879947058162
 20
157.7770017667065
 30
0.0
 11
120.4046613724829
 21
157.7770017667065
 31
0.0
  0
LINE
  5
196
330
1F
100
AcDbEntity
  8
0
  6
CENTER
 62
     7
100
AcDbLine
 10
114.9879947058162
 20
142.7770019902239
 30
0.0
 11
120.4046613724829
 21
142.7770019902239
 31
0.0
  0
LINE
  5
197
330
1F
100
AcDbEntity
  8
0
  6
CENTER
 62
     7
100
AcDbLine
 10
114.9879947058162
 20
127.7770022137413
 30
0.0
 11
120.4046613724829
 21
127.7770022137413
 31
0.0
  0
LINE
  5
198
330
1F
100
AcDbEntity
  8
0
  6
Continuous
 62
     7
100
AcDbLine
 10
87.73801037066164
 20
79.11032228504136
 30
0.0
 11
87.73801037066164
 21
78.61032356405768
 31
0.0
  0
LINE
  5
199
330
1F
100
AcDbEntity
  8
0
  6
Continuous
 62
     7
100
AcDbLine
 10
87.8447710298781
 20
33.2528012754599
 30
0.0
 11
108.8255802468621
 21
33.2528012754599
 31
0.0
  0
LINE
  5
19A
330
1F
100
AcDbEntity
  8
0
  6
Continuous
 62
     7
100
AcDbLine
 10
229.8818426845197
 20
33.2528012754599
 30
0.0
 11
245.8760415632122
 21
33.2528012754599
 31
0.0
  0
LINE
  5
19B
330
1F
100
AcDbEntity
  8
0
  6
Continuous
 62
     7
100
AcDbLine
 10
245.1111096340275
 20
79.1103254639557
 30
0.0
 11
247.0296568617772
 21
79.1103254639557
 31
0.0
  0
LINE
  5
19C
330
1F
100
AcDbEntity
  8
0
  6
Continuous
 62
     7
100
AcDbLine
 10
245.1546568897169
 20
244.2769775895728
 30
0.0
 11
245.1546568897169
 21
240.8770015456726
 31
0.0
  0
LINE
  5
19D
330
1F
100
AcDbEntity
  8
0
  6
Continuous
 62
     7
100
AcDbLine
 10
241.6130029914826
 20
230.8186495430472
 30
0.0
 11
241.6130029914826
 21
228.735316240758
 31
0.0
  0
LINE
  5
19E
330
1F
100
AcDbEntity
  8
0
  6
Continuous
 62
     7
100
AcDbLine
 10
247.0296568617772
 20
79.6103241849394
 30
0.0
 11
247.0296568617772
 21
79.11032546395569
 31
0.0
  0
LINE
  5
19F
330
1F
100
AcDbEntity
  8
0
  6
Continuous
 62
     7
100
AcDbLine
 10
243.2796569176566
 20
79.6103241849394
 30
0.0
 11
243.2796569176566
 21
79.11032546395569
 31
0.0
  0
LINE
  5
1A0
330
1F
100
AcDbEntity
  8
0
  6
Continuous
 62
     7
100
AcDbLine
 10
241.6130029914826
 20
162.068650567502
 30
0.0
 11
241.6130029914826
 21
159.9853172652128
 31
0.0
  0
LINE
  5
1A1
330
1F
100
AcDbEntity
  8
0
  6
Continuous
 62
     7
100
AcDbLine
 10
241.6130029914826
 20
107.0686513870659
 30
0.0
 11
241.6130029914826
 21
104.9853180847766
 31
0.0
  0
LINE
  5
1A2
330
1F
100
AcDbEntity
  8
0
  6
Continuous
 62
     7
100
AcDbLine
 10
245.1546696053743
 20
79.11032228504136
 30
0.0
 11
245.1546696053743
 21
78.61032356405768
 31
0.0
  0
LINE
  5
1A3
330
1F
100
AcDbEntity
  8
0
  6
DASHED
 62
     7
100
AcDbLine
 10
245.1546696053743
 20
107.0686513870659
 30
0.0
 11
245.1546696053743
 21
104.9853180847766
 31
0.0
  0
LINE
  5
1A4
330
1F
100
AcDbEntity
  8
0
  6
DASHED
 62
     7
100
AcDbLine
 10
245.1546696053743
 20
162.068650567502
 30
0.0
 11
245.1546696053743
 21
159.9853172652128
 31
0.0
  0
LINE
  5
1A5
330
1F
100
AcDbEntity
  8
0
  6
DASHED
 62
     7
100
AcDbLine
 10
245.1546696053743
 20
230.8186495430472
 30
0.0
 11
245.1546696053743
 21
228.735316240758
 31
0.0
  0
LINE
  5
1A6
330
1F
100
AcDbEntity
  8
0
  6
Continuous
 62
     7
100
AcDbLine
 10
245.1546568897169
 20
245.2769877471976
 30
0.0
 11
245.1546568897169
 21
244.7770080996999
 31
0.0
  0
LINE
  5
1A7
330
1F
100
AcDbEntity
  8
0
  6
Continuous
 62
     7
100
AcDbLine
 10
230.3213314043284
 20
245.2769877471976
 30
0.0
 11
230.3213314043284
 21
240.8770015456726
 31
0.0
  0
LINE
  5
1A8
330
1F
100
AcDbEntity
  8
0
  6
Continuous
 62
     7
100
AcDbLine
 10
236.0713287779987
 20
107.0686513870659
 30
0.0
 11
245.1546696053743
 21
107.0686513870659
 31
0.0
  0
LINE
  5
1A9
330
1F
100
AcDbEntity
  8
0
  6
Continuous
 62
     7
100
AcDbLine
 10
236.0713287779987
 20
104.9853180847766
 30
0.0
 11
245.1546696053743
 21
104.9853180847766
 31
0.0
  0
LINE
  5
1AA
330
1F
100
AcDbEntity
  8
0
  6
Continuous
 62
     7
100
AcDbLine
 10
236.0713287779987
 20
230.8186622587046
 30
0.0
 11
245.1546696053743
 21
230.8186622587046
 31
0.0
  0
LINE
  5
1AB
330
1F
100
AcDbEntity
  8
0
  6
Continuous
 62
     7
100
AcDbLine
 10
236.0713287779987
 20
228.7353289564153
 30
0.0
 11
245.1546696053743
 21
228.7353289564153
 31
0.0
  0
LINE
  5
1AC
330
1F
100
AcDbEntity
  8
0
  6
Continuous
 62
     7
100
AcDbLine
 10
236.0713287779987
 20
162.068650567502
 30
0.0
 11
245.1546696053743
 21
162.068650567502
 31
0.0
  0
LINE
  5
1AD
330
1F
100
AcDbEntity
  8
0
  6
Continuous
 62
     7
100
AcDbLine
 10
236.0713287779987
 20
159.9853172652128
 30
0.0
 11
245.1546696053743
 21
159.9853172652128
 31
0.0
  0
LINE
  5
1AE
330
1F
100
AcDbEntity
  8
0
  6
CENTER
 62
     7
100
AcDbLine
 10
245.1546568897169
 20
240.8770015456726
 30
0.0
 11
245.1546568897169
 21
237.6507849596324
 31
0.0
  0
LINE
  5
1AF
330
1F
100
AcDbEntity
  8
0
  6
CENTER
 62
     7
100
AcDbLine
 10
230.3213314043284
 20
240.8770015456726
 30
0.0
 11
230.3213314043284
 21
237.6507849596324
 31
0.0
  0
LINE
  5
1B0
330
1F
100
AcDbEntity
  8
0
  6
Continuous
 62
     7
100
AcDbLine
 10
318.0
 20
274.0
 30
0.0
 11
393.0
 21
274.0
 31
0.0
  0
LINE
  5
1B1
330
1F
100
AcDbEntity
  8
0
  6
Continuous
 62
     7
100
AcDbLine
 10
318.0
 20
274.0
 30
0.0
 11
318.0
 21
179.0
 31
0.0
  0
LINE
  5
1B2
330
1F
100
AcDbEntity
  8
0
  6
Continuous
 62
     7
100
AcDbLine
 10
325.5
 20
274.0
 30
0.0
 11
325.5
 21
179.0
 31
0.0
  0
LINE
  5
1B3
330
1F
100
AcDbEntity
  8
0
  6
Continuous
 62
     7
100
AcDbLine
 10
355.5
 20
274.0
 30
0.0
 11
355.5
 21
179.0
 31
0.0
  0
LINE
  5
1B4
330
1F
100
AcDbEntity
  8
0
  6
Continuous
 62
     7
100
AcDbLine
 10
393.0
 20
274.0
 30
0.0
 11
393.0
 21
179.0
 31
0.0
  0
LINE
  5
1B5
330
1F
100
AcDbEntity
  8
0
  6
Continuous
 62
     7
100
AcDbLine
 10
318.0
 20
269.0
 30
0.0
 11
393.0
 21
269.0
 31
0.0
  0
LINE
  5
1B6
330
1F
100
AcDbEntity
  8
0
  6
Continuous
 62
     7
100
AcDbLine
 10
318.0
 20
264.0
 30
0.0
 11
393.0
 21
264.0
 31
0.0
  0
LINE
  5
1B7
330
1F
100
AcDbEntity
  8
0
  6
Continuous
 62
     7
100
AcDbLine
 10
318.0
 20
259.0
 30
0.0
 11
393.0
 21
259.0
 31
0.0
  0
LINE
  5
1B8
330
1F
100
AcDbEntity
  8
0
  6
Continuous
 62
     7
100
AcDbLine
 10
318.0
 20
254.0
 30
0.0
 11
393.0
 21
254.0
 31
0.0
  0
LINE
  5
1B9
330
1F
100
AcDbEntity
  8
0
  6
Continuous
 62
     7
100
AcDbLine
 10
318.0
 20
249.0
 30
0.0
 11
393.0
 21
249.0
 31
0.0
  0
LINE
  5
1BA
330
1F
100
AcDbEntity
  8
0
  6
Continuous
 62
     7
100
AcDbLine
 10
318.0
 20
244.0
 30
0.0
 11
393.0
 21
244.0
 31
0.0
  0
LINE
  5
1BB
330
1F
100
AcDbEntity
  8
0
  6
Continuous
 62
     7
100
AcDbLine
 10
318.0
 20
239.0
 30
0.0
 11
393.0
 21
239.0
 31
0.0
  0
LINE
  5
1BC
330
1F
100
AcDbEntity
  8
0
  6
Continuous
 62
     7
100
AcDbLine
 10
318.0
 20
234.0
 30
0.0
 11
393.0
 21
234.0
 31
0.0
  0
LINE
  5
1BD
330
1F
100
AcDbEntity
  8
0
  6
Continuous
 62
     7
100
AcDbLine
 10
318.0
 20
229.0
 30
0.0
 11
393.0
 21
229.0
 31
0.0
  0
LINE
  5
1BE
330
1F
100
AcDbEntity
  8
0
  6
Continuous
 62
     7
100
AcDbLine
 10
318.0
 20
224.0
 30
0.0
 11
393.0
 21
224.0
 31
0.0
  0
LINE
  5
1BF
330
1F
100
AcDbEntity
  8
0
  6
Continuous
 62
     7
100
AcDbLine
 10
318.0
 20
219.0
 30
0.0
 11
393.0
 21
219.0
 31
0.0
  0
LINE
  5
1C0
330
1F
100
AcDbEntity
  8
0
  6
Continuous
 62
     7
100
AcDbLine
 10
318.0
 20
214.0
 30
0.0
 11
393.0
 21
214.0
 31
0.0
  0
LINE
  5
1C1
330
1F
100
AcDbEntity
  8
0
  6
Continuous
 62
     7
100
AcDbLine
 10
318.0
 20
209.0
 30
0.0
 11
393.0
 21
209.0
 31
0.0
  0
LINE
  5
1C2
330
1F
100
AcDbEntity
  8
0
  6
Continuous
 62
     7
100
AcDbLine
 10
318.0
 20
204.0
 30
0.0
 11
393.0
 21
204.0
 31
0.0
  0
LINE
  5
1C3
330
1F
100
AcDbEntity
  8
0
  6
Continuous
 62
     7
100
AcDbLine
 10
318.0
 20
199.0
 30
0.0
 11
393.0
 21
199.0
 31
0.0
  0
LINE
  5
1C4
330
1F
100
AcDbEntity
  8
0
  6
Continuous
 62
     7
100
AcDbLine
 10
318.0
 20
194.0
 30
0.0
 11
393.0
 21
194.0
 31
0.0
  0
LINE
  5
1C5
330
1F
100
AcDbEntity
  8
0
  6
Continuous
 62
     7
100
AcDbLine
 10
318.0
 20
189.0
 30
0.0
 11
393.0
 21
189.0
 31
0.0
  0
LINE
  5
1C6
330
1F
100
AcDbEntity
  8
0
  6
Continuous
 62
     7
100
AcDbLine
 10
318.0
 20
184.0
 30
0.0
 11
393.0
 21
184.0
 31
0.0
  0
LINE
  5
1C7
330
1F
100
AcDbEntity
  8
0
  6
Continuous
 62
     7
100
AcDbLine
 10
318.0
 20
179.0
 30
0.0
 11
393.0
 21
179.0
 31
0.0
  0
LINE
  5
1C8
330
1F
100
AcDbEntity
  8
0
  6
Continuous
 62
     7
100
AcDbLine
 10
230.3213339499434
 20
245.2769877471975
 30
0.0
 11
245.1546696053743
 21
245.2769877471975
 31
0.0
  0
LINE
  5
1C9
330
1F
100
AcDbEntity
  8
0
  6
Continuous
 62
     7
100
AcDbLine
 10
230.3213339499434
 20
230.8186622587046
 30
0.0
 11
235.5713364148438
 21
230.8186622587046
 31
0.0
  0
LINE
  5
1CA
330
1F
100
AcDbEntity
  8
0
  6
Continuous
 62
     7
100
AcDbLine
 10
230.3213339499434
 20
228.7353289564153
 30
0.0
 11
235.5713364148438
 21
228.7353289564153
 31
0.0
  0
LINE
  5
1CB
330
1F
100
AcDbEntity
  8
0
  6
CENTER
 62
     7
100
AcDbLine
 10
230.3213339499434
 20
246.1360575586151
 30
0.0
 11
245.1245843600544
 21
246.1360575586151
 31
0.0
  0
LINE
  5
1CC
330
1F
100
AcDbEntity
  8
0
  6
CENTER
 62
     7
100
AcDbLine
 10
230.3213339499434
 20
237.6507849596324
 30
0.0
 11
245.1546568897169
 21
237.6507849596324
 31
0.0
  0
LINE
  5
1CD
330
1F
100
AcDbEntity
  8
0
  6
Continuous
 62
     7
100
AcDbLine
 10
230.3213339499434
 20
244.7770080996999
 30
0.0
 11
248.7796619219631
 21
244.7770080996999
 31
0.0
  0
LINE
  5
1CE
330
1F
100
AcDbEntity
  8
0
  6
Continuous
 62
     7
100
AcDbLine
 10
238.7379928617975
 20
244.2769775895728
 30
0.0
 11
238.7379928617975
 21
230.8186495430472
 31
0.0
  0
LINE
  5
1CF
330
1F
100
AcDbEntity
  8
0
  6
Continuous
 62
     7
100
AcDbLine
 10
235.5713364148438
 20
244.7770080996999
 30
0.0
 11
235.5713364148438
 21
233.8603365094413
 31
0.0
  0
LINE
  5
1D0
330
1F
100
AcDbEntity
  8
0
  6
Continuous
 62
     7
100
AcDbLine
 10
236.0713287779987
 20
244.2769775895728
 30
0.0
 11
236.0713287779987
 21
233.8603365094413
 31
0.0
  0
LINE
  5
1D1
330
1F
100
AcDbEntity
  8
0
  6
Continuous
 62
     7
100
AcDbLine
 10
238.9046696985066
 20
244.7770080996999
 30
0.0
 11
238.9046696985066
 21
244.2769775895728
 31
0.0
  0
LINE
  5
1D2
330
1F
100
AcDbEntity
  8
0
  6
Continuous
 62
     7
100
AcDbLine
 10
236.0713287779987
 20
244.2769775895728
 30
0.0
 11
238.9046696985066
 21
244.2769775895728
 31
0.0
  0
LINE
  5
1D3
330
1F
100
AcDbEntity
  8
0
  6
Continuous
 62
     7
100
AcDbLine
 10
230.3213339499434
 20
240.8770015456726
 30
0.0
 11
235.5713364148438
 21
240.8770015456726
 31
0.0
  0
LINE
  5
1D4
330
1F
100
AcDbEntity
  8
0
  6
Continuous
 62
     7
100
AcDbLine
 10
238.7379928617975
 20
240.8770015456726
 30
0.0
 11
245.1546696053743
 21
240.8770015456726
 31
0.0
  0
LINE
  5
1D5
330
1F
100
AcDbEntity
  8
0
  6
Continuous
 62
     7
100
AcDbLine
 10
233.6963364427834
 20
233.8603492250986
 30
0.0
 11
237.4463363869041
 21
233.8603492250986
 31
0.0
  0
LINE
  5
1D6
330
1F
100
AcDbEntity
  8
0
  6
Continuous
 62
     7
100
AcDbLine
 10
233.6963364427834
 20
233.8603365094413
 30
0.0
 11
233.6963364427834
 21
231.6936647887975
 31
0.0
  0
LINE
  5
1D7
330
1F
100
AcDbEntity
  8
0
  6
Continuous
 62
     7
100
AcDbLine
 10
233.6963364427834
 20
231.6936520731402
 30
0.0
 11
237.4463363869041
 21
231.6936520731402
 31
0.0
  0
LINE
  5
1D8
330
1F
100
AcDbEntity
  8
0
  6
Continuous
 62
     7
100
AcDbLine
 10
237.4463363869041
 20
233.8603365094413
 30
0.0
 11
237.4463363869041
 21
231.6936647887975
 31
0.0
  0
LINE
  5
1D9
330
1F
100
AcDbEntity
  8
0
  6
Continuous
 62
     7
100
AcDbLine
 10
233.6963364427834
 20
218.8603494486161
 30
0.0
 11
237.4463363869041
 21
218.8603494486161
 31
0.0
  0
LINE
  5
1DA
330
1F
100
AcDbEntity
  8
0
  6
Continuous
 62
     7
100
AcDbLine
 10
233.6963364427834
 20
218.8603367329587
 30
0.0
 11
233.6963364427834
 21
216.693665012315
 31
0.0
  0
LINE
  5
1DB
330
1F
100
AcDbEntity
  8
0
  6
Continuous
 62
     7
100
AcDbLine
 10
233.6963364427834
 20
216.6936522966576
 30
0.0
 11
237.4463363869041
 21
216.6936522966576
 31
0.0
  0
LINE
  5
1DC
330
1F
100
AcDbEntity
  8
0
  6
Continuous
 62
     7
100
AcDbLine
 10
237.4463363869041
 20
218.8603367329587
 30
0.0
 11
237.4463363869041
 21
216.693665012315
 31
0.0
  0
LINE
  5
1DD
330
1F
100
AcDbEntity
  8
0
  6
Continuous
 62
     7
100
AcDbLine
 10
235.0713313360314
 20
231.6936647887975
 30
0.0
 11
235.0713313360314
 21
230.8186495430472
 31
0.0
  0
LINE
  5
1DE
330
1F
100
AcDbEntity
  8
0
  6
Continuous
 62
     7
100
AcDbLine
 10
235.5713364148438
 20
231.6936647887975
 30
0.0
 11
235.5713364148438
 21
218.8603367329587
 31
0.0
  0
LINE
  5
1DF
330
1F
100
AcDbEntity
  8
0
  6
Continuous
 62
     7
100
AcDbLine
 10
236.0713287779987
 20
231.6936647887975
 30
0.0
 11
236.0713287779987
 21
218.8603367329587
 31
0.0
  0
LINE
  5
1E0
330
1F
100
AcDbEntity
  8
0
  6
Continuous
 62
     7
100
AcDbLine
 10
235.5713364148438
 20
216.693665012315
 30
0.0
 11
235.5713364148438
 21
203.8603369564761
 31
0.0
  0
LINE
  5
1E1
330
1F
100
AcDbEntity
  8
0
  6
Continuous
 62
     7
100
AcDbLine
 10
236.0713287779987
 20
216.693665012315
 30
0.0
 11
236.0713287779987
 21
203.8603369564761
 31
0.0
  0
LINE
  5
1E2
330
1F
100
AcDbEntity
  8
0
  6
Continuous
 62
     7
100
AcDbLine
 10
238.7379928617975
 20
228.735316240758
 30
0.0
 11
238.7379928617975
 21
204.7561550176717
 31
0.0
  0
LINE
  5
1E3
330
1F
100
AcDbEntity
  8
0
  6
Continuous
 62
     7
100
AcDbLine
 10
233.6963364427834
 20
203.8603496721335
 30
0.0
 11
237.4463363869041
 21
203.8603496721335
 31
0.0
  0
LINE
  5
1E4
330
1F
100
AcDbEntity
  8
0
  6
Continuous
 62
     7
100
AcDbLine
 10
233.6963364427834
 20
203.8603369564761
 30
0.0
 11
233.6963364427834
 21
201.6936652358324
 31
0.0
  0
LINE
  5
1E5
330
1F
100
AcDbEntity
  8
0
  6
Continuous
 62
     7
100
AcDbLine
 10
233.6963364427834
 20
201.693652520175
 30
0.0
 11
237.4463363869041
 21
201.693652520175
 31
0.0
  0
LINE
  5
1E6
330
1F
100
AcDbEntity
  8
0
  6
Continuous
 62
     7
100
AcDbLine
 10
237.4463363869041
 20
203.8603369564761
 30
0.0
 11
237.4463363869041
 21
201.6936652358324
 31
0.0
  0
LINE
  5
1E7
330
1F
100
AcDbEntity
  8
0
  6
Continuous
 62
     7
100
AcDbLine
 10
233.6963364427834
 20
188.8603371799935
 30
0.0
 11
237.4463363869041
 21
188.8603371799935
 31
0.0
  0
LINE
  5
1E8
330
1F
100
AcDbEntity
  8
0
  6
Continuous
 62
     7
100
AcDbLine
 10
233.6963364427834
 20
188.8603371799936
 30
0.0
 11
233.6963364427834
 21
186.6936654593497
 31
0.0
  0
LINE
  5
1E9
330
1F
100
AcDbEntity
  8
0
  6
Continuous
 62
     7
100
AcDbLine
 10
233.6963364427834
 20
186.6936654593498
 30
0.0
 11
237.4463363869041
 21
186.6936654593498
 31
0.0
  0
LINE
  5
1EA
330
1F
100
AcDbEntity
  8
0
  6
Continuous
 62
     7
100
AcDbLine
 10
237.4463363869041
 20
188.8603371799936
 30
0.0
 11
237.4463363869041
 21
186.6936654593497
 31
0.0
  0
LINE
  5
1EB
330
1F
100
AcDbEntity
  8
0
  6
Continuous
 62
     7
100
AcDbLine
 10
233.6963364427834
 20
173.860337403511
 30
0.0
 11
237.4463363869041
 21
173.860337403511
 31
0.0
  0
LINE
  5
1EC
330
1F
100
AcDbEntity
  8
0
  6
Continuous
 62
     7
100
AcDbLine
 10
233.6963364427834
 20
173.8603374035109
 30
0.0
 11
233.6963364427834
 21
171.6936656828672
 31
0.0
  0
LINE
  5
1ED
330
1F
100
AcDbEntity
  8
0
  6
Continuous
 62
     7
100
AcDbLine
 10
233.6963364427834
 20
171.6936656828672
 30
0.0
 11
237.4463363869041
 21
171.6936656828672
 31
0.0
  0
LINE
  5
1EE
330
1F
100
AcDbEntity
  8
0
  6
Continuous
 62
     7
100
AcDbLine
 10
237.4463363869041
 20
173.8603374035109
 30
0.0
 11
237.4463363869041
 21
171.6936656828672
 31
0.0
  0
LINE
  5
1EF
330
1F
100
AcDbEntity
  8
0
  6
Continuous
 62
     7
100
AcDbLine
 10
235.5713364148438
 20
201.6936652358324
 30
0.0
 11
235.5713364148438
 21
188.8603371799936
 31
0.0
  0
LINE
  5
1F0
330
1F
100
AcDbEntity
  8
0
  6
Continuous
 62
     7
100
AcDbLine
 10
236.0713287779987
 20
201.6936652358324
 30
0.0
 11
236.0713287779987
 21
188.8603371799936
 31
0.0
  0
LINE
  5
1F1
330
1F
100
AcDbEntity
  8
0
  6
Continuous
 62
     7
100
AcDbLine
 10
235.5713364148438
 20
186.6936654593497
 30
0.0
 11
235.5713364148438
 21
173.8603374035109
 31
0.0
  0
LINE
  5
1F2
330
1F
100
AcDbEntity
  8
0
  6
Continuous
 62
     7
100
AcDbLine
 10
236.0713287779987
 20
186.6936654593497
 30
0.0
 11
236.0713287779987
 21
173.8603374035109
 31
0.0
  0
LINE
  5
1F3
330
1F
100
AcDbEntity
  8
0
  6
Continuous
 62
     7
100
AcDbLine
 10
235.5713364148438
 20
171.6936656828672
 30
0.0
 11
235.5713364148438
 21
158.8603376270283
 31
0.0
  0
LINE
  5
1F4
330
1F
100
AcDbEntity
  8
0
  6
Continuous
 62
     7
100
AcDbLine
 10
236.0713287779987
 20
171.6936656828672
 30
0.0
 11
236.0713287779987
 21
158.8603376270283
 31
0.0
  0
LINE
  5
1F5
330
1F
100
AcDbEntity
  8
0
  6
Continuous
 62
     7
100
AcDbLine
 10
235.0713313360314
 20
205.4853216734729
 30
0.0
 11
235.5713364148438
 21
205.4853216734729
 31
0.0
  0
LINE
  5
1F6
330
1F
100
AcDbEntity
  8
0
  6
Continuous
 62
     7
100
AcDbLine
 10
235.0713313360314
 20
205.4853216734729
 30
0.0
 11
235.0713313360314
 21
203.8603369564761
 31
0.0
  0
LINE
  5
1F7
330
1F
100
AcDbEntity
  8
0
  6
Continuous
 62
     7
100
AcDbLine
 10
235.0713313360314
 20
191.7353218783639
 30
0.0
 11
235.5713364148438
 21
191.7353218783639
 31
0.0
  0
LINE
  5
1F8
330
1F
100
AcDbEntity
  8
0
  6
Continuous
 62
     7
100
AcDbLine
 10
235.0713313360314
 20
191.7353218783639
 30
0.0
 11
235.0713313360314
 21
189.6519885760746
 31
0.0
  0
LINE
  5
1F9
330
1F
100
AcDbEntity
  8
0
  6
Continuous
 62
     7
100
AcDbLine
 10
235.0713313360314
 20
189.6519885760746
 30
0.0
 11
235.5713364148438
 21
189.6519885760746
 31
0.0
  0
LINE
  5
1FA
330
1F
100
AcDbEntity
  8
0
  6
Continuous
 62
     7
100
AcDbLine
 10
235.0713313360314
 20
177.9853220832548
 30
0.0
 11
235.5713364148438
 21
177.9853220832548
 31
0.0
  0
LINE
  5
1FB
330
1F
100
AcDbEntity
  8
0
  6
Continuous
 62
     7
100
AcDbLine
 10
235.0713313360314
 20
177.9853220832548
 30
0.0
 11
235.0713313360314
 21
175.9019887809656
 31
0.0
  0
LINE
  5
1FC
330
1F
100
AcDbEntity
  8
0
  6
Continuous
 62
     7
100
AcDbLine
 10
235.0713313360314
 20
175.9019887809656
 30
0.0
 11
235.5713364148438
 21
175.9019887809656
 31
0.0
  0
LINE
  5
1FD
330
1F
100
AcDbEntity
  8
0
  6
Continuous
 62
     7
100
AcDbLine
 10
237.0296697264462
 20
203.922821696756
 30
0.0
 11
237.0296697264462
 21
203.8603369564761
 31
0.0
  0
LINE
  5
1FE
330
1F
100
AcDbEntity
  8
0
  6
Continuous
 62
     7
100
AcDbLine
 10
236.0713287779987
 20
204.1311550269849
 30
0.0
 11
237.0561310094178
 21
204.1311550269849
 31
0.0
  0
LINE
  5
1FF
330
1F
100
AcDbEntity
  8
0
  6
Continuous
 62
     7
100
AcDbLine
 10
243.57132866624
 20
203.922821696756
 30
0.0
 11
243.57132866624
 21
197.4228192504821
 31
0.0
  0
LINE
  5
200
330
1F
100
AcDbEntity
  8
0
  6
Continuous
 62
     7
100
AcDbLine
 10
237.6963262106529
 20
204.7561550176717
 30
0.0
 11
242.5713312242727
 21
204.7561550176717
 31
0.0
  0
LINE
  5
201
330
1F
100
AcDbEntity
  8
0
  6
Continuous
 62
     7
100
AcDbLine
 10
237.8630030473619
 20
196.5894859295663
 30
0.0
 11
242.7379953453243
 21
196.5894859295663
 31
0.0
  0
LINE
  5
202
330
1F
100
AcDbEntity
  8
0
  6
Continuous
 62
     7
100
AcDbLine
 10
236.0713287779987
 20
204.7561550176717
 30
0.0
 11
242.7379953453243
 21
204.7561550176717
 31
0.0
  0
LINE
  5
203
330
1F
100
AcDbEntity
  8
0
  6
Continuous
 62
     7
100
AcDbLine
 10
237.8630030473619
 20
197.2144859202531
 30
0.0
 11
242.7379953453243
 21
197.2144859202531
 31
0.0
  0
LINE
  5
204
330
1F
100
AcDbEntity
  8
0
  6
Continuous
 62
     7
100
AcDbLine
 10
242.9463286755532
 20
203.922821696756
 30
0.0
 11
242.9463286755532
 21
197.4228192504821
 31
0.0
  0
LINE
  5
205
330
1F
100
AcDbEntity
  8
0
  6
Continuous
 62
     7
100
AcDbLine
 10
237.8630030473619
 20
204.1311550269849
 30
0.0
 11
242.7379953453243
 21
204.1311550269849
 31
0.0
  0
LINE
  5
206
330
1F
100
AcDbEntity
  8
0
  6
Continuous
 62
     7
100
AcDbLine
 10
237.654669717133
 20
203.922821696756
 30
0.0
 11
237.654669717133
 21
197.4228192504821
 31
0.0
  0
LINE
  5
207
330
1F
100
AcDbEntity
  8
0
  6
Continuous
 62
     7
100
AcDbLine
 10
237.0296697264462
 20
201.6936652358324
 30
0.0
 11
237.0296697264462
 21
197.4228192504821
 31
0.0
  0
LINE
  5
208
330
1F
100
AcDbEntity
  8
0
  6
Continuous
 62
     7
100
AcDbLine
 10
236.0713287779987
 20
176.6311554367668
 30
0.0
 11
237.0561310094178
 21
176.6311554367668
 31
0.0
  0
LINE
  5
209
330
1F
100
AcDbEntity
  8
0
  6
Continuous
 62
     7
100
AcDbLine
 10
243.57132866624
 20
176.4228221065379
 30
0.0
 11
243.57132866624
 21
169.9228196602639
 31
0.0
  0
LINE
  5
20A
330
1F
100
AcDbEntity
  8
0
  6
Continuous
 62
     7
100
AcDbLine
 10
237.6963262106529
 20
177.2561554274536
 30
0.0
 11
242.5713312242727
 21
177.2561554274536
 31
0.0
  0
LINE
  5
20B
330
1F
100
AcDbEntity
  8
0
  6
Continuous
 62
     7
100
AcDbLine
 10
237.8630030473619
 20
169.0894990550056
 30
0.0
 11
242.7379953453243
 21
169.0894990550056
 31
0.0
  0
LINE
  5
20C
330
1F
100
AcDbEntity
  8
0
  6
Continuous
 62
     7
100
AcDbLine
 10
236.0713287779987
 20
177.2561554274536
 30
0.0
 11
242.7379953453243
 21
177.2561554274536
 31
0.0
  0
LINE
  5
20D
330
1F
100
AcDbEntity
  8
0
  6
Continuous
 62
     7
100
AcDbLine
 10
237.8630030473619
 20
169.7144990456924
 30
0.0
 11
242.7379953453243
 21
169.7144990456924
 31
0.0
  0
LINE
  5
20E
330
1F
100
AcDbEntity
  8
0
  6
Continuous
 62
     7
100
AcDbLine
 10
242.9463286755532
 20
176.4228221065379
 30
0.0
 11
242.9463286755532
 21
169.9228196602639
 31
0.0
  0
LINE
  5
20F
330
1F
100
AcDbEntity
  8
0
  6
Continuous
 62
     7
100
AcDbLine
 10
237.8630030473619
 20
176.6311554367668
 30
0.0
 11
242.7379953453243
 21
176.6311554367668
 31
0.0
  0
LINE
  5
210
330
1F
100
AcDbEntity
  8
0
  6
Continuous
 62
     7
100
AcDbLine
 10
237.654669717133
 20
176.4228221065379
 30
0.0
 11
237.654669717133
 21
169.9228196602639
 31
0.0
  0
LINE
  5
211
330
1F
100
AcDbEntity
  8
0
  6
Continuous
 62
     7
100
AcDbLine
 10
237.0296697264462
 20
176.4228221065379
 30
0.0
 11
237.0296697264462
 21
173.8603374035109
 31
0.0
  0
LINE
  5
212
330
1F
100
AcDbEntity
  8
0
  6
Continuous
 62
     7
100
AcDbLine
 10
237.0296697264462
 20
171.6936656828672
 30
0.0
 11
237.0296697264462
 21
169.9228196602639
 31
0.0
  0
LINE
  5
213
330
1F
100
AcDbEntity
  8
0
  6
Continuous
 62
     7
100
AcDbLine
 10
238.7379928617975
 20
169.0894863393482
 30
0.0
 11
238.7379928617975
 21
162.068650567502
 31
0.0
  0
LINE
  5
214
330
1F
100
AcDbEntity
  8
0
  6
Continuous
 62
     7
100
AcDbLine
 10
238.7379928617975
 20
176.6311554367668
 30
0.0
 11
238.7379928617975
 21
169.714486330035
 31
0.0
  0
LINE
  5
215
330
1F
100
AcDbEntity
  8
0
  6
Continuous
 62
     7
100
AcDbLine
 10
238.7379928617975
 20
196.5894859295664
 30
0.0
 11
238.7379928617975
 21
177.2561554274536
 31
0.0
  0
LINE
  5
216
330
1F
100
AcDbEntity
  8
0
  6
Continuous
 62
     7
100
AcDbLine
 10
238.7379928617975
 20
204.1311550269849
 30
0.0
 11
238.7379928617975
 21
197.2144859202531
 31
0.0
  0
LINE
  5
217
330
1F
100
AcDbEntity
  8
0
  6
Continuous
 62
     7
100
AcDbLine
 10
230.3213339499434
 20
162.068650567502
 30
0.0
 11
235.5713364148438
 21
162.068650567502
 31
0.0
  0
LINE
  5
218
330
1F
100
AcDbEntity
  8
0
  6
Continuous
 62
     7
100
AcDbLine
 10
230.3213339499434
 20
159.9853172652128
 30
0.0
 11
235.5713364148438
 21
159.9853172652128
 31
0.0
  0
LINE
  5
219
330
1F
100
AcDbEntity
  8
0
  6
Continuous
 62
     7
100
AcDbLine
 10
233.6963364427834
 20
158.8603376270284
 30
0.0
 11
237.4463363869041
 21
158.8603376270284
 31
0.0
  0
LINE
  5
21A
330
1F
100
AcDbEntity
  8
0
  6
Continuous
 62
     7
100
AcDbLine
 10
233.6963364427834
 20
158.8603376270283
 30
0.0
 11
233.6963364427834
 21
156.6936659063846
 31
0.0
  0
LINE
  5
21B
330
1F
100
AcDbEntity
  8
0
  6
Continuous
 62
     7
100
AcDbLine
 10
233.6963364427834
 20
156.6936659063846
 30
0.0
 11
237.4463363869041
 21
156.6936659063846
 31
0.0
  0
LINE
  5
21C
330
1F
100
AcDbEntity
  8
0
  6
Continuous
 62
     7
100
AcDbLine
 10
237.4463363869041
 20
158.8603376270283
 30
0.0
 11
237.4463363869041
 21
156.6936659063846
 31
0.0
  0
LINE
  5
21D
330
1F
100
AcDbEntity
  8
0
  6
Continuous
 62
     7
100
AcDbLine
 10
233.6963364427834
 20
143.8603378505457
 30
0.0
 11
237.4463363869041
 21
143.8603378505457
 31
0.0
  0
LINE
  5
21E
330
1F
100
AcDbEntity
  8
0
  6
Continuous
 62
     7
100
AcDbLine
 10
233.6963364427834
 20
143.8603378505458
 30
0.0
 11
233.6963364427834
 21
141.693666129902
 31
0.0
  0
LINE
  5
21F
330
1F
100
AcDbEntity
  8
0
  6
Continuous
 62
     7
100
AcDbLine
 10
233.6963364427834
 20
141.693666129902
 30
0.0
 11
237.4463363869041
 21
141.693666129902
 31
0.0
  0
LINE
  5
220
330
1F
100
AcDbEntity
  8
0
  6
Continuous
 62
     7
100
AcDbLine
 10
237.4463363869041
 20
143.8603378505458
 30
0.0
 11
237.4463363869041
 21
141.693666129902
 31
0.0
  0
LINE
  5
221
330
1F
100
AcDbEntity
  8
0
  6
Continuous
 62
     7
100
AcDbLine
 10
233.6963364427834
 20
128.8603317162345
 30
0.0
 11
237.4463363869041
 21
128.8603317162345
 31
0.0
  0
LINE
  5
222
330
1F
100
AcDbEntity
  8
0
  6
Continuous
 62
     7
100
AcDbLine
 10
233.6963364427834
 20
128.8603380740632
 30
0.0
 11
233.6963364427834
 21
126.6936663534194
 31
0.0
  0
LINE
  5
223
330
1F
100
AcDbEntity
  8
0
  6
Continuous
 62
     7
100
AcDbLine
 10
233.6963364427834
 20
126.6936663534194
 30
0.0
 11
237.4463363869041
 21
126.6936663534194
 31
0.0
  0
LINE
  5
224
330
1F
100
AcDbEntity
  8
0
  6
Continuous
 62
     7
100
AcDbLine
 10
237.4463363869041
 20
128.8603380740632
 30
0.0
 11
237.4463363869041
 21
126.6936663534194
 31
0.0
  0
LINE
  5
225
330
1F
100
AcDbEntity
  8
0
  6
Continuous
 62
     7
100
AcDbLine
 10
233.6963364427834
 20
113.8603446554093
 30
0.0
 11
237.4463363869041
 21
113.8603446554093
 31
0.0
  0
LINE
  5
226
330
1F
100
AcDbEntity
  8
0
  6
Continuous
 62
     7
100
AcDbLine
 10
233.6963364427834
 20
113.8603446554093
 30
0.0
 11
233.6963364427834
 21
111.6936729347655
 31
0.0
  0
LINE
  5
227
330
1F
100
AcDbEntity
  8
0
  6
Continuous
 62
     7
100
AcDbLine
 10
233.6963364427834
 20
111.6936729347655
 30
0.0
 11
237.4463363869041
 21
111.6936729347655
 31
0.0
  0
LINE
  5
228
330
1F
100
AcDbEntity
  8
0
  6
Continuous
 62
     7
100
AcDbLine
 10
237.4463363869041
 20
113.8603446554093
 30
0.0
 11
237.4463363869041
 21
111.6936729347655
 31
0.0
  0
LINE
  5
229
330
1F
100
AcDbEntity
  8
0
  6
Continuous
 62
     7
100
AcDbLine
 10
235.5713364148438
 20
156.6936659063846
 30
0.0
 11
235.5713364148438
 21
143.8603378505458
 31
0.0
  0
LINE
  5
22A
330
1F
100
AcDbEntity
  8
0
  6
Continuous
 62
     7
100
AcDbLine
 10
236.0713287779987
 20
156.6936659063846
 30
0.0
 11
236.0713287779987
 21
143.8603378505458
 31
0.0
  0
LINE
  5
22B
330
1F
100
AcDbEntity
  8
0
  6
Continuous
 62
     7
100
AcDbLine
 10
236.0713287779987
 20
141.693666129902
 30
0.0
 11
236.0713287779987
 21
128.8603380740632
 31
0.0
  0
LINE
  5
22C
330
1F
100
AcDbEntity
  8
0
  6
Continuous
 62
     7
100
AcDbLine
 10
235.5713364148438
 20
141.693666129902
 30
0.0
 11
235.5713364148438
 21
128.8603380740632
 31
0.0
  0
LINE
  5
22D
330
1F
100
AcDbEntity
  8
0
  6
Continuous
 62
     7
100
AcDbLine
 10
236.0713287779987
 20
126.6936663534194
 30
0.0
 11
236.0713287779987
 21
113.8603446554093
 31
0.0
  0
LINE
  5
22E
330
1F
100
AcDbEntity
  8
0
  6
Continuous
 62
     7
100
AcDbLine
 10
235.5713364148438
 20
126.6936663534194
 30
0.0
 11
235.5713364148438
 21
113.8603446554093
 31
0.0
  0
LINE
  5
22F
330
1F
100
AcDbEntity
  8
0
  6
Continuous
 62
     7
100
AcDbLine
 10
236.0713287779987
 20
111.6936729347655
 30
0.0
 11
236.0713287779987
 21
98.86034487892668
 31
0.0
  0
LINE
  5
230
330
1F
100
AcDbEntity
  8
0
  6
Continuous
 62
     7
100
AcDbLine
 10
235.5713364148438
 20
111.6936729347655
 30
0.0
 11
235.5713364148438
 21
98.86034487892668
 31
0.0
  0
LINE
  5
231
330
1F
100
AcDbEntity
  8
0
  6
Continuous
 62
     7
100
AcDbLine
 10
238.7379928617975
 20
159.9853172652128
 30
0.0
 11
238.7379928617975
 21
149.7561558372355
 31
0.0
  0
LINE
  5
232
330
1F
100
AcDbEntity
  8
0
  6
Continuous
 62
     7
100
AcDbLine
 10
235.0713313360314
 20
164.2353222881458
 30
0.0
 11
235.5713364148438
 21
164.2353222881458
 31
0.0
  0
LINE
  5
233
330
1F
100
AcDbEntity
  8
0
  6
Continuous
 62
     7
100
AcDbLine
 10
235.0713313360314
 20
164.2353222881458
 30
0.0
 11
235.0713313360314
 21
162.1519889858565
 31
0.0
  0
LINE
  5
234
330
1F
100
AcDbEntity
  8
0
  6
Continuous
 62
     7
100
AcDbLine
 10
235.0713313360314
 20
162.1519889858565
 30
0.0
 11
235.5713364148438
 21
162.1519889858565
 31
0.0
  0
LINE
  5
235
330
1F
100
AcDbEntity
  8
0
  6
Continuous
 62
     7
100
AcDbLine
 10
235.0713313360314
 20
150.4853224930367
 30
0.0
 11
235.5713364148438
 21
150.4853224930367
 31
0.0
  0
LINE
  5
236
330
1F
100
AcDbEntity
  8
0
  6
Continuous
 62
     7
100
AcDbLine
 10
235.0713313360314
 20
150.4853224930367
 30
0.0
 11
235.0713313360314
 21
148.4019891907475
 31
0.0
  0
LINE
  5
237
330
1F
100
AcDbEntity
  8
0
  6
Continuous
 62
     7
100
AcDbLine
 10
235.0713313360314
 20
148.4019891907475
 30
0.0
 11
235.5713364148438
 21
148.4019891907475
 31
0.0
  0
LINE
  5
238
330
1F
100
AcDbEntity
  8
0
  6
Continuous
 62
     7
100
AcDbLine
 10
235.0713313360314
 20
136.7353226979277
 30
0.0
 11
235.5713364148438
 21
136.7353226979277
 31
0.0
  0
LINE
  5
239
330
1F
100
AcDbEntity
  8
0
  6
Continuous
 62
     7
100
AcDbLine
 10
235.0713313360314
 20
136.7353226979277
 30
0.0
 11
235.0713313360314
 21
134.6519893956385
 31
0.0
  0
LINE
  5
23A
330
1F
100
AcDbEntity
  8
0
  6
Continuous
 62
     7
100
AcDbLine
 10
235.0713313360314
 20
134.6519893956384
 30
0.0
 11
235.5713364148438
 21
134.6519893956384
 31
0.0
  0
LINE
  5
23B
330
1F
100
AcDbEntity
  8
0
  6
Continuous
 62
     7
100
AcDbLine
 10
235.0713313360314
 20
122.9853229028187
 30
0.0
 11
235.5713364148438
 21
122.9853229028187
 31
0.0
  0
LINE
  5
23C
330
1F
100
AcDbEntity
  8
0
  6
Continuous
 62
     7
100
AcDbLine
 10
235.0713313360314
 20
122.9853229028186
 30
0.0
 11
235.0713313360314
 21
120.9019896005294
 31
0.0
  0
LINE
  5
23D
330
1F
100
AcDbEntity
  8
0
  6
Continuous
 62
     7
100
AcDbLine
 10
235.0713313360314
 20
120.9019896005294
 30
0.0
 11
235.5713364148438
 21
120.9019896005294
 31
0.0
  0
LINE
  5
23E
330
1F
100
AcDbEntity
  8
0
  6
Continuous
 62
     7
100
AcDbLine
 10
236.0713287779987
 20
121.6311562563307
 30
0.0
 11
237.0561310094178
 21
121.6311562563307
 31
0.0
  0
LINE
  5
23F
330
1F
100
AcDbEntity
  8
0
  6
Continuous
 62
     7
100
AcDbLine
 10
243.57132866624
 20
121.4228229261017
 30
0.0
 11
243.57132866624
 21
114.9228204798278
 31
0.0
  0
LINE
  5
240
330
1F
100
AcDbEntity
  8
0
  6
Continuous
 62
     7
100
AcDbLine
 10
237.6963262106529
 20
122.2561562470174
 30
0.0
 11
242.5713312242727
 21
122.2561562470174
 31
0.0
  0
LINE
  5
241
330
1F
100
AcDbEntity
  8
0
  6
Continuous
 62
     7
100
AcDbLine
 10
237.8630030473619
 20
114.0894935167408
 30
0.0
 11
242.7379953453243
 21
114.0894935167408
 31
0.0
  0
LINE
  5
242
330
1F
100
AcDbEntity
  8
0
  6
Continuous
 62
     7
100
AcDbLine
 10
236.0713287779987
 20
122.2561562470174
 30
0.0
 11
242.7379953453243
 21
122.2561562470174
 31
0.0
  0
LINE
  5
243
330
1F
100
AcDbEntity
  8
0
  6
Continuous
 62
     7
100
AcDbLine
 10
237.8630030473619
 20
114.7144935074276
 30
0.0
 11
242.7379953453243
 21
114.7144935074276
 31
0.0
  0
LINE
  5
244
330
1F
100
AcDbEntity
  8
0
  6
Continuous
 62
     7
100
AcDbLine
 10
242.9463286755532
 20
121.4228229261017
 30
0.0
 11
242.9463286755532
 21
114.9228204798278
 31
0.0
  0
LINE
  5
245
330
1F
100
AcDbEntity
  8
0
  6
Continuous
 62
     7
100
AcDbLine
 10
237.8630030473619
 20
121.6311562563307
 30
0.0
 11
242.7379953453243
 21
121.6311562563307
 31
0.0
  0
LINE
  5
246
330
1F
100
AcDbEntity
  8
0
  6
Continuous
 62
     7
100
AcDbLine
 10
237.0296697264462
 20
121.4228229261017
 30
0.0
 11
237.0296697264462
 21
114.9228204798278
 31
0.0
  0
LINE
  5
247
330
1F
100
AcDbEntity
  8
0
  6
Continuous
 62
     7
100
AcDbLine
 10
237.654669717133
 20
121.4228229261017
 30
0.0
 11
237.654669717133
 21
114.9228204798278
 31
0.0
  0
LINE
  5
248
330
1F
100
AcDbEntity
  8
0
  6
Continuous
 62
     7
100
AcDbLine
 10
236.0713287779987
 20
149.1311558465487
 30
0.0
 11
237.0561310094178
 21
149.1311558465487
 31
0.0
  0
LINE
  5
249
330
1F
100
AcDbEntity
  8
0
  6
Continuous
 62
     7
100
AcDbLine
 10
243.57132866624
 20
148.9228225163198
 30
0.0
 11
243.57132866624
 21
142.4228200700459
 31
0.0
  0
LINE
  5
24A
330
1F
100
AcDbEntity
  8
0
  6
Continuous
 62
     7
100
AcDbLine
 10
237.6963262106529
 20
149.7561558372355
 30
0.0
 11
242.5713312242727
 21
149.7561558372355
 31
0.0
  0
LINE
  5
24B
330
1F
100
AcDbEntity
  8
0
  6
Continuous
 62
     7
100
AcDbLine
 10
237.8630030473619
 20
141.5894867491301
 30
0.0
 11
242.7379953453243
 21
141.5894867491301
 31
0.0
  0
LINE
  5
24C
330
1F
100
AcDbEntity
  8
0
  6
Continuous
 62
     7
100
AcDbLine
 10
236.0713287779987
 20
149.7561558372355
 30
0.0
 11
242.7379953453243
 21
149.7561558372355
 31
0.0
  0
LINE
  5
24D
330
1F
100
AcDbEntity
  8
0
  6
Continuous
 62
     7
100
AcDbLine
 10
237.8630030473619
 20
142.2144867398169
 30
0.0
 11
242.7379953453243
 21
142.2144867398169
 31
0.0
  0
LINE
  5
24E
330
1F
100
AcDbEntity
  8
0
  6
Continuous
 62
     7
100
AcDbLine
 10
242.9463286755532
 20
148.9228225163198
 30
0.0
 11
242.9463286755532
 21
142.4228200700459
 31
0.0
  0
LINE
  5
24F
330
1F
100
AcDbEntity
  8
0
  6
Continuous
 62
     7
100
AcDbLine
 10
237.8630030473619
 20
149.1311558465487
 30
0.0
 11
242.7379953453243
 21
149.1311558465487
 31
0.0
  0
LINE
  5
250
330
1F
100
AcDbEntity
  8
0
  6
Continuous
 62
     7
100
AcDbLine
 10
237.654669717133
 20
148.9228225163198
 30
0.0
 11
237.654669717133
 21
142.4228200700459
 31
0.0
  0
LINE
  5
251
330
1F
100
AcDbEntity
  8
0
  6
Continuous
 62
     7
100
AcDbLine
 10
237.0296697264462
 20
148.9228225163198
 30
0.0
 11
237.0296697264462
 21
143.8603378505458
 31
0.0
  0
LINE
  5
252
330
1F
100
AcDbEntity
  8
0
  6
Continuous
 62
     7
100
AcDbLine
 10
238.7379928617975
 20
114.0894871589121
 30
0.0
 11
238.7379928617975
 21
107.0686577448945
 31
0.0
  0
LINE
  5
253
330
1F
100
AcDbEntity
  8
0
  6
Continuous
 62
     7
100
AcDbLine
 10
238.7379928617975
 20
121.6311562563306
 30
0.0
 11
238.7379928617975
 21
114.7144871495989
 31
0.0
  0
LINE
  5
254
330
1F
100
AcDbEntity
  8
0
  6
Continuous
 62
     7
100
AcDbLine
 10
238.7379928617975
 20
149.1311558465487
 30
0.0
 11
238.7379928617975
 21
142.2144867398169
 31
0.0
  0
LINE
  5
255
330
1F
100
AcDbEntity
  8
0
  6
Continuous
 62
     7
100
AcDbLine
 10
238.7379928617975
 20
141.5894867491302
 30
0.0
 11
238.7379928617975
 21
122.2561562470174
 31
0.0
  0
LINE
  5
256
330
1F
100
AcDbEntity
  8
0
  6
Continuous
 62
     7
100
AcDbLine
 10
238.7379928617975
 20
169.0894863393482
 30
0.0
 11
238.7379928617975
 21
162.068650567502
 31
0.0
  0
LINE
  5
257
330
1F
100
AcDbEntity
  8
0
  6
Continuous
 62
     7
100
AcDbLine
 10
230.1546646383206
 20
78.6103235640577
 30
0.0
 11
245.1546696053743
 21
78.6103235640577
 31
0.0
  0
LINE
  5
258
330
1F
100
AcDbEntity
  8
0
  6
Continuous
 62
     7
100
AcDbLine
 10
230.3213339499434
 20
79.1103254639557
 30
0.0
 11
245.1255218849897
 21
79.1103254639557
 31
0.0
  0
LINE
  5
259
330
1F
100
AcDbEntity
  8
0
  6
Continuous
 62
     7
100
AcDbLine
 10
230.3213339499434
 20
104.9853180847766
 30
0.0
 11
235.5713364148438
 21
104.9853180847766
 31
0.0
  0
LINE
  5
25A
330
1F
100
AcDbEntity
  8
0
  6
Continuous
 62
     7
100
AcDbLine
 10
230.3213339499434
 20
107.0686513870659
 30
0.0
 11
235.5713364148438
 21
107.0686513870659
 31
0.0
  0
LINE
  5
25B
330
1F
100
AcDbEntity
  8
0
  6
Continuous
 62
     7
100
AcDbLine
 10
233.6546545179488
 20
79.94372554207256
 30
0.0
 11
233.6546545179488
 21
77.70793468692003
 31
0.0
  0
LINE
  5
25C
330
1F
100
AcDbEntity
  8
0
  6
Continuous
 62
     7
100
AcDbLine
 10
235.5713364148438
 20
79.3769855145069
 30
0.0
 11
239.4713302532137
 21
79.3769855145069
 31
0.0
  0
LINE
  5
25D
330
1F
100
AcDbEntity
  8
0
  6
Continuous
 62
     7
100
AcDbLine
 10
235.3046636486352
 20
83.27698888961986
 30
0.0
 11
235.3046636486352
 21
79.11032228504136
 31
0.0
  0
LINE
  5
25E
330
1F
100
AcDbEntity
  8
0
  6
Continuous
 62
     7
100
AcDbLine
 10
235.3046636486352
 20
83.27698888961987
 30
0.0
 11
235.5713364148438
 21
83.27698888961987
 31
0.0
  0
LINE
  5
25F
330
1F
100
AcDbEntity
  8
0
  6
Continuous
 62
     7
100
AcDbLine
 10
239.4713302532137
 20
79.37698869342124
 30
0.0
 11
239.4713302532137
 21
79.11032228504136
 31
0.0
  0
LINE
  5
260
330
1F
100
AcDbEntity
  8
0
  6
Continuous
 62
     7
100
AcDbLine
 10
235.5713364148438
 20
79.9436587848714
 30
0.0
 11
236.0713287779987
 21
79.9436587848714
 31
0.0
  0
LINE
  5
261
330
1F
100
AcDbEntity
  8
0
  6
Continuous
 62
     7
100
AcDbLine
 10
237.4463363869041
 20
98.86034487892668
 30
0.0
 11
237.4463363869041
 21
96.69367315828292
 31
0.0
  0
LINE
  5
262
330
1F
100
AcDbEntity
  8
0
  6
Continuous
 62
     7
100
AcDbLine
 10
233.6963364427834
 20
98.86034487892668
 30
0.0
 11
233.6963364427834
 21
96.69367315828292
 31
0.0
  0
LINE
  5
263
330
1F
100
AcDbEntity
  8
0
  6
Continuous
 62
     7
100
AcDbLine
 10
233.6963364427834
 20
98.86034487892671
 30
0.0
 11
237.4463363869041
 21
98.86034487892671
 31
0.0
  0
LINE
  5
264
330
1F
100
AcDbEntity
  8
0
  6
Continuous
 62
     7
100
AcDbLine
 10
233.6963364427834
 20
96.69367315828295
 30
0.0
 11
237.4463363869041
 21
96.69367315828295
 31
0.0
  0
LINE
  5
265
330
1F
100
AcDbEntity
  8
0
  6
Continuous
 62
     7
100
AcDbLine
 10
236.0713287779987
 20
96.69367315828292
 30
0.0
 11
236.0713287779987
 21
79.94365560595706
 31
0.0
  0
LINE
  5
266
330
1F
100
AcDbEntity
  8
0
  6
Continuous
 62
     7
100
AcDbLine
 10
235.5713364148438
 20
96.69367315828292
 30
0.0
 11
235.5713364148438
 21
79.37698869342124
 31
0.0
  0
LINE
  5
267
330
1F
100
AcDbEntity
  8
0
  6
Continuous
 62
     7
100
AcDbLine
 10
238.7379928617975
 20
104.9853244426053
 30
0.0
 11
238.7379928617975
 21
79.37698869342124
 31
0.0
  0
LINE
  5
268
330
1F
100
AcDbEntity
  8
0
  6
Continuous
 62
     7
100
AcDbLine
 10
235.0713313360314
 20
109.2353231077096
 30
0.0
 11
235.5713364148438
 21
109.2353231077096
 31
0.0
  0
LINE
  5
269
330
1F
100
AcDbEntity
  8
0
  6
Continuous
 62
     7
100
AcDbLine
 10
235.0713313360314
 20
107.1519898054204
 30
0.0
 11
235.5713364148438
 21
107.1519898054204
 31
0.0
  0
LINE
  5
26A
330
1F
100
AcDbEntity
  8
0
  6
Continuous
 62
     7
100
AcDbLine
 10
235.0713313360314
 20
109.2353231077096
 30
0.0
 11
235.0713313360314
 21
107.1519898054204
 31
0.0
  0
LINE
  5
26B
330
1F
100
AcDbEntity
  8
0
  6
Continuous
 62
     7
100
AcDbLine
 10
230.3213339499434
 20
78.6103235640577
 30
0.0
 11
245.1546696053743
 21
78.6103235640577
 31
0.0
  0
LINE
  5
26C
330
1F
100
AcDbEntity
  8
0
  6
Continuous
 62
     7
100
AcDbLine
 10
112.1963382122963
 20
233.8603365094413
 30
0.0
 11
112.1963382122963
 21
231.6936647887975
 31
0.0
  0
LINE
  5
26D
330
1F
100
AcDbEntity
  8
0
  6
Continuous
 62
     7
100
AcDbLine
 10
112.1963382122963
 20
218.8603367329587
 30
0.0
 11
112.1963382122963
 21
216.693665012315
 31
0.0
  0
LINE
  5
26E
330
1F
100
AcDbEntity
  8
0
  6
Continuous
 62
     7
100
AcDbLine
 10
113.7379947244426
 20
231.6936520731402
 30
0.0
 11
113.7379947244426
 21
218.8603494486161
 31
0.0
  0
LINE
  5
26F
330
1F
100
AcDbEntity
  8
0
  6
Continuous
 62
     7
100
AcDbLine
 10
113.7379947244426
 20
216.6936522966576
 30
0.0
 11
113.7379947244426
 21
203.8603496721335
 31
0.0
  0
LINE
  5
270
330
1F
100
AcDbEntity
  8
0
  6
Continuous
 62
     7
100
AcDbLine
 10
113.7379947244426
 20
201.693652520175
 30
0.0
 11
113.7379947244426
 21
188.8603371799935
 31
0.0
  0
LINE
  5
271
330
1F
100
AcDbEntity
  8
0
  6
Continuous
 62
     7
100
AcDbLine
 10
112.1963382122963
 20
203.8603369564761
 30
0.0
 11
112.1963382122963
 21
201.6936652358324
 31
0.0
  0
LINE
  5
272
330
1F
100
AcDbEntity
  8
0
  6
Continuous
 62
     7
100
AcDbLine
 10
112.1963382122963
 20
188.8603371799936
 30
0.0
 11
112.1963382122963
 21
186.6936654593497
 31
0.0
  0
LINE
  5
273
330
1F
100
AcDbEntity
  8
0
  6
Continuous
 62
     7
100
AcDbLine
 10
113.7379947244426
 20
186.6936654593498
 30
0.0
 11
113.7379947244426
 21
173.860337403511
 31
0.0
  0
LINE
  5
274
330
1F
100
AcDbEntity
  8
0
  6
Continuous
 62
     7
100
AcDbLine
 10
112.1963382122963
 20
173.8603374035109
 30
0.0
 11
112.1963382122963
 21
171.6936656828672
 31
0.0
  0
LINE
  5
275
330
1F
100
AcDbEntity
  8
0
  6
Continuous
 62
     7
100
AcDbLine
 10
113.7379947244426
 20
171.6936656828672
 30
0.0
 11
113.7379947244426
 21
158.8603376270284
 31
0.0
  0
LINE
  5
276
330
1F
100
AcDbEntity
  8
0
  6
Continuous
 62
     7
100
AcDbLine
 10
112.1963382122963
 20
158.8603376270283
 30
0.0
 11
112.1963382122963
 21
156.6936659063846
 31
0.0
  0
LINE
  5
277
330
1F
100
AcDbEntity
  8
0
  6
Continuous
 62
     7
100
AcDbLine
 10
113.7379947244426
 20
156.6936659063846
 30
0.0
 11
113.7379947244426
 21
143.8603378505457
 31
0.0
  0
LINE
  5
278
330
1F
100
AcDbEntity
  8
0
  6
Continuous
 62
     7
100
AcDbLine
 10
112.1963382122963
 20
143.8603378505458
 30
0.0
 11
112.1963382122963
 21
141.693666129902
 31
0.0
  0
LINE
  5
279
330
1F
100
AcDbEntity
  8
0
  6
Continuous
 62
     7
100
AcDbLine
 10
113.7379947244426
 20
141.693666129902
 30
0.0
 11
113.7379947244426
 21
128.8603317162345
 31
0.0
  0
LINE
  5
27A
330
1F
100
AcDbEntity
  8
0
  6
Continuous
 62
     7
100
AcDbLine
 10
113.7379947244426
 20
126.6936663534194
 30
0.0
 11
113.7379947244426
 21
113.8603382975806
 31
0.0
  0
LINE
  5
27B
330
1F
100
AcDbEntity
  8
0
  6
Continuous
 62
     7
100
AcDbLine
 10
112.1963382122963
 20
128.8603380740632
 30
0.0
 11
112.1963382122963
 21
126.6936663534194
 31
0.0
  0
LINE
  5
27C
330
1F
100
AcDbEntity
  8
0
  6
Continuous
 62
     7
100
AcDbLine
 10
112.1963382122963
 20
113.8603382975806
 30
0.0
 11
112.1963382122963
 21
111.6936665769368
 31
0.0
  0
LINE
  5
27D
330
1F
100
AcDbEntity
  8
0
  6
Continuous
 62
     7
100
AcDbLine
 10
113.7379947244426
 20
111.6936665769368
 30
0.0
 11
113.7379947244426
 21
98.86033852109802
 31
0.0
  0
LINE
  5
27E
330
1F
100
AcDbEntity
  8
0
  6
Continuous
 62
     7
100
AcDbLine
 10
112.1963382122963
 20
98.860338521098
 30
0.0
 11
112.1963382122963
 21
96.69366680045424
 31
0.0
  0
LINE
  5
27F
330
1F
100
AcDbEntity
  8
0
  6
Continuous
 62
     7
100
AcDbLine
 10
113.7379947244426
 20
96.69366680045425
 30
0.0
 11
113.7379947244426
 21
78.61032356405768
 31
0.0
  0
LINE
  5
280
330
1F
100
AcDbEntity
  8
0
  6
Continuous
 62
     7
100
AcDbLine
 10
318.0
 20
241.5
 30
0.0
 11
393.0
 21
241.5
 31
0.0
  0
LINE
  5
281
330
1F
100
AcDbEntity
  8
0
  6
Continuous
 62
     7
100
AcDbLine
 10
318.0
 20
236.5
 30
0.0
 11
393.0
 21
236.5
 31
0.0
  0
LINE
  5
282
330
1F
100
AcDbEntity
  8
0
  6
Continuous
 62
     7
100
AcDbLine
 10
318.0
 20
226.5
 30
0.0
 11
393.0
 21
226.5
 31
0.0
  0
LINE
  5
283
330
1F
100
AcDbEntity
  8
0
  6
Continuous
 62
     7
100
AcDbLine
 10
318.0
 20
196.5
 30
0.0
 11
393.0
 21
196.5
 31
0.0
  0
LINE
  5
284
330
1F
100
AcDbEntity
  8
0
  6
CENTER
 62
     7
100
AcDbLine
 10
120.4046613724829
 20
232.7770006491194
 30
0.0
 11
120.4046613724829
 21
97.77700266077612
 31
0.0
  0
LINE
  5
285
330
1F
100
AcDbEntity
  8
0
  6
PHANTOM
 62
     7
100
AcDbLine
 10
232.4463364148438
 20
232.776987933462
 30
0.0
 11
238.7379928617975
 21
232.776987933462
 31
0.0
  0
LINE
  5
286
330
1F
100
AcDbEntity
  8
0
  6
PHANTOM
 62
     7
100
AcDbLine
 10
232.4463364148438
 20
232.776987933462
 30
0.0
 11
232.4463364148438
 21
96.69367315828295
 31
0.0
  0
LINE
  5
287
330
1F
100
AcDbEntity
  8
0
  6
PHANTOM
 62
     7
100
AcDbLine
 10
232.4463364148438
 20
217.776987933462
 30
0.0
 11
238.7379928617975
 21
217.776987933462
 31
0.0
  0
LINE
  5
288
330
1F
100
AcDbEntity
  8
0
  6
PHANTOM
 62
     7
100
AcDbLine
 10
232.4463364148438
 20
202.776987933462
 30
0.0
 11
238.7379928617975
 21
202.776987933462
 31
0.0
  0
LINE
  5
289
330
1F
100
AcDbEntity
  8
0
  6
PHANTOM
 62
     7
100
AcDbLine
 10
232.4463364148438
 20
187.776987933462
 30
0.0
 11
238.7379928617975
 21
187.776987933462
 31
0.0
  0
LINE
  5
28A
330
1F
100
AcDbEntity
  8
0
  6
PHANTOM
 62
     7
100
AcDbLine
 10
232.4463364148438
 20
172.776987933462
 30
0.0
 11
238.7379928617975
 21
172.776987933462
 31
0.0
  0
LINE
  5
28B
330
1F
100
AcDbEntity
  8
0
  6
PHANTOM
 62
     7
100
AcDbLine
 10
232.4463364148438
 20
157.776987933462
 30
0.0
 11
238.7379928617975
 21
157.776987933462
 31
0.0
  0
LINE
  5
28C
330
1F
100
AcDbEntity
  8
0
  6
PHANTOM
 62
     7
100
AcDbLine
 10
232.4463364148438
 20
142.776987933462
 30
0.0
 11
238.7379928617975
 21
142.776987933462
 31
0.0
  0
LINE
  5
28D
330
1F
100
AcDbEntity
  8
0
  6
PHANTOM
 62
     7
100
AcDbLine
 10
232.4463364148438
 20
127.776987933462
 30
0.0
 11
238.7379928617975
 21
127.776987933462
 31
0.0
  0
LINE
  5
28E
330
1F
100
AcDbEntity
  8
0
  6
PHANTOM
 62
     7
100
AcDbLine
 10
232.4463364148438
 20
112.776987933462
 30
0.0
 11
238.7379928617975
 21
112.776987933462
 31
0.0
  0
LINE
  5
28F
330
1F
100
AcDbEntity
  8
0
  6
PHANTOM
 62
     7
100
AcDbLine
 10
232.4463364148438
 20
97.77698793346204
 30
0.0
 11
238.7379928617975
 21
97.77698793346204
 31
0.0
  0
CIRCLE
  5
290
330
1F
100
AcDbEntity
  8
0
  6
Continuous
 62
     7
100
AcDbCircle
 10
342.4612191565195
 20
20.0
 30
0.0
 40
2.0
  0
CIRCLE
  5
291
330
1F
100
AcDbEntity
  8
0
  6
Continuous
 62
     7
100
AcDbCircle
 10
342.4612191565195
 20
20.0
 30
0.0
 40
1.0
  0
ARC
  5
292
330
1F
100
AcDbEntity
  8
0
  6
Continuous
 62
     7
100
AcDbCircle
 10
94.32131308831799
 20
114.4019935120842
 30
0.0
 40
0.3124999953433872
100
AcDbArc
 50
179.9999813306653
 51
0.0
  0
ARC
  5
293
330
1F
100
AcDbEntity
  8
0
  6
Continuous
 62
     7
100
AcDbCircle
 10
94.32131308831799
 20
196.9019859249097
 30
0.0
 40
0.3124999953433872
100
AcDbArc
 50
179.9999813306653
 51
0.0
  0
ARC
  5
294
330
1F
100
AcDbEntity
  8
0
  6
Continuous
 62
     7
100
AcDbCircle
 10
94.32131308831799
 20
169.401999050349
 30
0.0
 40
0.3124999953433872
100
AcDbArc
 50
179.9999813306653
 51
0.0
  0
ARC
  5
295
330
1F
100
AcDbEntity
  8
0
  6
Continuous
 62
     7
100
AcDbCircle
 10
94.32131308831799
 20
141.9019867444735
 30
0.0
 40
0.3124999953433872
100
AcDbArc
 50
179.9999813306653
 51
0.0
  0
ARC
  5
296
330
1F
100
AcDbEntity
  8
0
  6
Continuous
 62
     7
100
AcDbCircle
 10
242.7379953453243
 20
169.9228323759213
 30
0.0
 40
0.8333333209156991
100
AcDbArc
 50
270.0000179860893
 51
0.0
  0
ARC
  5
297
330
1F
100
AcDbEntity
  8
0
  6
Continuous
 62
     7
100
AcDbCircle
 10
242.7379953453243
 20
176.4228221065379
 30
0.0
 40
0.2083333302289248
100
AcDbArc
 50
0.0
 51
89.99998201391067
  0
ARC
  5
298
330
1F
100
AcDbEntity
  8
0
  6
Continuous
 62
     7
100
AcDbCircle
 10
242.7379953453243
 20
169.9228323759213
 30
0.0
 40
0.2083333302289248
100
AcDbArc
 50
270.0000179860893
 51
0.0
  0
ARC
  5
299
330
1F
100
AcDbEntity
  8
0
  6
Continuous
 62
     7
100
AcDbCircle
 10
237.8630030473619
 20
169.9228323759213
 30
0.0
 40
0.2083333302289248
100
AcDbArc
 50
179.9999776881997
 51
270.000028004002
  0
ARC
  5
29A
330
1F
100
AcDbEntity
  8
0
  6
Continuous
 62
     7
100
AcDbCircle
 10
237.8630030473619
 20
169.9228323759213
 30
0.0
 40
0.8333333209156991
100
AcDbArc
 50
179.9999776881997
 51
270.000028004002
  0
ARC
  5
29B
330
1F
100
AcDbEntity
  8
0
  6
Continuous
 62
     7
100
AcDbCircle
 10
237.8630030473619
 20
176.4228221065379
 30
0.0
 40
0.2083333302289248
100
AcDbArc
 50
89.99998201391067
 51
179.9999640278213
  0
ARC
  5
29C
330
1F
100
AcDbEntity
  8
0
  6
Continuous
 62
     7
100
AcDbCircle
 10
237.8630030473619
 20
203.922821696756
 30
0.0
 40
0.8333333209156991
100
AcDbArc
 50
89.99998201391067
 51
179.9999640278213
  0
ARC
  5
29D
330
1F
100
AcDbEntity
  8
0
  6
Continuous
 62
     7
100
AcDbCircle
 10
242.7379953453243
 20
203.922821696756
 30
0.0
 40
0.8333333209156991
100
AcDbArc
 50
0.0
 51
89.99998201391067
  0
ARC
  5
29E
330
1F
100
AcDbEntity
  8
0
  6
Continuous
 62
     7
100
AcDbCircle
 10
242.7379953453243
 20
197.422819250482
 30
0.0
 40
0.8333333209156991
100
AcDbArc
 50
270.0000179860893
 51
0.0
  0
ARC
  5
29F
330
1F
100
AcDbEntity
  8
0
  6
Continuous
 62
     7
100
AcDbCircle
 10
242.7379953453243
 20
197.422819250482
 30
0.0
 40
0.2083333302289248
100
AcDbArc
 50
270.0000179860893
 51
0.0
  0
ARC
  5
2A0
330
1F
100
AcDbEntity
  8
0
  6
Continuous
 62
     7
100
AcDbCircle
 10
242.7379953453243
 20
203.922821696756
 30
0.0
 40
0.2083333302289248
100
AcDbArc
 50
0.0
 51
89.99998201391067
  0
ARC
  5
2A1
330
1F
100
AcDbEntity
  8
0
  6
Continuous
 62
     7
100
AcDbCircle
 10
237.8630030473619
 20
197.422819250482
 30
0.0
 40
0.8333333209156991
100
AcDbArc
 50
179.9999776881997
 51
270.000028004002
  0
ARC
  5
2A2
330
1F
100
AcDbEntity
  8
0
  6
Continuous
 62
     7
100
AcDbCircle
 10
237.8630030473619
 20
197.422819250482
 30
0.0
 40
0.2083333302289248
100
AcDbArc
 50
179.9999776881997
 51
270.000028004002
  0
ARC
  5
2A3
330
1F
100
AcDbEntity
  8
0
  6
Continuous
 62
     7
100
AcDbCircle
 10
237.8630030473619
 20
203.922821696756
 30
0.0
 40
0.2083333302289248
100
AcDbArc
 50
89.99998201391067
 51
179.9999640278213
  0
ARC
  5
2A4
330
1F
100
AcDbEntity
  8
0
  6
Continuous
 62
     7
100
AcDbCircle
 10
237.8630030473619
 20
176.4228221065379
 30
0.0
 40
0.8333333209156991
100
AcDbArc
 50
89.99998201391067
 51
179.9999640278213
  0
ARC
  5
2A5
330
1F
100
AcDbEntity
  8
0
  6
Continuous
 62
     7
100
AcDbCircle
 10
242.7379953453243
 20
176.4228221065379
 30
0.0
 40
0.8333333209156991
100
AcDbArc
 50
0.0
 51
89.99998201391067
  0
ARC
  5
2A6
330
1F
100
AcDbEntity
  8
0
  6
Continuous
 62
     7
100
AcDbCircle
 10
242.7379953453243
 20
148.9228225163198
 30
0.0
 40
0.8333333209156991
100
AcDbArc
 50
0.0
 51
89.99998201391067
  0
ARC
  5
2A7
330
1F
100
AcDbEntity
  8
0
  6
Continuous
 62
     7
100
AcDbCircle
 10
242.7379953453243
 20
142.4228200700458
 30
0.0
 40
0.8333333209156991
100
AcDbArc
 50
270.0000179860893
 51
0.0
  0
ARC
  5
2A8
330
1F
100
AcDbEntity
  8
0
  6
Continuous
 62
     7
100
AcDbCircle
 10
237.8630030473619
 20
148.9228225163198
 30
0.0
 40
0.8333333209156991
100
AcDbArc
 50
89.99998201391067
 51
179.9999640278213
  0
ARC
  5
2A9
330
1F
100
AcDbEntity
  8
0
  6
Continuous
 62
     7
100
AcDbCircle
 10
237.8630030473619
 20
148.9228225163198
 30
0.0
 40
0.2083333302289248
100
AcDbArc
 50
89.99998201391067
 51
179.9999640278213
  0
ARC
  5
2AA
330
1F
100
AcDbEntity
  8
0
  6
Continuous
 62
     7
100
AcDbCircle
 10
237.8630030473619
 20
142.4228200700458
 30
0.0
 40
0.2083333302289248
100
AcDbArc
 50
179.9999776881997
 51
270.000028004002
  0
ARC
  5
2AB
330
1F
100
AcDbEntity
  8
0
  6
Continuous
 62
     7
100
AcDbCircle
 10
237.8630030473619
 20
142.4228200700458
 30
0.0
 40
0.8333333209156991
100
AcDbArc
 50
240.0000513022092
 51
270.0000179860893
  0
ARC
  5
2AC
330
1F
100
AcDbEntity
  8
0
  6
Continuous
 62
     7
100
AcDbCircle
 10
242.7379953453243
 20
148.9228225163198
 30
0.0
 40
0.2083333302289248
100
AcDbArc
 50
0.0
 51
89.99998201391067
  0
ARC
  5
2AD
330
1F
100
AcDbEntity
  8
0
  6
Continuous
 62
     7
100
AcDbCircle
 10
242.7379953453243
 20
142.4228200700458
 30
0.0
 40
0.2083333302289248
100
AcDbArc
 50
270.0000179860893
 51
0.0
  0
ARC
  5
2AE
330
1F
100
AcDbEntity
  8
0
  6
Continuous
 62
     7
100
AcDbCircle
 10
237.8630030473619
 20
121.4228229261017
 30
0.0
 40
0.8333333209156991
100
AcDbArc
 50
89.99998201391067
 51
179.9999640278213
  0
ARC
  5
2AF
330
1F
100
AcDbEntity
  8
0
  6
Continuous
 62
     7
100
AcDbCircle
 10
242.7379953453243
 20
121.4228229261017
 30
0.0
 40
0.8333333209156991
100
AcDbArc
 50
0.0
 51
89.99998201391067
  0
ARC
  5
2B0
330
1F
100
AcDbEntity
  8
0
  6
Continuous
 62
     7
100
AcDbCircle
 10
242.7379953453243
 20
114.9228268376565
 30
0.0
 40
0.8333333209156991
100
AcDbArc
 50
270.0000179860893
 51
0.0
  0
ARC
  5
2B1
330
1F
100
AcDbEntity
  8
0
  6
Continuous
 62
     7
100
AcDbCircle
 10
242.7379953453243
 20
114.9228268376565
 30
0.0
 40
0.2083333302289248
100
AcDbArc
 50
270.0000179860893
 51
0.0
  0
ARC
  5
2B2
330
1F
100
AcDbEntity
  8
0
  6
Continuous
 62
     7
100
AcDbCircle
 10
242.7379953453243
 20
121.4228229261017
 30
0.0
 40
0.2083333302289248
100
AcDbArc
 50
0.0
 51
89.99998201391067
  0
ARC
  5
2B3
330
1F
100
AcDbEntity
  8
0
  6
Continuous
 62
     7
100
AcDbCircle
 10
237.8630030473619
 20
114.9228268376565
 30
0.0
 40
0.8333333209156991
100
AcDbArc
 50
179.9999776881997
 51
270.000028004002
  0
ARC
  5
2B4
330
1F
100
AcDbEntity
  8
0
  6
Continuous
 62
     7
100
AcDbCircle
 10
237.8630030473619
 20
114.9228268376565
 30
0.0
 40
0.2083333302289248
100
AcDbArc
 50
179.9999776881997
 51
270.000028004002
  0
ARC
  5
2B5
330
1F
100
AcDbEntity
  8
0
  6
Continuous
 62
     7
100
AcDbCircle
 10
237.8630030473619
 20
121.4228229261017
 30
0.0
 40
0.2083333302289248
100
AcDbArc
 50
89.99998201391067
 51
179.9999640278213
  0
LWPOLYLINE
  5
2B6
330
1F
100
AcDbEntity
  8
0
  6
Continuous
 62
     7
100
AcDbPolyline
 90
       20
 70
     0
 43
0.0
 10
176.5150775345412
 20
18.38114453275468
 10
175.8799391162154
 20
18.26205607931857
 10
176.1578121742329
 20
16.83299463808547
 10
174.4905738261276
 20
16.51542542892257
 10
174.5699661284183
 20
15.91998316174207
 10
176.276900627669
 20
16.27724852205037
 10
176.8723428948495
 20
12.98246797698512
 10
177.5074813131753
 20
13.10155643042123
 10
176.8723428948495
 20
16.39633697548648
 10
178.777758149827
 20
16.79329848694012
 10
178.2617081849372
 20
16.11846391746892
 10
177.6662659177568
 20
15.40393319685232
 10
178.1029235803558
 20
15.00697168539873
 10
178.777758149827
 20
15.80089470830598
 10
179.5716811727343
 20
16.83299463808547
 10
179.7701619284611
 20
17.03147539381228
 10
179.2541119635714
 20
17.50782920755667
 10
179.1747196612806
 20
17.42843690526593
 10
176.7532544414134
 20
16.95208309152158
 10
176.5150775345412
 20
18.38114453275468
  0
LWPOLYLINE
  5
2B7
330
1F
100
AcDbEntity
  8
0
  6
Continuous
 62
     7
100
AcDbPolyline
 90
       24
 70
     0
 43
0.0
 10
185.4864076933936
 20
17.62691766099278
 10
185.3673192399575
 20
17.58722150984737
 10
180.8022618582406
 20
17.58722150984737
 10
180.8022618582406
 20
16.99177924266693
 10
184.8512692750678
 20
16.99177924266693
 10
184.0176501010151
 20
16.07876776632353
 10
183.5809924384161
 20
15.68180625486987
 10
183.1840309269625
 20
15.28484474341628
 10
182.4298040552005
 20
15.95967931288748
 10
182.1916271483283
 20
16.11846391746892
 10
181.7549694857293
 20
15.68180625486987
 10
182.4298040552005
 20
15.12606013883482
 10
182.9458540200903
 20
14.64970632509042
 10
183.4222078338346
 20
14.13365636020068
 10
183.9382577987244
 20
13.49851794187483
 10
184.4543077636141
 20
13.93517560447387
 10
183.9779539498697
 20
14.45122556936358
 10
183.5809924384161
 20
14.88788323196262
 10
184.0970424033058
 20
15.32454089456163
 10
184.6130923681956
 20
15.84059085945137
 10
185.1291423330853
 20
16.35664082434107
 10
185.6451922979751
 20
16.99177924266693
 10
185.8436730537019
 20
17.11086769610302
 10
185.4864076933936
 20
17.62691766099278
  0
LWPOLYLINE
  5
2B8
330
1F
100
AcDbEntity
  8
0
  6
Continuous
 62
     7
100
AcDbPolyline
 90
       14
 70
     0
 43
0.0
 10
187.8284806109701
 20
18.34144838160933
 10
187.8284806109701
 20
13.02216412813047
 10
188.5033151804413
 20
13.02216412813047
 10
188.5033151804413
 20
15.99937546403283
 10
189.1384535987671
 20
15.76119855716063
 10
189.6545035636569
 20
15.52302165028843
 10
190.1308573774012
 20
15.28484474341628
 10
190.7659957957271
 20
14.88788323196262
 10
191.1232611560354
 20
15.52302165028843
 10
190.3690342842734
 20
15.88028701059672
 10
189.8926804705291
 20
16.11846391746892
 10
188.5033151804413
 20
16.63451388235862
 10
188.5033151804413
 20
18.34144838160933
 10
187.8284806109701
 20
18.34144838160933
  0
LWPOLYLINE
  5
2B9
330
1F
100
AcDbEntity
  8
0
  6
Continuous
 62
     7
100
AcDbPolyline
 90
        5
 70
     0
 43
0.0
 10
194.8546993636996
 20
16.51542542892257
 10
194.1401686430831
 20
16.51542542892257
 10
194.1401686430831
 20
16.07876776632353
 10
194.8546993636996
 20
16.07876776632353
 10
194.8546993636996
 20
16.51542542892257
  0
LWPOLYLINE
  5
2BA
330
1F
100
AcDbEntity
  8
0
  6
Continuous
 62
     7
100
AcDbPolyline
 90
        7
 70
     0
 43
0.0
 10
191.8774880277973
 20
17.94448687015568
 10
192.1950572369602
 20
18.38114453275468
 10
192.6714110507046
 20
18.10327147473713
 10
193.1080687133036
 20
17.74600611442887
 10
192.7111072018499
 20
17.26965230068447
 10
192.3141456903963
 20
17.66661381213813
 10
191.8774880277973
 20
17.94448687015568
  0
LWPOLYLINE
  5
2BB
330
1F
100
AcDbEntity
  8
0
  6
Continuous
 62
     7
100
AcDbPolyline
 90
        5
 70
     0
 43
0.0
 10
196.2440646537874
 20
16.51542542892257
 10
195.331053177444
 20
16.51542542892257
 10
195.331053177444
 20
16.07876776632353
 10
196.2440646537874
 20
16.07876776632353
 10
196.2440646537874
 20
16.51542542892257
  0
LWPOLYLINE
  5
2BC
330
1F
100
AcDbEntity
  8
0
  6
Continuous
 62
     7
100
AcDbPolyline
 90
       21
 70
     0
 43
0.0
 10
191.6393111209251
 20
15.68180625486987
 10
191.6393111209251
 20
16.19785621975962
 10
192.9095879575768
 20
16.19785621975962
 10
192.9095879575768
 20
14.09396020905533
 10
193.2668533178851
 20
13.89547945332852
 10
193.6638148293387
 20
13.69699869760167
 10
194.1004724919377
 20
13.61760639531092
 10
194.5768263056821
 20
13.57791024416557
 10
197.2364684324215
 20
13.57791024416557
 10
197.1173799789854
 20
13.30003718614802
 10
197.0379876766947
 20
13.06186027927582
 10
194.7356109102635
 20
13.06186027927582
 10
194.1798647942284
 20
13.14125258156658
 10
193.6638148293387
 20
13.22064488385728
 10
193.1874610155943
 20
13.41912563958413
 10
192.7904995041407
 20
13.65730254645633
 10
191.8377918766519
 20
12.90307567469437
 10
191.520222667489
 20
13.45882179072948
 10
192.3538418415417
 20
13.97487175561922
 10
192.3538418415417
 20
15.68180625486987
 10
191.6393111209251
 20
15.68180625486987
  0
LWPOLYLINE
  5
2BD
330
1F
100
AcDbEntity
  8
0
  6
Continuous
 62
     7
100
AcDbPolyline
 90
        5
 70
     0
 43
0.0
 10
194.8546993636996
 20
15.68180625486987
 10
194.1401686430831
 20
15.68180625486987
 10
194.1401686430831
 20
15.20545244112552
 10
194.8546993636996
 20
15.20545244112552
 10
194.8546993636996
 20
15.68180625486987
  0
LWPOLYLINE
  5
2BE
330
1F
100
AcDbEntity
  8
0
  6
Continuous
 62
     7
100
AcDbPolyline
 90
        5
 70
     0
 43
0.0
 10
196.2440646537874
 20
15.68180625486987
 10
195.331053177444
 20
15.68180625486987
 10
195.331053177444
 20
15.20545244112552
 10
196.2440646537874
 20
15.20545244112552
 10
196.2440646537874
 20
15.68180625486987
  0
LWPOLYLINE
  5
2BF
330
1F
100
AcDbEntity
  8
0
  6
Continuous
 62
     7
100
AcDbPolyline
 90
        5
 70
     0
 43
0.0
 10
202.2381834767374
 20
14.41152941821823
 10
200.3327682217599
 20
14.41152941821823
 10
200.3327682217599
 20
13.69699869760167
 10
202.2381834767374
 20
13.69699869760167
 10
202.2381834767374
 20
14.41152941821823
  0
LWPOLYLINE
  5
2C0
330
1F
100
AcDbEntity
  8
0
  6
Continuous
 62
     7
100
AcDbPolyline
 90
       13
 70
     0
 43
0.0
 10
197.5937337927298
 20
15.80089470830598
 10
197.9906953041834
 20
16.43603312663183
 10
198.3082645133463
 20
17.11086769610302
 10
198.6258337225092
 20
17.82539841671957
 10
198.8640106293814
 20
18.57962528848147
 10
199.4197567454165
 20
18.38114453275468
 10
198.9434029316722
 20
17.07117154495767
 10
198.9434029316722
 20
12.90307567469437
 10
198.3876568156371
 20
12.90307567469437
 10
198.3876568156371
 20
15.95967931288748
 10
198.1494799087649
 20
15.60241395257917
 10
197.9113030018927
 20
15.32454089456163
 10
197.5937337927298
 20
15.80089470830598
  0
LWPOLYLINE
  5
2C1
330
1F
100
AcDbEntity
  8
0
  6
Continuous
 62
     7
100
AcDbPolyline
 90
        5
 70
     0
 43
0.0
 10
199.8564144080155
 20
17.92539841671957
 10
199.8564144080155
 20
18.40175223046398
 10
202.7939295927725
 20
18.40175223046398
 10
202.7939295927725
 20
17.92539841671957
 10
199.8564144080155
 20
17.92539841671957
  0
LWPOLYLINE
  5
2C2
330
1F
100
AcDbEntity
  8
0
  6
Continuous
 62
     7
100
AcDbPolyline
 90
        5
 70
     0
 43
0.0
 10
199.3006682919804
 20
16.99177924266693
 10
199.3006682919804
 20
17.46813305641132
 10
203.3496757088076
 20
17.46813305641132
 10
203.3496757088076
 20
16.99177924266693
 10
199.3006682919804
 20
16.99177924266693
  0
LWPOLYLINE
  5
2C3
330
1F
100
AcDbEntity
  8
0
  6
Continuous
 62
     7
100
AcDbPolyline
 90
        9
 70
     0
 43
0.0
 10
199.8167182568702
 20
12.90307567469437
 10
199.8167182568702
 20
14.88788323196262
 10
202.8336257439179
 20
14.88788323196262
 10
202.8336257439179
 20
12.94277182583977
 10
202.2381834767374
 20
12.94277182583977
 10
202.2381834767374
 20
13.18094873271193
 10
200.3327682217599
 20
13.18094873271193
 10
200.3327682217599
 20
12.90307567469437
 10
199.8167182568702
 20
12.90307567469437
  0
LWPOLYLINE
  5
2C4
330
1F
100
AcDbEntity
  8
0
  6
Continuous
 62
     7
100
AcDbPolyline
 90
       13
 70
     0
 43
0.0
 10
204.3817756385871
 20
17.98418302130102
 10
204.3817756385871
 20
17.46813305641132
 10
206.3665831958553
 20
17.46813305641132
 10
206.3665831958553
 20
13.93517560447387
 10
204.0245102782788
 20
13.93517560447387
 10
204.0245102782788
 20
13.33973333729337
 10
209.3437945317577
 20
13.33973333729337
 10
209.3437945317577
 20
13.93517560447387
 10
206.9223293118904
 20
13.93517560447387
 10
206.9223293118904
 20
17.46813305641132
 10
209.0262253225947
 20
17.46813305641132
 10
209.0262253225947
 20
17.98418302130102
 10
204.3817756385871
 20
17.98418302130102
  0
LWPOLYLINE
  5
2C5
330
1F
100
AcDbEntity
  8
0
  6
Continuous
 62
     7
100
AcDbPolyline
 90
        5
 70
     0
 43
0.0
 10
213.6706750066024
 20
17.03147539381228
 10
212.0034366584971
 20
17.03147539381228
 10
212.2416135653693
 20
16.43603312663183
 10
213.3531057974395
 20
16.43603312663183
 10
213.6706750066024
 20
17.03147539381228
  0
LWPOLYLINE
  5
2C6
330
1F
100
AcDbEntity
  8
0
  6
Continuous
 62
     7
100
AcDbPolyline
 90
       73
 70
     0
 43
0.0
 10
212.0034366584971
 20
17.50782920755667
 10
212.0034366584971
 20
18.50023298619077
 10
212.4797904722415
 20
18.50023298619077
 10
212.4797904722415
 20
17.50782920755667
 10
213.1546250417127
 20
17.50782920755667
 10
213.1546250417127
 20
18.50023298619077
 10
213.630978855457
 20
18.50023298619077
 10
213.630978855457
 20
17.50782920755667
 10
213.8691557623292
 20
17.50782920755667
 10
214.4249018783643
 20
18.42084068390003
 10
214.9409518432541
 20
18.14296762588252
 10
214.4645980295097
 20
17.50782920755667
 10
215.5760902615798
 20
17.50782920755667
 10
215.5760902615798
 20
17.03147539381228
 10
214.2661172737829
 20
17.03147539381228
 10
213.94854806462
 20
16.43603312663183
 10
215.1394325989809
 20
16.43603312663183
 10
215.1394325989809
 20
15.95967931288748
 10
213.0752327394219
 20
15.95967931288748
 10
213.0752327394219
 20
15.60241395257917
 10
214.821863389818
 20
15.60241395257917
 10
214.821863389818
 20
15.16575628998017
 10
213.0752327394219
 20
15.16575628998017
 10
213.0752327394219
 20
14.76879477852653
 10
215.4570018081438
 20
14.76879477852653
 10
215.4570018081438
 20
14.29244096478212
 10
213.7103711577478
 20
14.29244096478212
 10
214.1470288203468
 20
14.05426405790998
 10
214.6233826340911
 20
13.81608715103778
 10
215.1394325989809
 20
13.61760639531092
 10
215.695178715016
 20
13.45882179072948
 10
215.5760902615798
 20
13.37942948843878
 10
215.4570018081438
 20
13.26034103500267
 10
215.4173056569984
 20
13.10155643042123
 10
215.3776095058531
 20
12.98246797698512
 10
214.6630787852365
 20
13.22064488385728
 10
214.067636518056
 20
13.53821409302022
 10
213.5118904020209
 20
13.85578330218313
 10
213.0752327394219
 20
14.25274481363677
 10
213.0752327394219
 20
12.90307567469437
 10
212.5194866233868
 20
12.90307567469437
 10
212.5194866233868
 20
14.13365636020068
 10
212.0034366584971
 20
13.77639099989243
 10
211.447690542462
 20
13.49851794187483
 10
210.8919444264269
 20
13.22064488385728
 10
210.3361983103918
 20
13.02216412813047
 10
210.2171098569557
 20
13.22064488385728
 10
210.0583252523742
 20
13.49851794187483
 10
210.574375217264
 20
13.65730254645633
 10
211.0507290310083
 20
13.81608715103778
 10
211.5270828447527
 20
14.05426405790998
 10
211.9637405073517
 20
14.29244096478212
 10
210.1774137058103
 20
14.29244096478212
 10
210.1774137058103
 20
14.76879477852653
 10
212.5194866233868
 20
14.76879477852653
 10
212.5194866233868
 20
15.16575628998017
 10
210.8919444264269
 20
15.16575628998017
 10
210.8919444264269
 20
15.60241395257917
 10
212.5194866233868
 20
15.60241395257917
 10
212.5194866233868
 20
15.95967931288748
 10
210.5346790661186
 20
15.95967931288748
 10
210.5346790661186
 20
16.43603312663183
 10
211.6461712981888
 20
16.43603312663183
 10
211.4079943913166
 20
17.03147539381228
 10
210.0980214035196
 20
17.03147539381228
 10
210.0980214035196
 20
17.50782920755667
 10
211.2095136355898
 20
17.50782920755667
 10
210.7331598218454
 20
18.06357532359178
 10
211.1301213332991
 20
18.38114453275468
 10
211.4079943913166
 20
18.06357532359178
 10
211.6858674493342
 20
17.70630996328348
 10
211.3286020890259
 20
17.50782920755667
 10
212.0034366584971
 20
17.50782920755667
  0
LWPOLYLINE
  5
2C7
330
1F
100
AcDbEntity
  8
0
  6
Continuous
 62
     7
100
AcDbPolyline
 90
       69
 70
     0
 43
0.0
 10
217.0845440051037
 20
18.50023298619077
 10
217.0845440051037
 20
17.30934845182988
 10
216.2509248310511
 20
17.30934845182988
 10
216.2509248310511
 20
16.79329848694012
 10
217.0845440051037
 20
16.79329848694012
 10
216.9257594005223
 20
16.31694467319572
 10
216.6875824936501
 20
15.84059085945137
 10
216.4097094356325
 20
15.32454089456163
 10
216.0921402264696
 20
14.80849092967188
 10
216.2112286799057
 20
14.49092172050897
 10
216.3303171333418
 20
14.09396020905533
 10
217.0845440051037
 20
15.40393319685232
 10
217.0845440051037
 20
12.94277182583977
 10
217.6005939699935
 20
12.94277182583977
 10
217.6005939699935
 20
15.52302165028843
 10
217.9975554814471
 20
15.08636398768943
 10
218.2754285394647
 20
15.48332549914308
 10
218.2754285394647
 20
15.44362934799772
 10
219.506009224971
 20
15.44362934799772
 10
219.1090477135173
 20
15.04666783654408
 10
218.7120862020637
 20
14.61001017394502
 10
218.2754285394647
 20
14.25274481363677
 10
217.7990747257203
 20
13.89547945332852
 10
218.0372516325925
 20
13.69699869760167
 10
218.2357323883193
 20
13.49851794187483
 10
218.5929977486276
 20
13.77639099989243
 10
218.9502631089359
 20
14.09396020905533
 10
219.3472246203895
 20
14.45122556936358
 10
219.7441861318432
 20
14.84818708081727
 10
219.7441861318432
 20
12.94277182583977
 10
220.2602360967329
 20
12.94277182583977
 10
220.2602360967329
 20
14.80849092967188
 10
220.7762860616226
 20
14.21304866249142
 10
221.4114244799485
 20
13.57791024416557
 10
221.6099052356753
 20
13.81608715103778
 10
221.9274744448382
 20
13.97487175561922
 10
221.4908167822392
 20
14.33213711592753
 10
221.0938552707856
 20
14.68940247623577
 10
220.7365899104773
 20
15.08636398768943
 10
220.4587168524597
 20
15.44362934799772
 10
221.6496013868207
 20
15.44362934799772
 10
221.6496013868207
 20
15.95967931288748
 10
220.2602360967329
 20
15.95967931288748
 10
220.2602360967329
 20
16.87269078923082
 10
221.3320321776578
 20
16.87269078923082
 10
221.3320321776578
 20
17.38874075412058
 10
220.2602360967329
 20
17.38874075412058
 10
220.2602360967329
 20
18.46053683504542
 10
219.7441861318432
 20
18.46053683504542
 10
219.7441861318432
 20
17.38874075412058
 10
219.1090477135173
 20
17.38874075412058
 10
219.3075284692442
 20
17.94448687015568
 10
218.7517823532091
 20
18.06357532359178
 10
218.4739092951915
 20
17.19025999839372
 10
218.1563400860286
 20
16.43603312663183
 10
218.6723900509183
 20
16.23755237090497
 10
218.9502631089359
 20
16.87269078923082
 10
219.7441861318432
 20
16.87269078923082
 10
219.7441861318432
 20
15.95967931288748
 10
218.2754285394647
 20
15.95967931288748
 10
218.2754285394647
 20
15.56271780143378
 10
218.0372516325925
 20
15.80089470830598
 10
217.6005939699935
 20
16.31694467319572
 10
217.6005939699935
 20
16.79329848694012
 10
218.1960362371739
 20
16.79329848694012
 10
218.1960362371739
 20
17.30934845182988
 10
217.6005939699935
 20
17.30934845182988
 10
217.6005939699935
 20
18.50023298619077
 10
217.0845440051037
 20
18.50023298619077
  0
LWPOLYLINE
  5
2C8
330
1F
100
AcDbEntity
  8
0
  6
Continuous
 62
     7
100
AcDbPolyline
 90
       39
 70
     0
 43
0.0
 10
225.5398241990664
 20
18.46053683504542
 10
225.5398241990664
 20
17.38874075412058
 10
222.5229167120187
 20
17.38874075412058
 10
222.5229167120187
 20
16.87269078923082
 10
225.5398241990664
 20
16.87269078923082
 10
225.6192165013571
 20
16.03907161517818
 10
225.7383049547932
 20
15.28484474341628
 10
225.8970895593746
 20
14.61001017394502
 10
226.1352664662469
 20
13.97487175561922
 10
226.373443373119
 20
13.53821409302022
 10
226.5322279777005
 20
13.33973333729337
 10
226.6513164311366
 20
13.18094873271193
 10
226.810101035718
 20
13.10155643042123
 10
226.9688856402995
 20
12.98246797698512
 10
227.127670244881
 20
12.94277182583977
 10
227.2864548494624
 20
12.94277182583977
 10
227.3658471517531
 20
12.94277182583977
 10
227.4452394540439
 20
12.98246797698512
 10
227.6040240586253
 20
13.14125258156658
 10
227.7628086632068
 20
13.41912563958413
 10
227.9612894189336
 20
13.89547945332852
 10
227.6834163609161
 20
14.01456790676457
 10
227.4055433028985
 20
14.21304866249142
 10
227.2864548494624
 20
13.69699869760167
 10
227.2467586983171
 20
13.61760639531092
 10
227.1673663960263
 20
13.57791024416557
 10
227.0085817914449
 20
13.61760639531092
 10
226.8894933380088
 20
13.73669484874702
 10
226.7307087334273
 20
13.93517560447387
 10
226.6116202799912
 20
14.25274481363677
 10
226.4131395242644
 20
14.80849092967188
 10
226.2543549196829
 20
15.44362934799772
 10
226.1749626173922
 20
16.11846391746892
 10
226.1352664662469
 20
16.87269078923082
 10
227.8025048143522
 20
16.87269078923082
 10
227.8025048143522
 20
17.38874075412058
 10
226.1352664662469
 20
17.38874075412058
 10
226.1352664662469
 20
18.46053683504542
 10
225.5398241990664
 20
18.46053683504542
  0
LWPOLYLINE
  5
2C9
330
1F
100
AcDbEntity
  8
0
  6
Continuous
 62
     7
100
AcDbPolyline
 90
        5
 70
     0
 43
0.0
 10
226.6513164311366
 20
18.42084068390003
 10
226.3337472219737
 20
18.06357532359178
 10
227.0482779425902
 20
17.46813305641132
 10
227.4055433028985
 20
17.82539841671957
 10
226.6513164311366
 20
18.42084068390003
  0
LWPOLYLINE
  5
2CA
330
1F
100
AcDbEntity
  8
0
  6
Continuous
 62
     7
100
AcDbPolyline
 90
       13
 70
     0
 43
0.0
 10
222.7213974677455
 20
15.99937546403283
 10
222.7213974677455
 20
15.48332549914308
 10
223.7931935486703
 20
15.48332549914308
 10
223.7931935486703
 20
13.93517560447387
 10
222.4832205608733
 20
13.73669484874702
 10
222.6023090143094
 20
13.14125258156658
 10
225.5398241990664
 20
13.61760639531092
 10
225.5398241990664
 20
14.17335251134603
 10
224.3489396647055
 20
13.97487175561922
 10
224.3489396647055
 20
15.48332549914308
 10
225.3016472921942
 20
15.48332549914308
 10
225.3016472921942
 20
15.99937546403283
 10
222.7213974677455
 20
15.99937546403283
  0
LWPOLYLINE
  5
2CB
330
1F
100
AcDbEntity
  8
0
  6
Continuous
 62
     7
100
AcDbPolyline
 90
        8
 70
     0
 43
0.0
 10
232.6057391029413
 20
16.51542542892257
 10
232.2087775914876
 20
16.83299463808547
 10
231.8515122311793
 20
17.19025999839372
 10
231.5339430220164
 20
17.50782920755667
 10
231.2163738128535
 20
17.90479071901033
 10
230.501843092237
 20
17.15056384724837
 10
229.8270085227657
 20
16.51542542892257
 10
232.6057391029413
 20
16.51542542892257
  0
LWPOLYLINE
  5
2CC
330
1F
100
AcDbEntity
  8
0
  6
Continuous
 62
     7
100
AcDbPolyline
 90
       28
 70
     0
 43
0.0
 10
228.3979470815326
 20
16.23755237090497
 10
228.7552124418409
 20
16.43603312663183
 10
229.0727816510038
 20
16.67421003350403
 10
229.747616220475
 20
17.19025999839372
 10
230.4224507899462
 20
17.82539841671957
 10
231.0575892082721
 20
18.57962528848147
 10
231.6927276265979
 20
18.38114453275468
 10
231.5736391731618
 20
18.26205607931857
 10
231.811816080034
 20
17.98418302130102
 10
232.0896891380515
 20
17.70630996328348
 10
232.3675621960691
 20
17.42843690526593
 10
232.685131405232
 20
17.19025999839372
 10
233.0423967655403
 20
16.95208309152158
 10
233.3996621258486
 20
16.71390618464938
 10
234.1935851487559
 20
16.31694467319572
 10
234.0744966953198
 20
16.19785621975962
 10
233.9554082418837
 20
16.07876776632353
 10
233.8760159395929
 20
15.95967931288748
 10
233.7966236373022
 20
15.80089470830598
 10
233.2408775212671
 20
16.11846391746892
 10
232.685131405232
 20
16.47572927777718
 10
232.685131405232
 20
15.99937546403283
 10
229.7079200693297
 20
15.99937546403283
 10
229.7079200693297
 20
16.43603312663183
 10
229.2315662555853
 20
16.07876776632353
 10
228.7155162906955
 20
15.76119855716063
 10
228.5567316861141
 20
16.07876776632353
 10
228.3979470815326
 20
16.23755237090497
  0
LWPOLYLINE
  5
2CD
330
1F
100
AcDbEntity
  8
0
  6
Continuous
 62
     7
100
AcDbPolyline
 90
       22
 70
     0
 43
0.0
 10
228.7155162906955
 20
14.88788323196262
 10
228.7155162906955
 20
15.40393319685232
 10
233.8760159395929
 20
15.40393319685232
 10
233.8760159395929
 20
14.88788323196262
 10
230.938500754836
 20
14.88788323196262
 10
230.7400199991091
 20
14.53061787165432
 10
230.4621469410916
 20
13.93517560447387
 10
230.3033623365101
 20
13.61760639531092
 10
231.2957661151442
 20
13.73669484874702
 10
232.3278660449237
 20
13.89547945332852
 10
231.8912083823247
 20
14.41152941821823
 10
232.3278660449237
 20
14.72909862738118
 10
232.9630044632496
 20
14.01456790676457
 10
233.5981428815754
 20
13.22064488385728
 10
233.0820929166857
 20
12.86337952354902
 10
232.685131405232
 20
13.45882179072948
 10
230.620931545673
 20
13.14125258156658
 10
229.0727816510038
 20
12.90307567469437
 10
228.874300895277
 20
13.53821409302022
 10
229.7079200693297
 20
13.57791024416557
 10
230.2239700342194
 20
14.88788323196262
 10
228.7155162906955
 20
14.88788323196262
  0
LWPOLYLINE
  5
2CE
330
1F
100
AcDbEntity
  8
0
  6
Continuous
 62
     7
100
AcDbPolyline
 90
       26
 70
     0
 43
0.0
 10
235.5432542876982
 20
18.50023298619077
 10
235.5432542876982
 20
17.50782920755667
 10
234.7493312647909
 20
17.50782920755667
 10
234.7493312647909
 20
16.99177924266693
 10
236.3371773106055
 20
16.99177924266693
 10
235.9402157991519
 20
16.43603312663183
 10
235.5035581365529
 20
15.95967931288748
 10
235.0272043228085
 20
15.52302165028843
 10
234.5508505090641
 20
15.16575628998017
 10
234.868419718227
 20
14.64970632509042
 10
235.18598892739
 20
14.88788323196262
 10
235.5432542876982
 20
15.16575628998017
 10
235.5432542876982
 20
12.94277182583977
 10
236.0990004037334
 20
12.94277182583977
 10
236.0990004037334
 20
15.32454089456163
 10
236.4165696128963
 20
14.96727553425332
 10
236.7341388220592
 20
14.64970632509042
 10
237.0914041823675
 20
15.12606013883482
 10
236.2577850083148
 20
15.95967931288748
 10
236.7341388220592
 20
16.59481773121327
 10
237.1311003335128
 20
17.15056384724837
 10
236.7738349732045
 20
17.50782920755667
 10
236.6944426709138
 20
17.50782920755667
 10
236.0990004037334
 20
17.50782920755667
 10
236.0990004037334
 20
18.50023298619077
 10
235.5432542876982
 20
18.50023298619077
  0
LWPOLYLINE
  5
2CF
330
1F
100
AcDbEntity
  8
0
  6
Continuous
 62
     7
100
AcDbPolyline
 90
       17
 70
     0
 43
0.0
 10
238.1632002632923
 20
18.50023298619077
 10
238.1632002632923
 20
16.55512158006792
 10
236.9723157289314
 20
16.55512158006792
 10
236.9723157289314
 20
16.03907161517818
 10
238.1632002632923
 20
16.03907161517818
 10
238.1632002632923
 20
13.69699869760167
 10
236.5356580663323
 20
13.69699869760167
 10
236.5356580663323
 20
13.14125258156658
 10
240.2670962739966
 20
13.14125258156658
 10
240.2670962739966
 20
13.69699869760167
 10
238.7586425304728
 20
13.69699869760167
 10
238.7586425304728
 20
16.03907161517818
 10
240.0686155182698
 20
16.03907161517818
 10
240.0686155182698
 20
16.55512158006792
 10
238.7586425304728
 20
16.55512158006792
 10
238.7586425304728
 20
18.50023298619077
 10
238.1632002632923
 20
18.50023298619077
  0
LWPOLYLINE
  5
2D0
330
1F
100
AcDbEntity
  8
0
  6
Continuous
 62
     7
100
AcDbPolyline
 90
       21
 70
     0
 43
0.0
 10
161.9144827048225
 20
18.99415252157673
 10
162.2114099153898
 20
18.64482639149752
 10
162.4734045129492
 20
18.31296656792226
 10
162.9100621755482
 20
17.71911214678761
 10
163.2593883056274
 20
17.21258925817276
 10
163.5213829031868
 20
16.77593159557376
 10
163.6960459682265
 20
16.44407177199851
 10
163.8183101137542
 20
16.1820771744391
 10
163.88817533977
 20
15.98994780289555
 10
167.0146442039789
 20
15.98994780289555
 10
166.9098463649552
 20
16.37420654598266
 10
166.8050485259314
 20
16.74099898256583
 10
166.6827843804037
 20
17.07285880614109
 10
166.560520234876
 20
17.38725232321237
 10
166.4382560893482
 20
17.64924692077177
 10
166.3159919438205
 20
17.89377521182721
 10
166.088929959269
 20
18.31296656792226
 10
165.8793342812215
 20
18.60989377848959
 10
165.7046712161819
 20
18.81948945653712
 10
165.5649407641502
 20
18.99415252157673
 10
161.9144827048225
 20
18.99415252157673
  0
LWPOLYLINE
  5
2D1
330
1F
100
AcDbEntity
  8
0
  6
Continuous
 62
     7
100
AcDbPolyline
 90
       30
 70
     0
 43
0.0
 10
168.9359379194146
 20
19.01161882808069
 10
169.5191815593481
 20
19.02908513458464
 10
169.1093346772326
 20
18.40029810044207
 10
168.715251136737
 20
17.77151106629949
 10
168.3684576211009
 20
17.14272403215693
 10
168.0374274470846
 20
16.53140330451832
 10
167.7221606146881
 20
15.93754888338366
 10
167.4541838071511
 20
15.36116076875296
 10
167.1862069996141
 20
14.81970526713019
 10
166.9655202169365
 20
14.29571607201137
 10
166.5872000180607
 20
13.33506921429355
 10
166.2876965272841
 20
12.54908542161535
 10
166.0827730862264
 20
11.93776469397672
 10
165.9566663532678
 20
11.57097225739355
 10
165.9409030116479
 20
11.51857333788167
 10
165.9251396700281
 20
11.51857333788167
 10
165.9251396700281
 20
11.5535059508896
 10
166.0827730862264
 20
12.252158211048
 10
166.2561698440445
 20
12.95081047120643
 10
166.4610932851022
 20
13.64946273136485
 10
166.6975434093995
 20
14.31318237851534
 10
166.9339935336969
 20
14.95943571916188
 10
167.1862069996141
 20
15.5707564468005
 10
167.4384204655313
 20
16.14714456143118
 10
167.6906339314484
 20
16.70606636955792
 10
167.9428473973656
 20
17.19512295166881
 10
168.1635341800432
 20
17.64924692077177
 10
168.5576177205388
 20
18.38283179393812
 10
168.8255945280758
 20
18.85442206954503
 10
168.9359379194146
 20
19.01161882808069
  0
LWPOLYLINE
  5
2D2
330
1F
100
AcDbEntity
  8
0
  6
Continuous
 62
     7
100
AcDbPolyline
 90
       10
 70
     0
 43
0.0
 10
164.4645634544007
 20
10.33086449561238
 10
164.8837548104958
 20
11.01205044926683
 10
164.6916254389522
 20
11.01205044926683
 10
164.3946982283849
 20
10.47059494764406
 10
164.0803047113136
 20
11.01205044926683
 10
163.8707090332661
 20
11.01205044926683
 10
164.3073666958651
 20
10.3133981891084
 10
164.3073666958651
 20
9.859274220005446
 10
164.4645634544007
 20
9.859274220005446
 10
164.4645634544007
 20
10.33086449561238
  0
LWPOLYLINE
  5
2D3
330
1F
100
AcDbEntity
  8
0
  6
Continuous
 62
     7
100
AcDbPolyline
 90
        4
 70
     0
 43
0.0
 10
165.4077440056146
 20
10.33086449561238
 10
165.215614634071
 20
10.85485369073118
 10
165.0409515690314
 20
10.33086449561238
 10
165.4077440056146
 20
10.33086449561238
  0
LWPOLYLINE
  5
2D4
330
1F
100
AcDbEntity
  8
0
  6
Continuous
 62
     7
100
AcDbPolyline
 90
        9
 70
     0
 43
0.0
 10
164.9885526495195
 20
10.20860035008466
 10
164.8662885039918
 20
9.859274220005446
 10
164.7090917454562
 20
9.859274220005446
 10
165.1282831015512
 20
11.01205044926683
 10
165.3029461665908
 20
11.01205044926683
 10
165.7396038291898
 20
9.859274220005446
 10
165.5649407641502
 20
9.859274220005446
 10
165.4426766186225
 20
10.20860035008466
 10
164.9885526495195
 20
10.20860035008466
  0
LWPOLYLINE
  5
2D5
330
1F
100
AcDbEntity
  8
0
  6
Continuous
 62
     7
100
AcDbPolyline
 90
       22
 70
     0
 43
0.0
 10
166.0015984267492
 20
10.83738738422722
 10
166.0190647332532
 20
10.78498846471533
 10
166.0365310397571
 20
10.75005585170743
 10
166.3334582503245
 20
9.859274220005446
 10
166.4731887023561
 20
9.859274220005446
 10
166.7701159129235
 20
10.75005585170743
 10
166.7875822194274
 20
10.78498846471533
 10
166.8050485259314
 20
10.83738738422722
 10
166.8050485259314
 20
9.859274220005446
 10
166.962245284467
 20
9.859274220005446
 10
166.962245284467
 20
11.01205044926683
 10
166.7351832999155
 20
11.01205044926683
 10
166.4382560893482
 20
10.12126881756484
 10
166.4207897828443
 20
10.08633620455691
 10
166.4033234763403
 20
10.03393728504505
 10
166.4033234763403
 20
10.06886989805296
 10
166.3858571698364
 20
10.12126881756484
 10
166.088929959269
 20
11.01205044926683
 10
165.8618679747175
 20
11.01205044926683
 10
165.8618679747175
 20
9.859274220005446
 10
166.0015984267492
 20
9.859274220005446
 10
166.0015984267492
 20
10.83738738422722
  0
LWPOLYLINE
  5
2D6
330
1F
100
AcDbEntity
  8
0
  6
Continuous
 62
     7
100
AcDbPolyline
 90
        4
 70
     0
 43
0.0
 10
167.7656953836492
 20
10.33086449561238
 10
167.5910323186096
 20
10.85485369073118
 10
167.41636925357
 20
10.33086449561238
 10
167.7656953836492
 20
10.33086449561238
  0
LWPOLYLINE
  5
2D7
330
1F
100
AcDbEntity
  8
0
  6
Continuous
 62
     7
100
AcDbPolyline
 90
        9
 70
     0
 43
0.0
 10
167.3639703340581
 20
10.20860035008466
 10
167.2417061885304
 20
9.859274220005446
 10
167.0670431234908
 20
9.859274220005446
 10
167.5037007860898
 20
11.01205044926683
 10
167.6783638511294
 20
11.01205044926683
 10
168.1150215137284
 20
9.859274220005446
 10
167.9403584486888
 20
9.859274220005446
 10
167.8180943031611
 20
10.20860035008466
 10
167.3639703340581
 20
10.20860035008466
  0
LWPOLYLINE
  5
2D8
330
1F
100
AcDbEntity
  8
0
  6
Continuous
 62
     7
100
AcDbPolyline
 90
        9
 70
     0
 43
0.0
 10
168.4643476438076
 20
9.859274220005446
 10
168.4643476438076
 20
10.87231999723515
 10
168.8311400803908
 20
10.87231999723515
 10
168.8311400803908
 20
11.01205044926683
 10
167.9403584486888
 20
11.01205044926683
 10
167.9403584486888
 20
10.87231999723515
 10
168.307150885272
 20
10.87231999723515
 10
168.307150885272
 20
9.859274220005446
 10
168.4643476438076
 20
9.859274220005446
  0
LWPOLYLINE
  5
2D9
330
1F
100
AcDbEntity
  8
0
  6
Continuous
 62
     7
100
AcDbPolyline
 90
       33
 70
     0
 43
0.0
 10
169.1280672909581
 20
10.78498846471533
 10
169.0756683714463
 20
10.7151232386995
 10
169.0407357584383
 20
10.62779170617969
 10
169.0232694519344
 20
10.54046017365989
 10
169.0232694519344
 20
10.43566233463612
 10
169.0232694519344
 20
10.33086449561238
 10
169.0407357584383
 20
10.24353296309257
 10
169.0756683714463
 20
10.15620143057277
 10
169.1280672909581
 20
10.08633620455691
 10
169.18046621047
 20
10.03393728504505
 10
169.2503314364859
 20
9.99900467203712
 10
169.3201966625017
 20
9.96407205902919
 10
169.4075281950215
 20
9.96407205902919
 10
169.4948597275413
 20
9.96407205902919
 10
169.5647249535571
 20
9.99900467203712
 10
169.634590179573
 20
10.03393728504505
 10
169.6869890990849
 20
10.08633620455691
 10
169.7393880185967
 20
10.15620143057277
 10
169.7568543251007
 20
10.24353296309257
 10
169.7917869381086
 20
10.33086449561238
 10
169.7917869381086
 20
10.43566233463612
 10
169.7917869381086
 20
10.54046017365989
 10
169.7568543251007
 20
10.62779170617969
 10
169.7393880185967
 20
10.7151232386995
 10
169.6869890990849
 20
10.78498846471533
 10
169.634590179573
 20
10.83738738422722
 10
169.5647249535571
 20
10.87231999723515
 10
169.4948597275413
 20
10.90725261024306
 10
169.4075281950215
 20
10.90725261024306
 10
169.3201966625017
 20
10.90725261024306
 10
169.2503314364859
 20
10.87231999723515
 10
169.18046621047
 20
10.83738738422722
 10
169.1280672909581
 20
10.78498846471533
  0
LWPOLYLINE
  5
2DA
330
1F
100
AcDbEntity
  8
0
  6
Continuous
 62
     7
100
AcDbPolyline
 90
       33
 70
     0
 43
0.0
 10
169.0058031454304
 20
9.981538365533165
 10
168.9359379194146
 20
10.06886989805296
 10
168.8835389999027
 20
10.17366773707673
 10
168.8660726933987
 20
10.29593188260445
 10
168.8486063868948
 20
10.43566233463612
 10
168.8660726933987
 20
10.57539278666782
 10
168.8835389999027
 20
10.69765693219554
 10
168.9359379194146
 20
10.80245477121931
 10
169.0058031454304
 20
10.88978630373911
 10
169.0756683714463
 20
10.95965152975494
 10
169.18046621047
 20
11.01205044926683
 10
169.2852640494938
 20
11.02951675577078
 10
169.4075281950215
 20
11.04698306227474
 10
169.5297923405492
 20
11.02951675577078
 10
169.634590179573
 20
11.01205044926683
 10
169.7219217120928
 20
10.95965152975494
 10
169.8092532446126
 20
10.88978630373911
 10
169.8791184706284
 20
10.80245477121931
 10
169.9140510836363
 20
10.69765693219554
 10
169.9489836966443
 20
10.57539278666782
 10
169.9489836966443
 20
10.43566233463612
 10
169.9489836966443
 20
10.29593188260445
 10
169.9140510836363
 20
10.17366773707673
 10
169.8791184706284
 20
10.06886989805296
 10
169.8092532446126
 20
9.981538365533165
 10
169.7219217120928
 20
9.911673139517328
 10
169.634590179573
 20
9.859274220005446
 10
169.5297923405492
 20
9.824341606997516
 10
169.4075281950215
 20
9.824341606997516
 10
169.2852640494938
 20
9.824341606997516
 10
169.18046621047
 20
9.859274220005446
 10
169.0756683714463
 20
9.911673139517328
 10
169.0058031454304
 20
9.981538365533165
  0
LWPOLYLINE
  5
2DB
330
1F
100
AcDbEntity
  8
0
  6
Continuous
 62
     7
100
AcDbPolyline
 90
        3
 70
     0
 43
0.0
 10
193.4653340736119
 20
17.8900435781095
 10
193.4653340736119
 20
18.26205607931857
 10
196.2440646537874
 20
18.26205607931857
  0
LWPOLYLINE
  5
2DC
330
1F
100
AcDbEntity
  8
0
  6
Continuous
 62
     7
100
AcDbPolyline
 90
       28
 70
     0
 43
0.0
 10
196.2440646537874
 20
18.26205607931857
 10
196.3234569560781
 20
18.30175223046398
 10
196.5616338629503
 20
17.94448687015568
 10
195.5295339331708
 20
17.26965230068447
 10
195.7280146888976
 20
17.11086769610302
 10
195.5692300843162
 20
16.95208309152158
 10
196.7601146186771
 20
16.95208309152158
 10
196.7601146186771
 20
14.21304866249142
 10
196.6807223163864
 20
14.05426405790998
 10
196.5616338629503
 20
13.97487175561922
 10
196.2837608049328
 20
13.89547945332852
 10
195.8471031423337
 20
13.81608715103778
 10
195.8471031423337
 20
14.09396020905533
 10
195.7280146888976
 20
14.33213711592753
 10
196.204368502642
 20
14.33213711592753
 10
196.2440646537874
 20
14.41152941821823
 10
196.2440646537874
 20
14.84818708081727
 10
195.331053177444
 20
14.84818708081727
 10
195.331053177444
 20
13.93517560447387
 10
194.8546993636996
 20
13.93517560447387
 10
194.8546993636996
 20
14.84818708081727
 10
194.1401686430831
 20
14.84818708081727
 10
194.1401686430831
 20
13.89547945332852
 10
193.584422527048
 20
13.89547945332852
 10
193.584422527048
 20
16.95208309152158
 10
195.0531801194264
 20
16.95208309152158
 10
194.2989532476645
 20
17.46813305641132
 10
194.5394441067292
 20
17.77733558949444
  0
LWPOLYLINE
  5
2DD
330
1F
100
AcDbEntity
  8
0
  6
Continuous
 62
     7
100
AcDbPolyline
 90
        2
 70
     0
 43
0.0
 10
195.1212685728625
 20
17.46702920755667
 10
195.640052162565
 20
17.88205607931857
  0
LWPOLYLINE
  5
2DE
330
1F
100
AcDbEntity
  8
0
  6
Continuous
 62
     7
100
AcDbPolyline
 90
       30
 70
     0
 43
0.0
 10
169.8616521641245
 20
19.01161882808069
 10
170.444895804058
 20
19.02908513458464
 10
170.0350489219425
 20
18.40029810044207
 10
169.6409653814469
 20
17.77151106629949
 10
169.2941718658108
 20
17.14272403215693
 10
168.9631416917945
 20
16.53140330451832
 10
168.647874859398
 20
15.93754888338366
 10
168.379898051861
 20
15.36116076875296
 10
168.111921244324
 20
14.81970526713019
 10
167.8912344616464
 20
14.29571607201137
 10
167.5129142627707
 20
13.33506921429355
 10
167.213410771994
 20
12.54908542161535
 10
167.0084873309363
 20
11.93776469397672
 10
166.8823805979777
 20
11.57097225739356
 10
166.8666172563579
 20
11.51857333788167
 10
166.8508539147381
 20
11.51857333788167
 10
166.8508539147381
 20
11.5535059508896
 10
167.0084873309363
 20
12.252158211048
 10
167.1818840887543
 20
12.95081047120643
 10
167.3868075298121
 20
13.64946273136485
 10
167.6232576541094
 20
14.31318237851534
 10
167.8597077784068
 20
14.95943571916189
 10
168.111921244324
 20
15.5707564468005
 10
168.3641347102412
 20
16.14714456143118
 10
168.6163481761584
 20
16.70606636955793
 10
168.8685616420755
 20
17.19512295166881
 10
169.0892484247531
 20
17.64924692077177
 10
169.4833319652487
 20
18.38283179393812
 10
169.7513087727857
 20
18.85442206954503
 10
169.8616521641245
 20
19.01161882808069
  0
LWPOLYLINE
  5
2DF
330
1F
100
AcDbEntity
  8
0
  6
Continuous
 62
     7
100
AcDbPolyline
 90
       30
 70
     0
 43
0.0
 10
170.7873664088344
 20
19.01161882808069
 10
171.3706100487679
 20
19.02908513458464
 10
170.9607631666524
 20
18.40029810044207
 10
170.5666796261569
 20
17.7715110662995
 10
170.2198861105207
 20
17.14272403215693
 10
169.8888559365044
 20
16.53140330451832
 10
169.5735891041079
 20
15.93754888338366
 10
169.3056122965709
 20
15.36116076875296
 10
169.0376354890339
 20
14.81970526713019
 10
168.8169487063564
 20
14.29571607201137
 10
168.4386285074806
 20
13.33506921429355
 10
168.1391250167039
 20
12.54908542161535
 10
167.9342015756462
 20
11.93776469397672
 10
167.8080948426876
 20
11.57097225739356
 10
167.7923315010678
 20
11.51857333788167
 10
167.7765681594479
 20
11.51857333788167
 10
167.7765681594479
 20
11.5535059508896
 10
167.9342015756462
 20
12.252158211048
 10
168.1075983334643
 20
12.95081047120643
 10
168.312521774522
 20
13.64946273136485
 10
168.5489718988193
 20
14.31318237851534
 10
168.7854220231167
 20
14.95943571916189
 10
169.0376354890339
 20
15.5707564468005
 10
169.2898489549511
 20
16.14714456143118
 10
169.5420624208683
 20
16.70606636955793
 10
169.7942758867854
 20
17.19512295166881
 10
170.014962669463
 20
17.64924692077177
 10
170.4090462099586
 20
18.38283179393812
 10
170.6770230174956
 20
18.85442206954503
 10
170.7873664088344
 20
19.01161882808069
  0
LWPOLYLINE
  5
2E0
330
1F
100
AcDbEntity
  8
0
  6
Continuous
 62
     7
100
AcDbPolyline
 90
       30
 70
     0
 43
0.0
 10
171.7130806535443
 20
19.01161882808069
 10
172.2963242934778
 20
19.02908513458464
 10
171.8864774113624
 20
18.40029810044208
 10
171.4923938708667
 20
17.7715110662995
 10
171.1456003552306
 20
17.14272403215693
 10
170.8145701812143
 20
16.53140330451832
 10
170.4993033488178
 20
15.93754888338366
 10
170.2313265412808
 20
15.36116076875296
 10
169.9633497337438
 20
14.81970526713019
 10
169.7426629510663
 20
14.29571607201137
 10
169.3643427521905
 20
13.33506921429355
 10
169.0648392614138
 20
12.54908542161535
 10
168.8599158203561
 20
11.93776469397672
 10
168.7338090873975
 20
11.57097225739356
 10
168.7180457457777
 20
11.51857333788167
 10
168.7022824041579
 20
11.51857333788167
 10
168.7022824041579
 20
11.5535059508896
 10
168.8599158203561
 20
12.252158211048
 10
169.0333125781742
 20
12.95081047120643
 10
169.2382360192319
 20
13.64946273136485
 10
169.4746861435293
 20
14.31318237851534
 10
169.7111362678266
 20
14.95943571916189
 10
169.9633497337438
 20
15.5707564468005
 10
170.215563199661
 20
16.14714456143118
 10
170.4677766655782
 20
16.70606636955793
 10
170.7199901314954
 20
17.19512295166881
 10
170.9406769141729
 20
17.64924692077177
 10
171.3347604546685
 20
18.38283179393812
 10
171.6027372622055
 20
18.85442206954503
 10
171.7130806535443
 20
19.01161882808069
  0
MTEXT
  5
2E1
330
1F
100
AcDbEntity
  8
0
 62
     7
100
AcDbMText
 10
6.467717621803075
 20
11.46540368558067
 30
0.0
 40
2.700000047683716
 41
0.0
 71
     7
 72
     1
  1
{\W0.833333;色}
 73
     1
 44
1.0
  0
MTEXT
  5
2E2
330
1F
100
AcDbEntity
  8
0
 62
     7
100
AcDbMText
 10
6.942717615842611
 20
15.99281633639941
 30
0.0
 40
2.700000047683716
 41
0.0
 71
     7
 72
     1
  1
{\W0.833333;仕上}
 73
     1
 44
1.0
  0
MTEXT
  5
2E3
330
1F
100
AcDbEntity
  8
0
 62
     7
100
AcDbMText
 10
1.526773674472395
 20
255.1002468897384
 30
0.0
 40
2.700000047683716
 41
0.0
 71
     7
 72
     1
  1
{\W1;A}
 73
     1
 44
1.0
  0
MTEXT
  5
2E4
330
1F
100
AcDbEntity
  8
0
 62
     7
100
AcDbMText
 10
6.795897345449191
 20
21.29715693248906
 30
0.0
 40
2.700000047683716
 41
0.0
 71
     7
 72
     1
  1
{\W0.833333;材質}
 73
     1
 44
1.0
  0
MTEXT
  5
2E5
330
1F
100
AcDbEntity
  8
0
 62
     7
100
AcDbMText
 10
245.3101851940155
 20
22.0
 30
0.0
 40
2.5
 41
0.0
 71
     7
 72
     1
  1
{\W0.833333;件名}
 73
     1
 44
1.0
  0
MTEXT
  5
2E6
330
1F
100
AcDbEntity
  8
0
 62
     7
100
AcDbMText
 10
245.3101851940155
 20
12.0
 30
0.0
 40
2.5
 41
0.0
 71
     7
 72
     1
  1
{\W0.833333;名称}
 73
     1
 44
1.0
  0
MTEXT
  5
2E7
330
1F
100
AcDbEntity
  8
0
 62
     7
100
AcDbMText
 10
29.0192592711802
 20
280.1758106757466
 30
0.0
 40
2.700000047683716
 41
0.0
 71
     7
 72
     1
  1
{\W1;1}
 73
     1
 44
1.0
  0
MTEXT
  5
2E8
330
1F
100
AcDbEntity
  8
0
 62
     7
100
AcDbMText
 10
78.1442592711802
 20
280.1758106757466
 30
0.0
 40
2.700000047683716
 41
0.0
 71
     7
 72
     1
  1
{\W1;2}
 73
     1
 44
1.0
  0
MTEXT
  5
2E9
330
1F
100
AcDbEntity
  8
0
 62
     7
100
AcDbMText
 10
127.2692592711802
 20
280.1758106757466
 30
0.0
 40
2.700000047683716
 41
0.0
 71
     7
 72
     1
  1
{\W1;3}
 73
     1
 44
1.0
  0
MTEXT
  5
2EA
330
1F
100
AcDbEntity
  8
0
 62
     7
100
AcDbMText
 10
176.3942592711802
 20
280.1758106757466
 30
0.0
 40
2.700000047683716
 41
0.0
 71
     7
 72
     1
  1
{\W1;4}
 73
     1
 44
1.0
  0
MTEXT
  5
2EB
330
1F
100
AcDbEntity
  8
0
 62
     7
100
AcDbMText
 10
225.5192592711802
 20
280.1758106757466
 30
0.0
 40
2.700000047683716
 41
0.0
 71
     7
 72
     1
  1
{\W1;5}
 73
     1
 44
1.0
  0
MTEXT
  5
2EC
330
1F
100
AcDbEntity
  8
0
 62
     7
100
AcDbMText
 10
274.6442592711802
 20
280.1758106757466
 30
0.0
 40
2.700000047683716
 41
0.0
 71
     7
 72
     1
  1
{\W1;6}
 73
     1
 44
1.0
  0
MTEXT
  5
2ED
330
1F
100
AcDbEntity
  8
0
 62
     7
100
AcDbMText
 10
337.6342593431473
 20
7.25
 30
0.0
 40
3.5
 41
0.0
 71
     7
 72
     1
  1
{\W0.833333;Y００１１０９０1-1}
 73
     1
 44
1.0
  0
MTEXT
  5
2EE
330
1F
100
AcDbEntity
  8
0
 62
     7
100
AcDbMText
 10
323.7692592711802
 20
280.1758106757466
 30
0.0
 40
2.700000047683716
 41
0.0
 71
     7
 72
     1
  1
{\W1;7}
 73
     1
 44
1.0
  0
MTEXT
  5
2EF
330
1F
100
AcDbEntity
  8
0
 62
     7
100
AcDbMText
 10
372.8942592711802
 20
280.1758106757466
 30
0.0
 40
2.700000047683716
 41
0.0
 71
     7
 72
     1
  1
{\W1;8}
 73
     1
 44
1.0
  0
MTEXT
  5
2F0
330
1F
100
AcDbEntity
  8
0
 62
     7
100
AcDbMText
 10
1.526773674472395
 20
209.4335802230717
 30
0.0
 40
2.700000047683716
 41
0.0
 71
     7
 72
     1
  1
{\W1;B}
 73
     1
 44
1.0
  0
MTEXT
  5
2F1
330
1F
100
AcDbEntity
  8
0
 62
     7
100
AcDbMText
 10
1.526773674472395
 20
163.7669135564051
 30
0.0
 40
2.700000047683716
 41
0.0
 71
     7
 72
     1
  1
{\W1;C}
 73
     1
 44
1.0
  0
MTEXT
  5
2F2
330
1F
100
AcDbEntity
  8
0
 62
     7
100
AcDbMText
 10
1.526773674472395
 20
118.1002468897384
 30
0.0
 40
2.700000047683716
 41
0.0
 71
     7
 72
     1
  1
{\W1;D}
 73
     1
 44
1.0
  0
MTEXT
  5
2F3
330
1F
100
AcDbEntity
  8
0
 62
     7
100
AcDbMText
 10
1.526773674472395
 20
72.43358022307171
 30
0.0
 40
2.700000047683716
 41
0.0
 71
     7
 72
     1
  1
{\W1;E}
 73
     1
 44
1.0
  0
MTEXT
  5
2F4
330
1F
100
AcDbEntity
  8
0
 62
     7
100
AcDbMText
 10
1.526773674472395
 20
26.76691355640506
 30
0.0
 40
2.700000047683716
 41
0.0
 71
     7
 72
     1
  1
{\W1;F}
 73
     1
 44
1.0
  0
MTEXT
  5
2F5
330
1F
100
AcDbEntity
  8
0
 62
     7
100
AcDbMText
 10
366.6108992326722
 20
17.29291908537675
 30
0.0
 40
3.200000047683716
 41
0.0
 71
     7
 72
     1
  1
{\W1;A3}
 73
     1
 44
1.0
  0
MTEXT
  5
2F6
330
1F
100
AcDbEntity
  8
0
 62
     7
100
AcDbMText
 10
141.9976851940155
 20
22.0
 30
0.0
 40
2.5
 41
0.0
 71
     7
 72
     1
  1
{\W0.833333;出図}
 73
     1
 44
1.0
  0
MTEXT
  5
2F7
330
1F
100
AcDbEntity
  8
0
 62
     7
100
AcDbMText
 10
6.942717615842611
 20
6.150614921576079
 30
0.0
 40
2.700000047683716
 41
0.0
 71
     7
 72
     1
  1
{\W0.833333;数量}
 73
     1
 44
1.0
  0
MTEXT
  5
2F8
330
1F
100
AcDbEntity
  8
0
 62
     7
100
AcDbMText
 10
14.70823287401544
 20
20.79976838552138
 30
0.0
 40
3.0
 41
0.0
 71
     7
 72
     1
  1
{\W0.833333;図面中に記載}
 73
     1
 44
1.0
  0
MTEXT
  5
2F9
330
1F
100
AcDbEntity
  8
0
 62
     7
100
AcDbMText
 10
14.82645524458371
 20
6.19745897371439
 30
0.0
 40
3.0
 41
0.0
 71
     7
 72
     1
  1
{\W0.833333;１}
 73
     1
 44
1.0
  0
MTEXT
  5
2FA
330
1F
100
AcDbEntity
  8
0
 62
     7
100
AcDbMText
 10
63.92414716195006
 20
5.953770893279625
 30
0.0
 40
2.700000047683716
 41
0.0
 71
     7
 72
     1
  1
{\W0.833333;単位}
 73
     1
 44
1.0
  0
MTEXT
  5
2FB
330
1F
100
AcDbEntity
  8
0
 62
     7
100
AcDbMText
 10
72.39841687558058
 20
6.000614945417936
 30
0.0
 40
3.0
 41
0.0
 71
     7
 72
     1
  1
{\W0.833333;式}
 73
     1
 44
1.0
  0
MTEXT
  5
2FC
330
1F
100
AcDbEntity
  8
0
 62
     7
100
AcDbMText
 10
64.43336730939288
 20
11.07171562898773
 30
0.0
 40
2.700000047683716
 41
0.0
 71
     7
 72
     1
  1
{\W0.833333;艶}
 73
     1
 44
1.0
  0
MTEXT
  5
2FD
330
1F
100
AcDbEntity
  8
0
 62
     7
100
AcDbMText
 10
15.15738900731048
 20
15.84281636024127
 30
0.0
 40
3.0
 41
0.0
 71
     7
 72
     1
  1
{\W0.833333;メラミン焼付塗装}
 73
     1
 44
1.0
  0
MTEXT
  5
2FE
330
1F
100
AcDbEntity
  8
0
 62
     7
100
AcDbMText
 10
14.96054497901403
 20
10.92171565282959
 30
0.0
 40
3.0
 41
0.0
 71
     7
 72
     1
  1
{\W0.833333;７．５BG７／１．５}
 73
     1
 44
1.0
  0
MTEXT
  5
2FF
330
1F
100
AcDbEntity
  8
0
 62
     7
100
AcDbMText
 10
71.73747809976656
 20
11.01318031177824
 30
0.0
 40
3.0
 41
0.0
 71
     7
 72
     1
  1
{\W0.833333;５分}
 73
     1
 44
1.0
  0
MTEXT
  5
300
330
1F
100
AcDbEntity
  8
0
 62
     7
100
AcDbMText
 10
252.3842593431473
 20
8.25
 30
0.0
 40
3.5
 41
0.0
 71
     7
 72
     1
  1
{\W0.833333;P-2 MDF（1VB）外観図}
 73
     1
 44
1.0
  0
MTEXT
  5
301
330
1F
100
AcDbEntity
  8
0
 62
     7
100
AcDbMText
 10
336.8289879659858
 20
26.26761555650913
 30
0.0
 40
2.5
 41
0.0
 71
     7
 72
     1
  1
{\W0.833333;作成日 ２００3年 01月 15日}
 73
     1
 44
1.0
  0
MTEXT
  5
302
330
1F
100
AcDbEntity
  8
0
 62
     7
100
AcDbMText
 10
0.472222208976746
 20
1.0
 30
0.0
 40
3.0
 41
0.0
 71
     7
 72
     1
  1
{\W0.833333;００ａ}
 73
     1
 44
1.0
  0
MTEXT
  5
303
330
1F
100
AcDbEntity
  8
0
 62
     7
100
AcDbMText
 10
336.0601851940155
 20
12.0
 30
0.0
 40
2.5
 41
0.0
 71
     7
 72
     1
  1
{\W0.833333;図面番号}
 73
     1
 44
1.0
  0
MTEXT
  5
304
330
1F
100
AcDbEntity
  8
0
 62
     7
100
AcDbMText
 10
359.5001181048956
 20
21.76208290103611
 30
0.0
 40
2.5
 41
0.0
 71
     7
 72
     1
  1
{\W0.833333;サイズ}
 73
     1
 44
1.0
  0
MTEXT
  5
305
330
1F
100
AcDbEntity
  8
0
 62
     7
100
AcDbMText
 10
383.8289879659858
 20
26.26761555650913
 30
0.0
 40
2.5
 41
0.0
 71
     7
 72
     1
  1
{\W0.833333;単位 ｍｍ}
 73
     1
 44
1.0
  0
MTEXT
  5
306
330
1F
100
AcDbEntity
  8
0
 62
     7
100
AcDbMText
 10
122.6851851940155
 20
22.0
 30
0.0
 40
2.5
 41
0.0
 71
     7
 72
     1
  1
{\W0.833333;検図}
 73
     1
 44
1.0
  0
MTEXT
  5
307
330
1F
100
AcDbEntity
  8
0
 62
     7
100
AcDbMText
 10
388.3000000119209
 20
7.649999976158142
 30
0.0
 40
2.700000047683716
 41
0.0
 71
     7
 72
     1
  1
{\W0.833333;/}
 73
     1
 44
1.0
  0
MTEXT
  5
308
330
1F
100
AcDbEntity
  8
0
 62
     7
100
AcDbMText
 10
385.6000000238419
 20
11.89999997615814
 30
0.0
 40
2.700000047683716
 41
0.0
 71
     7
 72
     1
  1
{\W0.833333;シート}
 73
     1
 44
1.0
  0
MTEXT
  5
309
330
1F
100
AcDbEntity
  8
0
 62
     7
100
AcDbMText
 10
384.2500000298023
 20
17.64999997615814
 30
0.0
 40
2.700000047683716
 41
0.0
 71
     7
 72
     1
  1
{\W1;1/12}
 73
     1
 44
1.0
  0
MTEXT
  5
30A
330
1F
100
AcDbEntity
  8
0
 62
     7
100
AcDbMText
 10
384.2500000298023
 20
21.89999997615814
 30
0.0
 40
2.700000047683716
 41
0.0
 71
     7
 72
     1
  1
{\W0.833333;スケール}
 73
     1
 44
1.0
  0
MTEXT
  5
30B
330
1F
100
AcDbEntity
  8
0
 62
     7
100
AcDbMText
 10
91.37775915182404
 20
34.7314840595203
 30
0.0
 40
4.0
 41
0.0
 71
     7
 72
     1
  1
{\W0.833333;\Q15;左側面図}
 73
     1
 44
1.0
  0
MTEXT
  5
30C
330
1F
100
AcDbEntity
  8
0
 62
     7
100
AcDbMText
 10
264.9257263862262
 20
67.54696193147352
 30
0.0
 40
2.700000047683716
 41
0.0
 71
     7
 72
     1
  1
{\W0.833333;\Q15;接続金物１１}
 73
     1
 44
1.0
  0
MTEXT
  5
30D
330
1F
100
AcDbEntity
  8
0
 62
     7
100
AcDbMText
 10
255.8448756869813
 20
147.9503274977041
 30
0.0
 40
2.700000047683716
 41
0.0
 71
     7
 72
     1
  1
{\W0.833333;\Q15;接続金物１０}
 73
     1
 44
1.0
  0
MTEXT
  5
30E
330
1F
100
AcDbEntity
  8
0
 62
     7
100
AcDbMText
 10
232.6014356362945
 20
34.63342885722575
 30
0.0
 40
4.0
 41
0.0
 71
     7
 72
     1
  1
{\W0.833333;\Q15;正面図}
 73
     1
 44
1.0
  0
MTEXT
  5
30F
330
1F
100
AcDbEntity
  8
0
 62
     7
100
AcDbMText
 10
319.4123923660803
 20
270.0695112649204
 30
0.0
 40
2.700000047683716
 41
0.0
 71
     7
 72
     1
  1
{\W0.833333;番号}
 73
     1
 44
1.0
  0
MTEXT
  5
310
330
1F
100
AcDbEntity
  8
0
 62
     7
100
AcDbMText
 10
336.5249919655701
 20
270.0786224530166
 30
0.0
 40
2.700000047683716
 41
0.0
 71
     7
 72
     1
  1
{\W0.833333;品 名}
 73
     1
 44
1.0
  0
MTEXT
  5
311
330
1F
100
AcDbEntity
  8
0
 62
     7
100
AcDbMText
 10
321.7494160428684
 20
265.1854699971446
 30
0.0
 40
2.700000047683716
 41
0.0
 71
     7
 72
     1
  1
{\W0.833333;１}
 73
     1
 44
1.0
  0
MTEXT
  5
312
330
1F
100
AcDbEntity
  8
0
 62
     7
100
AcDbMText
 10
327.930474901632
 20
265.037468746606
 30
0.0
 40
2.700000047683716
 41
0.0
 71
     7
 72
     1
  1
{\W0.833333;下部平鋼}
 73
     1
 44
1.0
  0
MTEXT
  5
313
330
1F
100
AcDbEntity
  8
0
 62
     7
100
AcDbMText
 10
370.5452582965065
 20
270.1661787483804
 30
0.0
 40
2.700000047683716
 41
0.0
 71
     7
 72
     1
  1
{\W0.833333;材 質}
 73
     1
 44
1.0
  0
MTEXT
  5
314
330
1F
100
AcDbEntity
  8
0
 62
     7
100
AcDbMText
 10
357.430474901632
 20
265.037468746606
 30
0.0
 40
2.700000047683716
 41
0.0
 71
     7
 72
     1
  1
{\W0.833333;ＦＢ－３８×６}
 73
     1
 44
1.0
  0
MTEXT
  5
315
330
1F
100
AcDbEntity
  8
0
 62
     7
100
AcDbMText
 10
387.4891854385469
 20
260.3433390961654
 30
0.0
 40
2.700000047683716
 41
0.0
 71
     7
 72
     1
  1
{\W0.833333;鋼板}
 73
     1
 44
1.0
  0
MTEXT
  5
316
330
1F
100
AcDbEntity
  8
0
 62
     7
100
AcDbMText
 10
321.7494160428684
 20
260.1854699971446
 30
0.0
 40
2.700000047683716
 41
0.0
 71
     7
 72
     1
  1
{\W0.833333;２}
 73
     1
 44
1.0
  0
MTEXT
  5
317
330
1F
100
AcDbEntity
  8
0
 62
     7
100
AcDbMText
 10
327.930474901632
 20
260.037468746606
 30
0.0
 40
2.700000047683716
 41
0.0
 71
     7
 72
     1
  1
{\W0.833333;下部山形鋼}
 73
     1
 44
1.0
  0
MTEXT
  5
318
330
1F
100
AcDbEntity
  8
0
 62
     7
100
AcDbMText
 10
357.430474901632
 20
260.037468746606
 30
0.0
 40
2.700000047683716
 41
0.0
 71
     7
 72
     1
  1
{\W0.833333;Ｌ－５０×５０×３．２}
 73
     1
 44
1.0
  0
MTEXT
  5
319
330
1F
100
AcDbEntity
  8
0
 62
     7
100
AcDbMText
 10
321.7494160428684
 20
255.1854699971446
 30
0.0
 40
2.700000047683716
 41
0.0
 71
     7
 72
     1
  1
{\W0.833333;3}
 73
     1
 44
1.0
  0
MTEXT
  5
31A
330
1F
100
AcDbEntity
  8
0
 62
     7
100
AcDbMText
 10
327.930474901632
 20
255.037468746606
 30
0.0
 40
2.700000047683716
 41
0.0
 71
     7
 72
     1
  1
{\W0.833333;本 体}
 73
     1
 44
1.0
  0
MTEXT
  5
31B
330
1F
100
AcDbEntity
  8
0
 62
     7
100
AcDbMText
 10
357.5536230747257
 20
256.8458021037812
 30
0.0
 40
2.0
 41
0.0
 71
     7
 72
     1
  1
{\W0.833333;Ｃ－６０×３０×１０×１．６}
 73
     1
 44
1.0
  0
MTEXT
  5
31C
330
1F
100
AcDbEntity
  8
0
 62
     7
100
AcDbMText
 10
387.4891854385469
 20
250.3433390961654
 30
0.0
 40
2.700000047683716
 41
0.0
 71
     7
 72
     1
  1
{\W0.833333;鋼板}
 73
     1
 44
1.0
  0
MTEXT
  5
31D
330
1F
100
AcDbEntity
  8
0
 62
     7
100
AcDbMText
 10
321.7494160428684
 20
250.1854699971447
 30
0.0
 40
2.700000047683716
 41
0.0
 71
     7
 72
     1
  1
{\W0.833333;4}
 73
     1
 44
1.0
  0
MTEXT
  5
31E
330
1F
100
AcDbEntity
  8
0
 62
     7
100
AcDbMText
 10
327.930474901632
 20
250.037468746606
 30
0.0
 40
2.700000047683716
 41
0.0
 71
     7
 72
     1
  1
{\W0.833333;上部山形鋼}
 73
     1
 44
1.0
  0
MTEXT
  5
31F
330
1F
100
AcDbEntity
  8
0
 62
     7
100
AcDbMText
 10
357.430474901632
 20
250.037468746606
 30
0.0
 40
2.700000047683716
 41
0.0
 71
     7
 72
     1
  1
{\W0.833333;Ｌ－５０×５０×３．２}
 73
     1
 44
1.0
  0
MTEXT
  5
320
330
1F
100
AcDbEntity
  8
0
 62
     7
100
AcDbMText
 10
321.7494160428684
 20
245.1854699971447
 30
0.0
 40
2.700000047683716
 41
0.0
 71
     7
 72
     1
  1
{\W0.833333;5}
 73
     1
 44
1.0
  0
MTEXT
  5
321
330
1F
100
AcDbEntity
  8
0
 62
     7
100
AcDbMText
 10
327.930474901632
 20
245.037468746606
 30
0.0
 40
2.700000047683716
 41
0.0
 71
     7
 72
     1
  1
{\W0.833333;振止め平鋼}
 73
     1
 44
1.0
  0
MTEXT
  5
322
330
1F
100
AcDbEntity
  8
0
 62
     7
100
AcDbMText
 10
357.430474901632
 20
245.037468746606
 30
0.0
 40
2.700000047683716
 41
0.0
 71
     7
 72
     1
  1
{\W0.833333;ＦＢ－２５×６}
 73
     1
 44
1.0
  0
MTEXT
  5
323
330
1F
100
AcDbEntity
  8
0
 62
     7
100
AcDbMText
 10
321.7494160428684
 20
240.1854699971447
 30
0.0
 40
2.700000047683716
 41
0.0
 71
     7
 72
     1
  1
{\W0.833333;6}
 73
     1
 44
1.0
  0
MTEXT
  5
324
330
1F
100
AcDbEntity
  8
0
 62
     7
100
AcDbMText
 10
327.930474901632
 20
240.037468746606
 30
0.0
 40
2.700000047683716
 41
0.0
 71
     7
 72
     1
  1
{\W0.833333;アース用平銅}
 73
     1
 44
1.0
  0
MTEXT
  5
325
330
1F
100
AcDbEntity
  8
0
 62
     7
100
AcDbMText
 10
321.7494160428684
 20
235.1854699971447
 30
0.0
 40
2.700000047683716
 41
0.0
 71
     7
 72
     1
  1
{\W0.833333;7}
 73
     1
 44
1.0
  0
MTEXT
  5
326
330
1F
100
AcDbEntity
  8
0
 62
     7
100
AcDbMText
 10
327.930474901632
 20
235.037468746606
 30
0.0
 40
2.700000047683716
 41
0.0
 71
     7
 72
     1
  1
{\W0.833333;アース用平銅接続金物}
 73
     1
 44
1.0
  0
MTEXT
  5
327
330
1F
100
AcDbEntity
  8
0
 62
     7
100
AcDbMText
 10
321.7494160428684
 20
230.1854699971447
 30
0.0
 40
2.700000047683716
 41
0.0
 71
     7
 72
     1
  1
{\W0.833333;8}
 73
     1
 44
1.0
  0
MTEXT
  5
328
330
1F
100
AcDbEntity
  8
0
 62
     7
100
AcDbMText
 10
327.930474901632
 20
230.037468746606
 30
0.0
 40
2.700000047683716
 41
0.0
 71
     7
 72
     1
  1
{\W0.833333;上部平鋼}
 73
     1
 44
1.0
  0
MTEXT
  5
329
330
1F
100
AcDbEntity
  8
0
 62
     7
100
AcDbMText
 10
387.4891854385469
 20
225.3433390961654
 30
0.0
 40
2.700000047683716
 41
0.0
 71
     7
 72
     1
  1
{\W0.833333;木製}
 73
     1
 44
1.0
  0
MTEXT
  5
32A
330
1F
100
AcDbEntity
  8
0
 62
     7
100
AcDbMText
 10
321.7494160428684
 20
225.1854699971447
 30
0.0
 40
2.700000047683716
 41
0.0
 71
     7
 72
     1
  1
{\W0.833333;9}
 73
     1
 44
1.0
  0
MTEXT
  5
32B
330
1F
100
AcDbEntity
  8
0
 62
     7
100
AcDbMText
 10
327.930474901632
 20
225.037468746606
 30
0.0
 40
2.700000047683716
 41
0.0
 71
     7
 72
     1
  1
{\W0.833333;整線盤}
 73
     1
 44
1.0
  0
MTEXT
  5
32C
330
1F
100
AcDbEntity
  8
0
 62
     7
100
AcDbMText
 10
357.430474901632
 20
240.037468746606
 30
0.0
 40
2.700000047683716
 41
0.0
 71
     7
 72
     1
  1
{\W0.833333;ＦＢ－２５×６}
 73
     1
 44
1.0
  0
MTEXT
  5
32D
330
1F
100
AcDbEntity
  8
0
 62
     7
100
AcDbMText
 10
357.430474901632
 20
235.037468746606
 30
0.0
 40
2.700000047683716
 41
0.0
 71
     7
 72
     1
  1
{\W0.833333;ＦＢ－２５×６}
 73
     1
 44
1.0
  0
MTEXT
  5
32E
330
1F
100
AcDbEntity
  8
0
 62
     7
100
AcDbMText
 10
357.430474901632
 20
230.037468746606
 30
0.0
 40
2.700000047683716
 41
0.0
 71
     7
 72
     1
  1
{\W0.833333;ＦＢ－２５×６}
 73
     1
 44
1.0
  0
MTEXT
  5
32F
330
1F
100
AcDbEntity
  8
0
 62
     7
100
AcDbMText
 10
319.7947097536613
 20
220.3192590911329
 30
0.0
 40
2.700000047683716
 41
0.0
 71
     7
 72
     1
  1
{\W0.833333;１０}
 73
     1
 44
1.0
  0
MTEXT
  5
330
330
1F
100
AcDbEntity
  8
0
 62
     7
100
AcDbMText
 10
319.7947097536613
 20
215.3192590911329
 30
0.0
 40
2.700000047683716
 41
0.0
 71
     7
 72
     1
  1
{\W0.833333;１１}
 73
     1
 44
1.0
  0
MTEXT
  5
331
330
1F
100
AcDbEntity
  8
0
 62
     7
100
AcDbMText
 10
319.7947097536613
 20
210.3192590911329
 30
0.0
 40
2.700000047683716
 41
0.0
 71
     7
 72
     1
  1
{\W0.833333;１２}
 73
     1
 44
1.0
  0
MTEXT
  5
332
330
1F
100
AcDbEntity
  8
0
 62
     7
100
AcDbMText
 10
319.7947097536613
 20
205.3192590911329
 30
0.0
 40
2.700000047683716
 41
0.0
 71
     7
 72
     1
  1
{\W0.833333;１３}
 73
     1
 44
1.0
  0
MTEXT
  5
333
330
1F
100
AcDbEntity
  8
0
 62
     7
100
AcDbMText
 10
319.7947097536613
 20
200.3192590911329
 30
0.0
 40
2.700000047683716
 41
0.0
 71
     7
 72
     1
  1
{\W0.833333;１４}
 73
     1
 44
1.0
  0
MTEXT
  5
334
330
1F
100
AcDbEntity
  8
0
 62
     7
100
AcDbMText
 10
319.7947097536613
 20
195.3192590911329
 30
0.0
 40
2.700000047683716
 41
0.0
 71
     7
 72
     1
  1
{\W0.833333;１５}
 73
     1
 44
1.0
  0
MTEXT
  5
335
330
1F
100
AcDbEntity
  8
0
 62
     7
100
AcDbMText
 10
319.7947097536613
 20
190.3192590911329
 30
0.0
 40
2.700000047683716
 41
0.0
 71
     7
 72
     1
  1
{\W0.833333;１６}
 73
     1
 44
1.0
  0
MTEXT
  5
336
330
1F
100
AcDbEntity
  8
0
 62
     7
100
AcDbMText
 10
357.430474901632
 20
220.037468746606
 30
0.0
 40
2.700000047683716
 41
0.0
 71
     7
 72
     1
  1
{\W0.833333;ＦＢ－２５×６}
 73
     1
 44
1.0
  0
MTEXT
  5
337
330
1F
100
AcDbEntity
  8
0
 62
     7
100
AcDbMText
 10
357.430474901632
 20
215.037468746606
 30
0.0
 40
2.700000047683716
 41
0.0
 71
     7
 72
     1
  1
{\W0.833333;ＦＢ－３８×６}
 73
     1
 44
1.0
  0
MTEXT
  5
338
330
1F
100
AcDbEntity
  8
0
 62
     7
100
AcDbMText
 10
357.430474901632
 20
210.037468746606
 30
0.0
 40
2.700000047683716
 41
0.0
 71
     7
 72
     1
  1
{\W0.833333;ＦＢ－２５×６}
 73
     1
 44
1.0
  0
MTEXT
  5
339
330
1F
100
AcDbEntity
  8
0
 62
     7
100
AcDbMText
 10
357.430474901632
 20
200.037468746606
 30
0.0
 40
2.700000047683716
 41
0.0
 71
     7
 72
     1
  1
{\W0.833333;２．３ｍｍ}
 73
     1
 44
1.0
  0
MTEXT
  5
33A
330
1F
100
AcDbEntity
  8
0
 62
     7
100
AcDbMText
 10
357.430474901632
 20
190.037468746606
 30
0.0
 40
2.700000047683716
 41
0.0
 71
     7
 72
     1
  1
{\W0.833333;８\U+2205 丸棒}
 73
     1
 44
1.0
  0
MTEXT
  5
33B
330
1F
100
AcDbEntity
  8
0
 62
     7
100
AcDbMText
 10
387.4891854385469
 20
200.3433390961654
 30
0.0
 40
2.700000047683716
 41
0.0
 71
     7
 72
     1
  1
{\W0.833333;鋼板}
 73
     1
 44
1.0
  0
MTEXT
  5
33C
330
1F
100
AcDbEntity
  8
0
 62
     7
100
AcDbMText
 10
327.930474901632
 20
220.037468746606
 30
0.0
 40
2.700000047683716
 41
0.0
 71
     7
 72
     1
  1
{\W0.833333;振止め平鋼用接続金物}
 73
     1
 44
1.0
  0
MTEXT
  5
33D
330
1F
100
AcDbEntity
  8
0
 62
     7
100
AcDbMText
 10
327.930474901632
 20
215.037468746606
 30
0.0
 40
2.700000047683716
 41
0.0
 71
     7
 72
     1
  1
{\W0.833333;下部平鋼用接続金物}
 73
     1
 44
1.0
  0
MTEXT
  5
33E
330
1F
100
AcDbEntity
  8
0
 62
     7
100
AcDbMText
 10
327.930474901632
 20
210.037468746606
 30
0.0
 40
2.700000047683716
 41
0.0
 71
     7
 72
     1
  1
{\W0.833333;方向板取付金物}
 73
     1
 44
1.0
  0
MTEXT
  5
33F
330
1F
100
AcDbEntity
  8
0
 62
     7
100
AcDbMText
 10
327.930474901632
 20
205.037468746606
 30
0.0
 40
2.700000047683716
 41
0.0
 71
     7
 72
     1
  1
{\W0.833333;方向板}
 73
     1
 44
1.0
  0
MTEXT
  5
340
330
1F
100
AcDbEntity
  8
0
 62
     7
100
AcDbMText
 10
327.930474901632
 20
200.037468746606
 30
0.0
 40
2.700000047683716
 41
0.0
 71
     7
 72
     1
  1
{\W0.833333;Ｔ型端子板取付金具}
 73
     1
 44
1.0
  0
MTEXT
  5
341
330
1F
100
AcDbEntity
  8
0
 62
     7
100
AcDbMText
 10
327.930474901632
 20
195.037468746606
 30
0.0
 40
2.700000047683716
 41
0.0
 71
     7
 72
     1
  1
{\W0.833333;アース端子}
 73
     1
 44
1.0
  0
MTEXT
  5
342
330
1F
100
AcDbEntity
  8
0
 62
     7
100
AcDbMText
 10
327.930474901632
 20
190.037468746606
 30
0.0
 40
2.700000047683716
 41
0.0
 71
     7
 72
     1
  1
{\W0.833333;１９号配線輪}
 73
     1
 44
1.0
  0
MTEXT
  5
343
330
1F
100
AcDbEntity
  8
0
 62
     7
100
AcDbMText
 10
198.339964338665
 20
62.24979902358068
 30
0.0
 40
2.700000047683716
 41
0.0
 71
     7
 72
     1
  1
{\W0.833333;\Q15;アンカー孔}
 73
     1
 44
1.0
  0
MTEXT
  5
344
330
1F
100
AcDbEntity
  8
0
 62
     7
100
AcDbMText
 10
357.5536230747257
 20
254.3458021037812
 30
0.0
 40
2.0
 41
0.0
 71
     7
 72
     1
  1
{\W0.833333;FB-38×６，ＦＢ－２５×６}
 73
     1
 44
1.0
  0
MTEXT
  5
345
330
1F
100
AcDbEntity
  8
0
 62
     7
100
AcDbMText
 10
387.4891854385469
 20
205.3433390961654
 30
0.0
 40
2.700000047683716
 41
0.0
 71
     7
 72
     1
  1
{\W0.833333;木製}
 73
     1
 44
1.0
  0
HATCH
  5
346
330
1F
100
AcDbEntity
  8
0
 62
     7
100
AcDbHatch
 10
0.0
 20
0.0
 30
0.0
210
0.0
220
0.0
230
1.0
  2
SOLID
 70
     1
 71
     0
 91
        1
 92
        3
 72
     1
 73
     1
 93
       20
 10
161.9144827048225
 20
18.99415252157673
 42
0.0
 10
165.5649407641502
 20
18.99415252157672
 42
0.0
 10
165.7046712161819
 20
18.81948945653714
 42
0.0
 10
165.8793342812215
 20
18.60989377848961
 42
0.0
 10
166.0889299592691
 20
18.31296656792231
 42
0.0
 10
166.3159919438205
 20
17.89377521182721
 42
0.0
 10
166.4382560893483
 20
17.64924692077177
 42
0.0
 10
166.560520234876
 20
17.38725232321239
 42
0.0
 10
166.6827843804038
 20
17.07285880614111
 42
0.0
 10
166.8050485259314
 20
16.74099898256583
 42
0.0
 10
166.9098463649551
 20
16.37420654598266
 42
0.0
 10
167.0146442039789
 20
15.98994780289555
 42
0.0
 10
163.88817533977
 20
15.98994780289554
 42
0.0
 10
163.8183101137541
 20
16.18207717443907
 42
0.0
 10
163.6960459682264
 20
16.44407177199852
 42
0.0
 10
163.5213829031868
 20
16.77593159557378
 42
0.0
 10
163.2593883056275
 20
17.21258925817277
 42
0.0
 10
162.9100621755482
 20
17.71911214678757
 42
0.0
 10
162.4734045129492
 20
18.31296656792226
 42
0.0
 10
162.2114099153898
 20
18.64482639149753
 42
0.0
 97
        0
 75
     0
 76
     1
 98
        0
  0
HATCH
  5
347
330
1F
100
AcDbEntity
  8
0
 62
     7
100
AcDbHatch
 10
0.0
 20
0.0
 30
0.0
210
0.0
220
0.0
230
1.0
  2
SOLID
 70
     1
 71
     0
 91
        1
 92
        3
 72
     1
 73
     1
 93
       19
 10
176.5150775345412
 20
18.38114453275468
 42
0.0
 10
176.7532544414134
 20
16.95208309152158
 42
0.0
 10
179.1747196612806
 20
17.42843690526595
 42
0.0
 10
179.2541119635713
 20
17.50782920755664
 42
0.0
 10
179.7701619284611
 20
17.03147539381229
 42
0.0
 10
179.5716811727343
 20
16.83299463808542
 42
0.0
 10
178.7777581498269
 20
15.80089470830599
 42
0.0
 10
178.1029235803558
 20
15.00697168539874
 42
0.0
 10
177.6662659177569
 20
15.40393319685228
 42
0.0
 10
178.2617081849372
 20
16.11846391746897
 42
0.0
 10
178.777758149827
 20
16.79329848694012
 42
0.0
 10
176.8723428948496
 20
16.39633697548649
 42
0.0
 10
177.5074813131754
 20
13.10155643042122
 42
0.0
 10
176.8723428948495
 20
12.98246797698513
 42
0.0
 10
176.2769006276691
 20
16.27724852205038
 42
0.0
 10
174.5699661284183
 20
15.91998316174206
 42
0.0
 10
174.4905738261276
 20
16.51542542892257
 42
0.0
 10
176.157812174233
 20
16.83299463808547
 42
0.0
 10
175.8799391162154
 20
18.26205607931857
 42
0.0
 97
        0
 75
     0
 76
     1
 98
        0
  0
HATCH
  5
348
330
1F
100
AcDbEntity
  8
0
 62
     7
100
AcDbHatch
 10
0.0
 20
0.0
 30
0.0
210
0.0
220
0.0
230
1.0
  2
SOLID
 70
     1
 71
     0
 91
        1
 92
        3
 72
     0
 73
     1
 93
       23
 10
185.4864076933936
 20
17.6269176609928
 10
185.8436730537019
 20
17.11086769610301
 10
185.6451922979752
 20
16.99177924266688
 10
185.1291423330853
 20
16.35664082434111
 10
184.6130923681956
 20
15.84059085945137
 10
184.0970424033059
 20
15.32454089456162
 10
183.580992438416
 20
14.88788323196259
 10
183.9779539498697
 20
14.45122556936353
 10
184.4543077636142
 20
13.93517560447384
 10
183.9382577987245
 20
13.49851794187487
 10
183.4222078338346
 20
14.13365636020066
 10
182.9458540200903
 20
14.64970632509042
 10
182.4298040552005
 20
15.12606013883482
 10
181.7549694857293
 20
15.68180625486985
 10
182.1916271483283
 20
16.11846391746893
 10
182.4298040552006
 20
15.95967931288753
 10
183.1840309269624
 20
15.28484474341631
 10
183.5809924384161
 20
15.68180625486987
 10
184.0176501010151
 20
16.07876776632354
 10
184.8512692750678
 20
16.99177924266693
 10
180.8022618582406
 20
16.99177924266693
 10
180.8022618582406
 20
17.58722150984737
 10
185.3673192399576
 20
17.58722150984736
 97
        0
 75
     0
 76
     1
 98
        0
  0
HATCH
  5
349
330
1F
100
AcDbEntity
  8
0
 62
     7
100
AcDbHatch
 10
0.0
 20
0.0
 30
0.0
210
0.0
220
0.0
230
1.0
  2
SOLID
 70
     1
 71
     0
 91
        1
 92
        3
 72
     0
 73
     1
 93
       13
 10
187.8284806109701
 20
18.34144838160933
 10
188.5033151804413
 20
18.34144838160933
 10
188.5033151804412
 20
16.63451388235859
 10
189.8926804705291
 20
16.11846391746893
 10
190.3690342842734
 20
15.8802870105967
 10
191.1232611560352
 20
15.52302165028847
 10
190.7659957957271
 20
14.88788323196265
 10
190.1308573774013
 20
15.28484474341631
 10
189.6545035636569
 20
15.52302165028846
 10
189.1384535987671
 20
15.76119855716061
 10
188.5033151804413
 20
15.99937546403283
 10
188.5033151804413
 20
13.02216412813047
 10
187.8284806109701
 20
13.02216412813047
 97
        0
 75
     0
 76
     1
 98
        0
  0
HATCH
  5
34A
330
1F
100
AcDbEntity
  8
0
 62
     7
100
AcDbHatch
 10
0.0
 20
0.0
 30
0.0
210
0.0
220
0.0
230
1.0
  2
SOLID
 70
     1
 71
     0
 91
        1
 92
        3
 72
     1
 73
     1
 93
       20
 10
191.6393111209251
 20
15.68180625486987
 42
0.0
 10
192.3538418415417
 20
15.68180625486987
 42
0.0
 10
192.3538418415417
 20
13.97487175561923
 42
0.0
 10
191.5202226674891
 20
13.45882179072952
 42
0.0
 10
191.837791876652
 20
12.90307567469435
 42
0.0
 10
192.7904995041407
 20
13.65730254645635
 42
0.0
 10
193.1874610155944
 20
13.41912563958419
 42
0.0
 10
193.6638148293386
 20
13.22064488385727
 42
0.0
 10
194.1798647942285
 20
13.14125258156659
 42
0.0
 10
194.7356109102635
 20
13.06186027927582
 42
0.0
 10
197.0379876766948
 20
13.06186027927578
 42
0.0
 10
197.1173799789854
 20
13.300037186148
 42
0.0
 10
197.2364684324215
 20
13.57791024416557
 42
0.0
 10
194.576826305682
 20
13.57791024416556
 42
0.0
 10
194.1004724919377
 20
13.61760639531093
 42
0.0
 10
193.6638148293387
 20
13.6969986976017
 42
0.0
 10
193.2668533178851
 20
13.89547945332855
 42
0.0
 10
192.9095879575768
 20
14.09396020905533
 42
0.0
 10
192.9095879575768
 20
16.19785621975962
 42
0.0
 10
191.6393111209251
 20
16.19785621975962
 42
0.0
 97
        0
 75
     0
 76
     1
 98
        0
  0
HATCH
  5
34B
330
1F
100
AcDbEntity
  8
0
 62
     7
100
AcDbHatch
 10
0.0
 20
0.0
 30
0.0
210
0.0
220
0.0
230
1.0
  2
SOLID
 70
     1
 71
     0
 91
        1
 92
        3
 72
     0
 73
     1
 93
        6
 10
191.8774880277974
 20
17.94448687015571
 10
192.3141456903962
 20
17.6666138121381
 10
192.7111072018499
 20
17.26965230068448
 10
193.1080687133036
 20
17.74600611442889
 10
192.6714110507046
 20
18.10327147473713
 10
192.1950572369603
 20
18.38114453275467
 97
        0
 75
     0
 76
     1
 98
        0
  0
HATCH
  5
34C
330
1F
100
AcDbEntity
  8
0
 62
     7
100
AcDbHatch
 10
0.0
 20
0.0
 30
0.0
210
0.0
220
0.0
230
1.0
  2
SOLID
 70
     1
 71
     0
 91
        1
 92
        3
 72
     0
 73
     1
 93
       12
 10
197.5937337927297
 20
15.8008947083059
 10
197.9113030018927
 20
15.32454089456165
 10
198.1494799087649
 20
15.60241395257917
 10
198.3876568156371
 20
15.95967931288748
 10
198.3876568156371
 20
12.90307567469437
 10
198.9434029316722
 20
12.90307567469437
 10
198.9434029316723
 20
17.07117154495764
 10
199.4197567454165
 20
18.3811445327547
 10
198.8640106293814
 20
18.5796252884815
 10
198.6258337225092
 20
17.82539841671957
 10
198.3082645133464
 20
17.11086769610299
 10
197.9906953041835
 20
16.4360331266318
 97
        0
 75
     0
 76
     1
 98
        0
  0
HATCH
  5
34D
330
1F
100
AcDbEntity
  8
0
 62
     7
100
AcDbHatch
 10
0.0
 20
0.0
 30
0.0
210
0.0
220
0.0
230
1.0
  2
SOLID
 70
     1
 71
     0
 91
        1
 92
        3
 72
     1
 73
     1
 93
        4
 10
199.8564144080155
 20
17.92539841671957
 42
0.0
 10
202.7939295927725
 20
17.92539841671957
 42
0.0
 10
202.7939295927725
 20
18.40175223046398
 42
0.0
 10
199.8564144080155
 20
18.40175223046398
 42
0.0
 97
        0
 75
     0
 76
     1
 98
        0
  0
HATCH
  5
34E
330
1F
100
AcDbEntity
  8
0
 62
     7
100
AcDbHatch
 10
0.0
 20
0.0
 30
0.0
210
0.0
220
0.0
230
1.0
  2
SOLID
 70
     1
 71
     0
 91
        1
 92
        3
 72
     1
 73
     1
 93
        4
 10
199.3006682919804
 20
16.99177924266693
 42
0.0
 10
203.3496757088076
 20
16.99177924266693
 42
0.0
 10
203.3496757088076
 20
17.46813305641132
 42
0.0
 10
199.3006682919804
 20
17.46813305641132
 42
0.0
 97
        0
 75
     0
 76
     1
 98
        0
  0
HATCH
  5
34F
330
1F
100
AcDbEntity
  8
0
 62
     7
100
AcDbHatch
 10
0.0
 20
0.0
 30
0.0
210
0.0
220
0.0
230
1.0
  2
SOLID
 70
     1
 71
     0
 91
        2
 92
        3
 72
     0
 73
     1
 93
        8
 10
199.8167182568702
 20
12.90307567469437
 10
200.3327682217599
 20
12.90307567469437
 10
200.3327682217599
 20
13.18094873271193
 10
202.2381834767374
 20
13.18094873271193
 10
202.2381834767374
 20
12.94277182583977
 10
202.8336257439179
 20
12.94277182583977
 10
202.8336257439179
 20
14.88788323196262
 10
199.8167182568702
 20
14.88788323196262
 97
        0
 92
        3
 72
     1
 73
     1
 93
        4
 10
202.2381834767374
 20
14.41152941821823
 42
0.0
 10
202.2381834767374
 20
13.69699869760167
 42
0.0
 10
200.3327682217599
 20
13.69699869760167
 42
0.0
 10
200.3327682217599
 20
14.41152941821823
 42
0.0
 97
        0
 75
     0
 76
     1
 98
        0
  0
HATCH
  5
350
330
1F
100
AcDbEntity
  8
0
 62
     7
100
AcDbHatch
 10
0.0
 20
0.0
 30
0.0
210
0.0
220
0.0
230
1.0
  2
SOLID
 70
     1
 71
     0
 91
        1
 92
        3
 72
     0
 73
     1
 93
       12
 10
204.3817756385871
 20
17.98418302130102
 10
209.0262253225947
 20
17.98418302130102
 10
209.0262253225947
 20
17.46813305641132
 10
206.9223293118904
 20
17.46813305641132
 10
206.9223293118904
 20
13.93517560447387
 10
209.3437945317577
 20
13.93517560447387
 10
209.3437945317577
 20
13.33973333729337
 10
204.0245102782788
 20
13.33973333729337
 10
204.0245102782788
 20
13.93517560447387
 10
206.3665831958553
 20
13.93517560447387
 10
206.3665831958553
 20
17.46813305641132
 10
204.3817756385871
 20
17.46813305641132
 97
        0
 75
     0
 76
     1
 98
        0
  0
HATCH
  5
351
330
1F
100
AcDbEntity
  8
0
 62
     7
100
AcDbHatch
 10
0.0
 20
0.0
 30
0.0
210
0.0
220
0.0
230
1.0
  2
SOLID
 70
     1
 71
     0
 91
        2
 92
        3
 72
     1
 73
     1
 93
       72
 10
212.0034366584971
 20
17.50782920755667
 42
0.0
 10
211.3286020890259
 20
17.50782920755668
 42
0.0
 10
211.6858674493342
 20
17.7063099632835
 42
0.0
 10
211.4079943913166
 20
18.06357532359176
 42
0.0
 10
211.1301213332991
 20
18.38114453275469
 42
0.0
 10
210.7331598218454
 20
18.06357532359181
 42
0.0
 10
211.2095136355898
 20
17.50782920755667
 42
0.0
 10
210.0980214035196
 20
17.50782920755667
 42
0.0
 10
210.0980214035196
 20
17.03147539381228
 42
0.0
 10
211.4079943913166
 20
17.03147539381226
 42
0.0
 10
211.6461712981888
 20
16.43603312663183
 42
0.0
 10
210.5346790661186
 20
16.43603312663183
 42
0.0
 10
210.5346790661186
 20
15.95967931288748
 42
0.0
 10
212.5194866233868
 20
15.95967931288748
 42
0.0
 10
212.5194866233868
 20
15.60241395257917
 42
0.0
 10
210.8919444264269
 20
15.60241395257917
 42
0.0
 10
210.8919444264269
 20
15.16575628998017
 42
0.0
 10
212.5194866233868
 20
15.16575628998017
 42
0.0
 10
212.5194866233868
 20
14.76879477852653
 42
0.0
 10
210.1774137058103
 20
14.76879477852653
 42
0.0
 10
210.1774137058103
 20
14.29244096478212
 42
0.0
 10
211.9637405073517
 20
14.29244096478213
 42
0.0
 10
211.5270828447527
 20
14.05426405791
 42
0.0
 10
211.0507290310084
 20
13.81608715103778
 42
0.0
 10
210.574375217264
 20
13.65730254645631
 42
0.0
 10
210.0583252523743
 20
13.49851794187487
 42
0.0
 10
210.2171098569557
 20
13.22064488385733
 42
0.0
 10
210.3361983103918
 20
13.02216412813047
 42
0.0
 10
210.8919444264269
 20
13.22064488385728
 42
0.0
 10
211.447690542462
 20
13.49851794187481
 42
0.0
 10
212.003436658497
 20
13.77639099989247
 42
0.0
 10
212.5194866233868
 20
14.13365636020068
 42
0.0
 10
212.5194866233868
 20
12.90307567469437
 42
0.0
 10
213.0752327394219
 20
12.90307567469437
 42
0.0
 10
213.0752327394219
 20
14.25274481363678
 42
0.0
 10
213.511890402021
 20
13.8557833021832
 42
0.0
 10
214.067636518056
 20
13.53821409302024
 42
0.0
 10
214.6630787852365
 20
13.22064488385728
 42
0.0
 10
215.3776095058532
 20
12.98246797698509
 42
0.0
 10
215.4173056569984
 20
13.10155643042123
 42
0.0
 10
215.4570018081439
 20
13.26034103500263
 42
0.0
 10
215.5760902615798
 20
13.37942948843879
 42
0.0
 10
215.6951787150159
 20
13.45882179072945
 42
0.0
 10
215.1394325989808
 20
13.6176063953109
 42
0.0
 10
214.6233826340911
 20
13.81608715103779
 42
0.0
 10
214.1470288203469
 20
14.05426405790999
 42
0.0
 10
213.7103711577478
 20
14.29244096478212
 42
0.0
 10
215.4570018081438
 20
14.29244096478212
 42
0.0
 10
215.4570018081438
 20
14.76879477852653
 42
0.0
 10
213.0752327394219
 20
14.76879477852653
 42
0.0
 10
213.0752327394219
 20
15.16575628998017
 42
0.0
 10
214.821863389818
 20
15.16575628998017
 42
0.0
 10
214.821863389818
 20
15.60241395257917
 42
0.0
 10
213.0752327394219
 20
15.60241395257917
 42
0.0
 10
213.0752327394219
 20
15.95967931288748
 42
0.0
 10
215.1394325989809
 20
15.95967931288748
 42
0.0
 10
215.1394325989809
 20
16.43603312663183
 42
0.0
 10
213.94854806462
 20
16.43603312663184
 42
0.0
 10
214.2661172737829
 20
17.03147539381228
 42
0.0
 10
215.5760902615798
 20
17.03147539381228
 42
0.0
 10
215.5760902615798
 20
17.50782920755667
 42
0.0
 10
214.4645980295097
 20
17.50782920755667
 42
0.0
 10
214.9409518432541
 20
18.14296762588252
 42
0.0
 10
214.4249018783644
 20
18.42084068389998
 42
0.0
 10
213.8691557623292
 20
17.50782920755667
 42
0.0
 10
213.630978855457
 20
17.50782920755667
 42
0.0
 10
213.630978855457
 20
18.50023298619077
 42
0.0
 10
213.1546250417127
 20
18.50023298619077
 42
0.0
 10
213.1546250417127
 20
17.50782920755667
 42
0.0
 10
212.4797904722415
 20
17.50782920755667
 42
0.0
 10
212.4797904722415
 20
18.50023298619077
 42
0.0
 10
212.0034366584971
 20
18.50023298619077
 42
0.0
 97
        0
 92
        3
 72
     1
 73
     1
 93
        4
 10
213.6706750066024
 20
17.03147539381227
 42
0.0
 10
213.3531057974395
 20
16.43603312663183
 42
0.0
 10
212.2416135653695
 20
16.43603312663189
 42
0.0
 10
212.0034366584971
 20
17.03147539381228
 42
0.0
 97
        0
 75
     0
 76
     1
 98
        0
  0
HATCH
  5
352
330
1F
100
AcDbEntity
  8
0
 62
     7
100
AcDbHatch
 10
0.0
 20
0.0
 30
0.0
210
0.0
220
0.0
230
1.0
  2
SOLID
 70
     1
 71
     0
 91
        1
 92
        3
 72
     1
 73
     1
 93
       68
 10
217.0845440051037
 20
18.50023298619077
 42
0.0
 10
217.6005939699935
 20
18.50023298619077
 42
0.0
 10
217.6005939699935
 20
17.30934845182988
 42
0.0
 10
218.1960362371739
 20
17.30934845182988
 42
0.0
 10
218.1960362371739
 20
16.79329848694012
 42
0.0
 10
217.6005939699935
 20
16.79329848694012
 42
0.0
 10
217.6005939699935
 20
16.31694467319579
 42
0.0
 10
218.0372516325926
 20
15.80089470830603
 42
0.0
 10
218.2754285394647
 20
15.56271780143378
 42
0.0
 10
218.2754285394647
 20
15.95967931288748
 42
0.0
 10
219.7441861318432
 20
15.95967931288748
 42
0.0
 10
219.7441861318432
 20
16.87269078923082
 42
0.0
 10
218.9502631089357
 20
16.87269078923087
 42
0.0
 10
218.6723900509183
 20
16.23755237090494
 42
0.0
 10
218.1563400860285
 20
16.43603312663187
 42
0.0
 10
218.4739092951913
 20
17.19025999839374
 42
0.0
 10
218.7517823532091
 20
18.06357532359181
 42
0.0
 10
219.3075284692444
 20
17.94448687015561
 42
0.0
 10
219.1090477135173
 20
17.38874075412058
 42
0.0
 10
219.7441861318432
 20
17.38874075412058
 42
0.0
 10
219.7441861318432
 20
18.46053683504542
 42
0.0
 10
220.2602360967329
 20
18.46053683504542
 42
0.0
 10
220.2602360967329
 20
17.38874075412058
 42
0.0
 10
221.3320321776578
 20
17.38874075412058
 42
0.0
 10
221.3320321776578
 20
16.87269078923082
 42
0.0
 10
220.2602360967329
 20
16.87269078923082
 42
0.0
 10
220.2602360967329
 20
15.95967931288748
 42
0.0
 10
221.6496013868207
 20
15.95967931288748
 42
0.0
 10
221.6496013868207
 20
15.44362934799772
 42
0.0
 10
220.4587168524597
 20
15.44362934799771
 42
0.0
 10
220.7365899104774
 20
15.08636398768954
 42
0.0
 10
221.0938552707856
 20
14.68940247623581
 42
0.0
 10
221.4908167822392
 20
14.33213711592751
 42
0.0
 10
221.9274744448383
 20
13.97487175561922
 42
0.0
 10
221.6099052356754
 20
13.81608715103775
 42
0.0
 10
221.4114244799486
 20
13.57791024416565
 42
0.0
 10
220.7762860616226
 20
14.21304866249139
 42
0.0
 10
220.2602360967329
 20
14.80849092967188
 42
0.0
 10
220.2602360967329
 20
12.94277182583977
 42
0.0
 10
219.7441861318432
 20
12.94277182583977
 42
0.0
 10
219.7441861318432
 20
14.84818708081724
 42
0.0
 10
219.3472246203895
 20
14.45122556936356
 42
0.0
 10
218.9502631089359
 20
14.09396020905534
 42
0.0
 10
218.5929977486276
 20
13.77639099989243
 42
0.0
 10
218.2357323883194
 20
13.49851794187489
 42
0.0
 10
218.0372516325926
 20
13.69699869760176
 42
0.0
 10
217.7990747257203
 20
13.89547945332851
 42
0.0
 10
218.2754285394646
 20
14.25274481363681
 42
0.0
 10
218.7120862020637
 20
14.610010173945
 42
0.0
 10
219.1090477135172
 20
15.04666783654412
 42
0.0
 10
219.506009224971
 20
15.44362934799772
 42
0.0
 10
218.2754285394647
 20
15.44362934799772
 42
0.0
 10
218.2754285394647
 20
15.48332549914309
 42
0.0
 10
217.9975554814473
 20
15.0863639876895
 42
0.0
 10
217.6005939699935
 20
15.52302165028843
 42
0.0
 10
217.6005939699935
 20
12.94277182583977
 42
0.0
 10
217.0845440051037
 20
12.94277182583977
 42
0.0
 10
217.0845440051037
 20
15.40393319685235
 42
0.0
 10
216.3303171333419
 20
14.09396020905535
 42
0.0
 10
216.2112286799058
 20
14.49092172050897
 42
0.0
 10
216.0921402264697
 20
14.80849092967183
 42
0.0
 10
216.4097094356324
 20
15.32454089456166
 42
0.0
 10
216.6875824936503
 20
15.84059085945132
 42
0.0
 10
216.9257594005224
 20
16.31694467319569
 42
0.0
 10
217.0845440051037
 20
16.79329848694012
 42
0.0
 10
216.2509248310511
 20
16.79329848694012
 42
0.0
 10
216.2509248310511
 20
17.30934845182988
 42
0.0
 10
217.0845440051037
 20
17.30934845182988
 42
0.0
 97
        0
 75
     0
 76
     1
 98
        0
  0
HATCH
  5
353
330
1F
100
AcDbEntity
  8
0
 62
     7
100
AcDbHatch
 10
0.0
 20
0.0
 30
0.0
210
0.0
220
0.0
230
1.0
  2
SOLID
 70
     1
 71
     0
 91
        1
 92
        3
 72
     1
 73
     1
 93
       38
 10
225.5398241990664
 20
18.46053683504542
 42
0.0
 10
226.1352664662469
 20
18.46053683504542
 42
0.0
 10
226.1352664662469
 20
17.38874075412058
 42
0.0
 10
227.8025048143522
 20
17.38874075412058
 42
0.0
 10
227.8025048143522
 20
16.87269078923082
 42
0.0
 10
226.1352664662469
 20
16.87269078923082
 42
0.0
 10
226.1749626173923
 20
16.11846391746893
 42
0.0
 10
226.254354919683
 20
15.44362934799773
 42
0.0
 10
226.4131395242644
 20
14.80849092967188
 42
0.0
 10
226.6116202799912
 20
14.25274481363675
 42
0.0
 10
226.7307087334272
 20
13.9351756044738
 42
0.0
 10
226.8894933380088
 20
13.73669484874708
 42
0.0
 10
227.0085817914448
 20
13.61760639531092
 42
0.0
 10
227.1673663960264
 20
13.57791024416552
 42
0.0
 10
227.2467586983171
 20
13.6176063953109
 42
0.0
 10
227.2864548494626
 20
13.69699869760166
 42
0.0
 10
227.4055433028985
 20
14.21304866249143
 42
0.0
 10
227.683416360916
 20
14.01456790676451
 42
0.0
 10
227.9612894189335
 20
13.89547945332856
 42
0.0
 10
227.7628086632069
 20
13.41912563958402
 42
0.0
 10
227.6040240586254
 20
13.14125258156653
 42
0.0
 10
227.4452394540438
 20
12.98246797698511
 42
0.0
 10
227.3658471517531
 20
12.94277182583977
 42
0.0
 10
227.2864548494624
 20
12.94277182583977
 42
0.0
 10
227.127670244881
 20
12.94277182583978
 42
0.0
 10
226.9688856402996
 20
12.98246797698518
 42
0.0
 10
226.8101010357179
 20
13.10155643042116
 42
0.0
 10
226.6513164311367
 20
13.180948732712
 42
0.0
 10
226.5322279777004
 20
13.33973333729332
 42
0.0
 10
226.3734433731191
 20
13.53821409302024
 42
0.0
 10
226.1352664662469
 20
13.97487175561921
 42
0.0
 10
225.8970895593747
 20
14.61001017394502
 42
0.0
 10
225.7383049547932
 20
15.28484474341627
 42
0.0
 10
225.6192165013571
 20
16.03907161517817
 42
0.0
 10
225.5398241990664
 20
16.87269078923082
 42
0.0
 10
222.5229167120187
 20
16.87269078923082
 42
0.0
 10
222.5229167120187
 20
17.38874075412058
 42
0.0
 10
225.5398241990664
 20
17.38874075412058
 42
0.0
 97
        0
 75
     0
 76
     1
 98
        0
  0
HATCH
  5
354
330
1F
100
AcDbEntity
  8
0
 62
     7
100
AcDbHatch
 10
0.0
 20
0.0
 30
0.0
210
0.0
220
0.0
230
1.0
  2
SOLID
 70
     1
 71
     0
 91
        1
 92
        3
 72
     1
 73
     1
 93
        4
 10
226.6513164311366
 20
18.42084068390005
 42
0.0
 10
227.4055433028985
 20
17.82539841671957
 42
0.0
 10
227.0482779425901
 20
17.46813305641125
 42
0.0
 10
226.3337472219736
 20
18.06357532359178
 42
0.0
 97
        0
 75
     0
 76
     1
 98
        0
  0
HATCH
  5
355
330
1F
100
AcDbEntity
  8
0
 62
     7
100
AcDbHatch
 10
0.0
 20
0.0
 30
0.0
210
0.0
220
0.0
230
1.0
  2
SOLID
 70
     1
 71
     0
 91
        1
 92
        3
 72
     0
 73
     1
 93
       12
 10
222.7213974677455
 20
15.99937546403283
 10
225.3016472921942
 20
15.99937546403283
 10
225.3016472921942
 20
15.48332549914308
 10
224.3489396647055
 20
15.48332549914308
 10
224.3489396647055
 20
13.9748717556192
 10
225.5398241990664
 20
14.17335251134603
 10
225.5398241990664
 20
13.6176063953109
 10
222.6023090143093
 20
13.14125258156655
 10
222.4832205608734
 20
13.73669484874702
 10
223.7931935486703
 20
13.93517560447387
 10
223.7931935486703
 20
15.48332549914308
 10
222.7213974677455
 20
15.48332549914308
 97
        0
 75
     0
 76
     1
 98
        0
  0
HATCH
  5
356
330
1F
100
AcDbEntity
  8
0
 62
     7
100
AcDbHatch
 10
0.0
 20
0.0
 30
0.0
210
0.0
220
0.0
230
1.0
  2
SOLID
 70
     1
 71
     0
 91
        2
 92
        3
 72
     0
 73
     1
 93
       27
 10
228.3979470815327
 20
16.23755237090499
 10
228.556731686114
 20
16.07876776632351
 10
228.7155162906955
 20
15.76119855716061
 10
229.2315662555852
 20
16.07876776632352
 10
229.7079200693297
 20
16.43603312663183
 10
229.7079200693297
 20
15.99937546403283
 10
232.685131405232
 20
15.99937546403283
 10
232.6851314052321
 20
16.47572927777723
 10
233.2408775212671
 20
16.11846391746887
 10
233.7966236373023
 20
15.80089470830592
 10
233.8760159395929
 20
15.95967931288747
 10
233.9554082418837
 20
16.07876776632348
 10
234.0744966953199
 20
16.19785621975959
 10
234.1935851487558
 20
16.31694467319571
 10
233.3996621258486
 20
16.71390618464943
 10
233.0423967655403
 20
16.95208309152157
 10
232.6851314052319
 20
17.19025999839367
 10
232.3675621960689
 20
17.42843690526585
 10
232.0896891380514
 20
17.70630996328339
 10
231.811816080034
 20
17.98418302130102
 10
231.5736391731618
 20
18.26205607931854
 10
231.6927276265979
 20
18.38114453275467
 10
231.0575892082723
 20
18.57962528848137
 10
230.4224507899463
 20
17.82539841671957
 10
229.747616220475
 20
17.19025999839373
 10
229.0727816510039
 20
16.67421003350404
 10
228.755212441841
 20
16.4360331266318
 97
        0
 92
        3
 72
     1
 73
     1
 93
        7
 10
232.6057391029413
 20
16.51542542892257
 42
0.0
 10
229.8270085227657
 20
16.51542542892264
 42
0.0
 10
230.5018430922371
 20
17.15056384724832
 42
0.0
 10
231.2163738128535
 20
17.90479071901035
 42
0.0
 10
231.5339430220163
 20
17.5078292075566
 42
0.0
 10
231.8515122311794
 20
17.19025999839371
 42
0.0
 10
232.2087775914876
 20
16.83299463808549
 42
0.0
 97
        0
 75
     0
 76
     1
 98
        0
  0
HATCH
  5
357
330
1F
100
AcDbEntity
  8
0
 62
     7
100
AcDbHatch
 10
0.0
 20
0.0
 30
0.0
210
0.0
220
0.0
230
1.0
  2
SOLID
 70
     1
 71
     0
 91
        1
 92
        3
 72
     0
 73
     1
 93
       21
 10
228.7155162906955
 20
14.88788323196262
 10
230.2239700342195
 20
14.88788323196256
 10
229.7079200693296
 20
13.57791024416557
 10
228.8743008952769
 20
13.53821409302019
 10
229.0727816510039
 20
12.90307567469436
 10
230.620931545673
 20
13.14125258156658
 10
232.685131405232
 20
13.45882179072949
 10
233.0820929166856
 20
12.86337952354901
 10
233.5981428815754
 20
13.22064488385732
 10
232.9630044632497
 20
14.01456790676465
 10
232.3278660449238
 20
14.72909862738113
 10
231.8912083823248
 20
14.41152941821827
 10
232.3278660449238
 20
13.89547945332851
 10
231.2957661151441
 20
13.73669484874703
 10
230.3033623365102
 20
13.6176063953109
 10
230.4621469410914
 20
13.93517560447393
 10
230.7400199991091
 20
14.53061787165434
 10
230.938500754836
 20
14.88788323196262
 10
233.8760159395929
 20
14.88788323196262
 10
233.8760159395929
 20
15.40393319685232
 10
228.7155162906955
 20
15.40393319685232
 97
        0
 75
     0
 76
     1
 98
        0
  0
HATCH
  5
358
330
1F
100
AcDbEntity
  8
0
 62
     7
100
AcDbHatch
 10
0.0
 20
0.0
 30
0.0
210
0.0
220
0.0
230
1.0
  2
SOLID
 70
     1
 71
     0
 91
        1
 92
        3
 72
     0
 73
     1
 93
       25
 10
235.5432542876982
 20
18.50023298619077
 10
236.0990004037334
 20
18.50023298619077
 10
236.0990004037334
 20
17.50782920755667
 10
236.6944426709138
 20
17.50782920755667
 10
236.7738349732046
 20
17.50782920755672
 10
237.131100333513
 20
17.15056384724829
 10
236.7341388220591
 20
16.59481773121333
 10
236.2577850083148
 20
15.95967931288746
 10
237.0914041823676
 20
15.12606013883476
 10
236.734138822059
 20
14.64970632509035
 10
236.4165696128963
 20
14.96727553425335
 10
236.0990004037334
 20
15.32454089456163
 10
236.0990004037334
 20
12.94277182583977
 10
235.5432542876982
 20
12.94277182583977
 10
235.5432542876982
 20
15.16575628998022
 10
235.1859889273899
 20
14.88788323196262
 10
234.8684197182271
 20
14.64970632509051
 10
234.5508505090642
 20
15.16575628998018
 10
235.0272043228085
 20
15.52302165028844
 10
235.503558136553
 20
15.95967931288743
 10
235.940215799152
 20
16.43603312663177
 10
236.3371773106055
 20
16.99177924266693
 10
234.7493312647909
 20
16.99177924266693
 10
234.7493312647909
 20
17.50782920755667
 10
235.5432542876982
 20
17.50782920755667
 97
        0
 75
     0
 76
     1
 98
        0
  0
HATCH
  5
359
330
1F
100
AcDbEntity
  8
0
 62
     7
100
AcDbHatch
 10
0.0
 20
0.0
 30
0.0
210
0.0
220
0.0
230
1.0
  2
SOLID
 70
     1
 71
     0
 91
        1
 92
        3
 72
     1
 73
     1
 93
       16
 10
238.1632002632923
 20
18.50023298619077
 42
0.0
 10
238.7586425304728
 20
18.50023298619077
 42
0.0
 10
238.7586425304728
 20
16.55512158006792
 42
0.0
 10
240.0686155182698
 20
16.55512158006792
 42
0.0
 10
240.0686155182698
 20
16.03907161517818
 42
0.0
 10
238.7586425304728
 20
16.03907161517818
 42
0.0
 10
238.7586425304728
 20
13.69699869760167
 42
0.0
 10
240.2670962739966
 20
13.69699869760167
 42
0.0
 10
240.2670962739966
 20
13.14125258156658
 42
0.0
 10
236.5356580663323
 20
13.14125258156658
 42
0.0
 10
236.5356580663323
 20
13.69699869760167
 42
0.0
 10
238.1632002632923
 20
13.69699869760167
 42
0.0
 10
238.1632002632923
 20
16.03907161517818
 42
0.0
 10
236.9723157289314
 20
16.03907161517818
 42
0.0
 10
236.9723157289314
 20
16.55512158006792
 42
0.0
 10
238.1632002632923
 20
16.55512158006792
 42
0.0
 97
        0
 75
     0
 76
     1
 98
        0
  0
HATCH
  5
35A
330
1F
100
AcDbEntity
  8
0
 62
     7
100
AcDbHatch
 10
0.0
 20
0.0
 30
0.0
210
0.0
220
0.0
230
1.0
  2
SOLID
 70
     1
 71
     0
 91
        1
 92
        3
 72
     0
 73
     1
 93
        9
 10
164.4645634544007
 20
10.33086449561238
 10
164.4645634544007
 20
9.859274220005446
 10
164.3073666958651
 20
9.859274220005446
 10
164.307366695865
 20
10.31339818910841
 10
163.8707090332661
 20
11.01205044926683
 10
164.0803047113136
 20
11.01205044926686
 10
164.3946982283848
 20
10.47059494764405
 10
164.6916254389522
 20
11.01205044926683
 10
164.8837548104958
 20
11.01205044926682
 97
        0
 75
     0
 76
     1
 98
        0
  0
HATCH
  5
35B
330
1F
100
AcDbEntity
  8
0
 62
     7
100
AcDbHatch
 10
0.0
 20
0.0
 30
0.0
210
0.0
220
0.0
230
1.0
  2
SOLID
 70
     1
 71
     0
 91
        2
 92
        3
 72
     0
 73
     1
 93
        8
 10
164.9885526495195
 20
10.20860035008466
 10
165.4426766186225
 20
10.20860035008465
 10
165.5649407641502
 20
9.859274220005446
 10
165.7396038291899
 20
9.85927422000546
 10
165.3029461665908
 20
11.01205044926683
 10
165.1282831015512
 20
11.01205044926682
 10
164.7090917454561
 20
9.859274220005446
 10
164.8662885039917
 20
9.859274220005467
 97
        0
 92
        3
 72
     0
 73
     1
 93
        3
 10
165.4077440056146
 20
10.33086449561238
 10
165.0409515690313
 20
10.3308644956124
 10
165.215614634071
 20
10.85485369073119
 97
        0
 75
     0
 76
     1
 98
        0
  0
HATCH
  5
35C
330
1F
100
AcDbEntity
  8
0
 62
     7
100
AcDbHatch
 10
0.0
 20
0.0
 30
0.0
210
0.0
220
0.0
230
1.0
  2
SOLID
 70
     1
 71
     0
 91
        1
 92
        3
 72
     0
 73
     1
 93
       21
 10
166.0015984267492
 20
10.83738738422722
 10
166.0015984267492
 20
9.859274220005446
 10
165.8618679747175
 20
9.859274220005446
 10
165.8618679747175
 20
11.01205044926683
 10
166.0889299592689
 20
11.01205044926682
 10
166.3858571698364
 20
10.12126881756486
 10
166.4033234763403
 20
10.06886989805296
 10
166.4033234763404
 20
10.03393728504504
 10
166.4207897828443
 20
10.08633620455691
 10
166.4382560893482
 20
10.12126881756485
 10
166.7351832999155
 20
11.01205044926683
 10
166.962245284467
 20
11.01205044926683
 10
166.962245284467
 20
9.859274220005446
 10
166.8050485259314
 20
9.859274220005446
 10
166.8050485259315
 20
10.83738738422721
 10
166.7875822194275
 20
10.78498846471531
 10
166.7701159129233
 20
10.75005585170745
 10
166.4731887023561
 20
9.859274220005446
 10
166.3334582503244
 20
9.859274220005446
 10
166.0365310397572
 20
10.75005585170743
 10
166.0190647332531
 20
10.78498846471533
 97
        0
 75
     0
 76
     1
 98
        0
  0
HATCH
  5
35D
330
1F
100
AcDbEntity
  8
0
 62
     7
100
AcDbHatch
 10
0.0
 20
0.0
 30
0.0
210
0.0
220
0.0
230
1.0
  2
SOLID
 70
     1
 71
     0
 91
        2
 92
        3
 72
     0
 73
     1
 93
        8
 10
167.3639703340581
 20
10.20860035008466
 10
167.8180943031611
 20
10.20860035008467
 10
167.9403584486888
 20
9.859274220005446
 10
168.1150215137284
 20
9.859274220005453
 10
167.6783638511294
 20
11.01205044926683
 10
167.5037007860898
 20
11.01205044926684
 10
167.0670431234908
 20
9.859274220005446
 10
167.2417061885305
 20
9.859274220005453
 97
        0
 92
        3
 72
     1
 73
     1
 93
        3
 10
167.7656953836492
 20
10.33086449561238
 42
0.0
 10
167.41636925357
 20
10.33086449561237
 42
0.0
 10
167.5910323186096
 20
10.85485369073118
 42
0.0
 97
        0
 75
     0
 76
     1
 98
        0
  0
HATCH
  5
35E
330
1F
100
AcDbEntity
  8
0
 62
     7
100
AcDbHatch
 10
0.0
 20
0.0
 30
0.0
210
0.0
220
0.0
230
1.0
  2
SOLID
 70
     1
 71
     0
 91
        1
 92
        3
 72
     0
 73
     1
 93
        8
 10
168.4643476438076
 20
9.859274220005446
 10
168.307150885272
 20
9.859274220005446
 10
168.307150885272
 20
10.87231999723515
 10
167.9403584486888
 20
10.87231999723515
 10
167.9403584486888
 20
11.01205044926683
 10
168.8311400803908
 20
11.01205044926683
 10
168.8311400803908
 20
10.87231999723515
 10
168.4643476438076
 20
10.87231999723515
 97
        0
 75
     0
 76
     1
 98
        0
  0
HATCH
  5
35F
330
1F
100
AcDbEntity
  8
0
 62
     7
100
AcDbHatch
 10
0.0
 20
0.0
 30
0.0
210
0.0
220
0.0
230
1.0
  2
SOLID
 70
     1
 71
     0
 91
        2
 92
        3
 72
     1
 73
     1
 93
       32
 10
169.0058031454304
 20
9.981538365533169
 42
0.0
 10
169.0756683714462
 20
9.911673139517333
 42
0.0
 10
169.1804662104699
 20
9.85927422000546
 42
0.0
 10
169.2852640494938
 20
9.824341606997516
 42
0.0
 10
169.4075281950215
 20
9.824341606997516
 42
0.0
 10
169.5297923405492
 20
9.824341606997535
 42
0.0
 10
169.634590179573
 20
9.85927422000546
 42
0.0
 10
169.7219217120928
 20
9.911673139517347
 42
0.0
 10
169.8092532446126
 20
9.98153836553314
 42
0.0
 10
169.8791184706284
 20
10.06886989805298
 42
0.0
 10
169.9140510836365
 20
10.17366773707672
 42
0.0
 10
169.9489836966443
 20
10.29593188260445
 42
0.0
 10
169.9489836966443
 20
10.43566233463612
 42
0.0
 10
169.9489836966443
 20
10.57539278666783
 42
0.0
 10
169.9140510836364
 20
10.69765693219556
 42
0.0
 10
169.8791184706284
 20
10.80245477121932
 42
0.0
 10
169.8092532446125
 20
10.88978630373911
 42
0.0
 10
169.7219217120928
 20
10.95965152975494
 42
0.0
 10
169.634590179573
 20
11.01205044926682
 42
0.0
 10
169.5297923405492
 20
11.02951675577079
 42
0.0
 10
169.4075281950216
 20
11.04698306227471
 42
0.0
 10
169.2852640494938
 20
11.02951675577077
 42
0.0
 10
169.18046621047
 20
11.01205044926684
 42
0.0
 10
169.0756683714462
 20
10.95965152975495
 42
0.0
 10
169.0058031454304
 20
10.88978630373909
 42
0.0
 10
168.9359379194145
 20
10.80245477121933
 42
0.0
 10
168.8835389999027
 20
10.69765693219554
 42
0.0
 10
168.8660726933986
 20
10.57539278666783
 42
0.0
 10
168.8486063868946
 20
10.43566233463611
 42
0.0
 10
168.8660726933988
 20
10.29593188260445
 42
0.0
 10
168.8835389999026
 20
10.17366773707674
 42
0.0
 10
168.9359379194146
 20
10.06886989805298
 42
0.0
 97
        0
 92
        3
 72
     1
 73
     1
 93
       32
 10
169.1280672909582
 20
10.78498846471531
 42
0.0
 10
169.18046621047
 20
10.83738738422721
 42
0.0
 10
169.2503314364859
 20
10.87231999723513
 42
0.0
 10
169.3201966625017
 20
10.90725261024306
 42
0.0
 10
169.4075281950215
 20
10.90725261024306
 42
0.0
 10
169.4948597275413
 20
10.90725261024305
 42
0.0
 10
169.5647249535571
 20
10.87231999723515
 42
0.0
 10
169.634590179573
 20
10.83738738422726
 42
0.0
 10
169.6869890990849
 20
10.78498846471535
 42
0.0
 10
169.7393880185967
 20
10.7151232386995
 42
0.0
 10
169.7568543251006
 20
10.62779170617966
 42
0.0
 10
169.7917869381086
 20
10.54046017365989
 42
0.0
 10
169.7917869381086
 20
10.43566233463612
 42
0.0
 10
169.7917869381086
 20
10.33086449561236
 42
0.0
 10
169.7568543251007
 20
10.24353296309256
 42
0.0
 10
169.7393880185967
 20
10.15620143057279
 42
0.0
 10
169.6869890990848
 20
10.08633620455694
 42
0.0
 10
169.634590179573
 20
10.03393728504505
 42
0.0
 10
169.5647249535572
 20
9.999004672037088
 42
0.0
 10
169.4948597275413
 20
9.96407205902919
 42
0.0
 10
169.4075281950215
 20
9.96407205902919
 42
0.0
 10
169.3201966625017
 20
9.964072059029192
 42
0.0
 10
169.2503314364859
 20
9.999004672037131
 42
0.0
 10
169.18046621047
 20
10.03393728504503
 42
0.0
 10
169.1280672909581
 20
10.08633620455694
 42
0.0
 10
169.0756683714463
 20
10.1562014305728
 42
0.0
 10
169.0407357584384
 20
10.24353296309258
 42
0.0
 10
169.0232694519344
 20
10.33086449561238
 42
0.0
 10
169.0232694519344
 20
10.43566233463612
 42
0.0
 10
169.0232694519345
 20
10.54046017365988
 42
0.0
 10
169.0407357584384
 20
10.62779170617968
 42
0.0
 10
169.0756683714462
 20
10.71512323869949
 42
0.0
 97
        0
 75
     0
 76
     1
 98
        0
  0
HATCH
  5
360
330
1F
100
AcDbEntity
  8
0
 62
     7
100
AcDbHatch
 10
0.0
 20
0.0
 30
0.0
210
0.0
220
0.0
230
1.0
  2
SOLID
 70
     1
 71
     0
 91
        1
 92
        3
 72
     1
 73
     1
 93
        4
 10
202.7542334416271
 20
16.57481773121327
 42
0.0
 10
199.8564144080155
 20
16.57481773121327
 42
0.0
 10
199.8564144080155
 20
16.19846391746892
 42
0.0
 10
202.7542334416271
 20
16.19846391746892
 42
0.0
 97
        0
 75
     0
 76
     1
 98
        0
  0
HATCH
  5
361
330
1F
100
AcDbEntity
  8
0
 62
     7
100
AcDbHatch
 10
0.0
 20
0.0
 30
0.0
210
0.0
220
0.0
230
1.0
  2
SOLID
 70
     1
 71
     0
 91
        1
 92
        3
 72
     1
 73
     1
 93
        4
 10
202.7542334416271
 20
15.72481773121327
 42
0.0
 10
199.8564144080155
 20
15.72481773121327
 42
0.0
 10
199.8564144080155
 20
15.34846391746892
 42
0.0
 10
202.7542334416271
 20
15.34846391746892
 42
0.0
 97
        0
 75
     0
 76
     1
 98
        0
  0
HATCH
  5
362
330
1F
100
AcDbEntity
  8
0
 62
     7
100
AcDbHatch
 10
0.0
 20
0.0
 30
0.0
210
0.0
220
0.0
230
1.0
  2
SOLID
 70
     1
 71
     0
 91
        5
 92
        3
 72
     1
 73
     1
 93
       32
 10
196.2440646537874
 20
18.26205607931857
 42
0.0
 10
193.4653340736119
 20
18.26205607931857
 42
0.0
 10
193.4653340736119
 20
17.88205607931857
 42
0.0
 10
195.6400521625649
 20
17.88205607931857
 42
0.0
 10
195.1212685728625
 20
17.46702920755665
 42
0.0
 10
194.5394441067292
 20
17.77733558949441
 42
0.0
 10
194.2989532476645
 20
17.46813305641132
 42
0.0
 10
195.0531801194264
 20
16.95208309152158
 42
0.0
 10
193.584422527048
 20
16.95208309152158
 42
0.0
 10
193.584422527048
 20
13.89547945332852
 42
0.0
 10
194.1401686430831
 20
13.89547945332852
 42
0.0
 10
194.1401686430831
 20
14.84818708081727
 42
0.0
 10
194.8546993636996
 20
14.84818708081727
 42
0.0
 10
194.8546993636996
 20
13.93517560447387
 42
0.0
 10
195.331053177444
 20
13.93517560447387
 42
0.0
 10
195.331053177444
 20
14.84818708081727
 42
0.0
 10
196.2440646537874
 20
14.84818708081727
 42
0.0
 10
196.2440646537875
 20
14.41152941821821
 42
0.0
 10
196.204368502642
 20
14.33213711592753
 42
0.0
 10
195.7280146888976
 20
14.33213711592751
 42
0.0
 10
195.8471031423337
 20
14.09396020905533
 42
0.0
 10
195.8471031423338
 20
13.81608715103778
 42
0.0
 10
196.2837608049327
 20
13.89547945332853
 42
0.0
 10
196.5616338629503
 20
13.9748717556192
 42
0.0
 10
196.6807223163864
 20
14.05426405790998
 42
0.0
 10
196.7601146186771
 20
14.21304866249142
 42
0.0
 10
196.7601146186771
 20
16.95208309152158
 42
0.0
 10
195.5692300843162
 20
16.95208309152156
 42
0.0
 10
195.7280146888976
 20
17.11086769610301
 42
0.0
 10
195.5295339331709
 20
17.26965230068444
 42
0.0
 10
196.5616338629503
 20
17.94448687015566
 42
0.0
 10
196.3234569560781
 20
18.30175223046398
 42
0.0
 97
        0
 92
        3
 72
     1
 73
     1
 93
        4
 10
194.8546993636996
 20
16.51542542892257
 42
0.0
 10
194.8546993636996
 20
16.07876776632353
 42
0.0
 10
194.1401686430831
 20
16.07876776632353
 42
0.0
 10
194.1401686430831
 20
16.51542542892257
 42
0.0
 97
        0
 92
        3
 72
     1
 73
     1
 93
        4
 10
194.8546993636996
 20
15.68180625486987
 42
0.0
 10
194.8546993636996
 20
15.20545244112552
 42
0.0
 10
194.1401686430831
 20
15.20545244112552
 42
0.0
 10
194.1401686430831
 20
15.68180625486987
 42
0.0
 97
        0
 92
        3
 72
     1
 73
     1
 93
        4
 10
196.2440646537874
 20
16.51542542892257
 42
0.0
 10
196.2440646537874
 20
16.07876776632353
 42
0.0
 10
195.331053177444
 20
16.07876776632353
 42
0.0
 10
195.331053177444
 20
16.51542542892257
 42
0.0
 97
        0
 92
        3
 72
     1
 73
     1
 93
        4
 10
196.2440646537874
 20
15.68180625486987
 42
0.0
 10
196.2440646537874
 20
15.20545244112552
 42
0.0
 10
195.331053177444
 20
15.20545244112552
 42
0.0
 10
195.331053177444
 20
15.68180625486987
 42
0.0
 97
        0
 75
     0
 76
     1
 98
        0
  0
HATCH
  5
363
330
1F
100
AcDbEntity
  8
0
 62
     7
100
AcDbHatch
 10
0.0
 20
0.0
 30
0.0
210
0.0
220
0.0
230
1.0
  2
SOLID
 70
     1
 71
     0
 91
        1
 92
        3
 72
     1
 73
     1
 93
       29
 10
168.9359379194146
 20
19.01161882808067
 42
0.0
 10
168.8255945280757
 20
18.85442206954504
 42
0.0
 10
168.5576177205388
 20
18.38283179393812
 42
0.0
 10
168.1635341800432
 20
17.64924692077174
 42
0.0
 10
167.9428473973656
 20
17.19512295166878
 42
0.0
 10
167.6906339314485
 20
16.70606636955792
 42
0.0
 10
167.4384204655313
 20
16.14714456143116
 42
0.0
 10
167.1862069996141
 20
15.5707564468005
 42
0.0
 10
166.9339935336969
 20
14.95943571916191
 42
0.0
 10
166.6975434093995
 20
14.31318237851534
 42
0.0
 10
166.4610932851022
 20
13.64946273136485
 42
0.0
 10
166.2561698440445
 20
12.95081047120643
 42
0.0
 10
166.0827730862263
 20
12.25215821104801
 42
0.0
 10
165.9251396700281
 20
11.5535059508896
 42
0.0
 10
165.9251396700281
 20
11.51857333788167
 42
0.0
 10
165.940903011648
 20
11.51857333788166
 42
0.0
 10
165.9566663532678
 20
11.57097225739354
 42
0.0
 10
166.0827730862264
 20
11.93776469397672
 42
0.0
 10
166.2876965272841
 20
12.54908542161535
 42
0.0
 10
166.5872000180607
 20
13.33506921429356
 42
0.0
 10
166.9655202169366
 20
14.29571607201135
 42
0.0
 10
167.186206999614
 20
14.81970526713018
 42
0.0
 10
167.4541838071511
 20
15.36116076875296
 42
0.0
 10
167.7221606146882
 20
15.93754888338363
 42
0.0
 10
168.0374274470846
 20
16.53140330451834
 42
0.0
 10
168.3684576211009
 20
17.14272403215692
 42
0.0
 10
168.715251136737
 20
17.77151106629947
 42
0.0
 10
169.1093346772327
 20
18.40029810044207
 42
0.0
 10
169.5191815593481
 20
19.02908513458464
 42
0.0
 97
        0
 75
     0
 76
     1
 98
        0
  0
HATCH
  5
364
330
1F
100
AcDbEntity
  8
0
 62
     7
100
AcDbHatch
 10
0.0
 20
0.0
 30
0.0
210
0.0
220
0.0
230
1.0
  2
SOLID
 70
     1
 71
     0
 91
        1
 92
        3
 72
     1
 73
     1
 93
       29
 10
169.8616521641244
 20
19.01161882808071
 42
0.0
 10
169.7513087727857
 20
18.85442206954504
 42
0.0
 10
169.4833319652487
 20
18.38283179393814
 42
0.0
 10
169.0892484247532
 20
17.64924692077175
 42
0.0
 10
168.8685616420755
 20
17.19512295166881
 42
0.0
 10
168.6163481761584
 20
16.70606636955792
 42
0.0
 10
168.3641347102412
 20
16.14714456143118
 42
0.0
 10
168.111921244324
 20
15.57075644680048
 42
0.0
 10
167.8597077784068
 20
14.95943571916189
 42
0.0
 10
167.6232576541095
 20
14.31318237851534
 42
0.0
 10
167.3868075298121
 20
13.64946273136484
 42
0.0
 10
167.1818840887544
 20
12.95081047120642
 42
0.0
 10
167.0084873309362
 20
12.25215821104801
 42
0.0
 10
166.8508539147381
 20
11.5535059508896
 42
0.0
 10
166.8508539147381
 20
11.51857333788167
 42
0.0
 10
166.8666172563579
 20
11.51857333788167
 42
0.0
 10
166.8823805979777
 20
11.57097225739357
 42
0.0
 10
167.0084873309363
 20
11.93776469397672
 42
0.0
 10
167.2134107719939
 20
12.54908542161536
 42
0.0
 10
167.5129142627706
 20
13.33506921429356
 42
0.0
 10
167.8912344616465
 20
14.29571607201135
 42
0.0
 10
168.1119212443239
 20
14.8197052671302
 42
0.0
 10
168.3798980518611
 20
15.36116076875296
 42
0.0
 10
168.6478748593981
 20
15.93754888338364
 42
0.0
 10
168.9631416917945
 20
16.53140330451834
 42
0.0
 10
169.2941718658108
 20
17.14272403215693
 42
0.0
 10
169.6409653814469
 20
17.7715110662995
 42
0.0
 10
170.0350489219425
 20
18.40029810044207
 42
0.0
 10
170.444895804058
 20
19.02908513458464
 42
0.0
 97
        0
 75
     0
 76
     1
 98
        0
  0
HATCH
  5
365
330
1F
100
AcDbEntity
  8
0
 62
     7
100
AcDbHatch
 10
0.0
 20
0.0
 30
0.0
210
0.0
220
0.0
230
1.0
  2
SOLID
 70
     1
 71
     0
 91
        1
 92
        3
 72
     1
 73
     1
 93
       29
 10
170.7873664088344
 20
19.0116188280807
 42
0.0
 10
170.6770230174955
 20
18.85442206954504
 42
0.0
 10
170.4090462099586
 20
18.38283179393812
 42
0.0
 10
170.0149626694629
 20
17.64924692077179
 42
0.0
 10
169.7942758867855
 20
17.19512295166881
 42
0.0
 10
169.5420624208683
 20
16.70606636955793
 42
0.0
 10
169.2898489549511
 20
16.14714456143118
 42
0.0
 10
169.037635489034
 20
15.57075644680049
 42
0.0
 10
168.7854220231167
 20
14.95943571916188
 42
0.0
 10
168.5489718988194
 20
14.31318237851532
 42
0.0
 10
168.3125217745219
 20
13.64946273136486
 42
0.0
 10
168.1075983334643
 20
12.95081047120642
 42
0.0
 10
167.9342015756461
 20
12.25215821104801
 42
0.0
 10
167.7765681594479
 20
11.5535059508896
 42
0.0
 10
167.7765681594479
 20
11.51857333788167
 42
0.0
 10
167.7923315010678
 20
11.51857333788166
 42
0.0
 10
167.8080948426876
 20
11.57097225739356
 42
0.0
 10
167.9342015756462
 20
11.93776469397672
 42
0.0
 10
168.1391250167039
 20
12.54908542161537
 42
0.0
 10
168.4386285074806
 20
13.33506921429355
 42
0.0
 10
168.8169487063564
 20
14.29571607201137
 42
0.0
 10
169.0376354890339
 20
14.8197052671302
 42
0.0
 10
169.305612296571
 20
15.36116076875293
 42
0.0
 10
169.573589104108
 20
15.93754888338363
 42
0.0
 10
169.8888559365044
 20
16.53140330451831
 42
0.0
 10
170.2198861105207
 20
17.14272403215693
 42
0.0
 10
170.5666796261569
 20
17.7715110662995
 42
0.0
 10
170.9607631666524
 20
18.40029810044209
 42
0.0
 10
171.3706100487679
 20
19.02908513458465
 42
0.0
 97
        0
 75
     0
 76
     1
 98
        0
  0
HATCH
  5
366
330
1F
100
AcDbEntity
  8
0
 62
     7
100
AcDbHatch
 10
0.0
 20
0.0
 30
0.0
210
0.0
220
0.0
230
1.0
  2
SOLID
 70
     1
 71
     0
 91
        1
 92
        3
 72
     1
 73
     1
 93
       29
 10
171.7130806535444
 20
19.01161882808069
 42
0.0
 10
171.6027372622054
 20
18.85442206954504
 42
0.0
 10
171.3347604546685
 20
18.38283179393811
 42
0.0
 10
170.9406769141729
 20
17.64924692077174
 42
0.0
 10
170.7199901314954
 20
17.19512295166881
 42
0.0
 10
170.4677766655782
 20
16.70606636955792
 42
0.0
 10
170.215563199661
 20
16.14714456143117
 42
0.0
 10
169.9633497337439
 20
15.57075644680049
 42
0.0
 10
169.7111362678266
 20
14.95943571916189
 42
0.0
 10
169.4746861435293
 20
14.31318237851531
 42
0.0
 10
169.2382360192319
 20
13.64946273136484
 42
0.0
 10
169.0333125781742
 20
12.95081047120641
 42
0.0
 10
168.859915820356
 20
12.25215821104801
 42
0.0
 10
168.7022824041579
 20
11.5535059508896
 42
0.0
 10
168.7022824041579
 20
11.51857333788167
 42
0.0
 10
168.7180457457777
 20
11.51857333788166
 42
0.0
 10
168.7338090873975
 20
11.57097225739356
 42
0.0
 10
168.8599158203562
 20
11.93776469397671
 42
0.0
 10
169.0648392614137
 20
12.54908542161537
 42
0.0
 10
169.3643427521905
 20
13.33506921429353
 42
0.0
 10
169.7426629510663
 20
14.29571607201139
 42
0.0
 10
169.9633497337438
 20
14.81970526713022
 42
0.0
 10
170.2313265412809
 20
15.36116076875297
 42
0.0
 10
170.4993033488178
 20
15.93754888338367
 42
0.0
 10
170.8145701812143
 20
16.53140330451831
 42
0.0
 10
171.1456003552306
 20
17.14272403215693
 42
0.0
 10
171.4923938708667
 20
17.7715110662995
 42
0.0
 10
171.8864774113623
 20
18.40029810044209
 42
0.0
 10
172.2963242934778
 20
19.02908513458464
 42
0.0
 97
        0
 75
     0
 76
     1
 98
        0
  0
INSERT
  5
367
330
1F
100
AcDbEntity
  8
0
 62
     7
100
AcDbBlockReference
  2
DTL0001
 10
231.4463263037851
 20
229.7769956075599
 30
0.0
 41
0.083333333333333
 42
0.083333333333333
 43
0.083333333333333
  0
INSERT
  5
368
330
1F
100
AcDbEntity
  8
0
 62
     7
100
AcDbBlockReference
  2
DTL0001
 10
233.1129929456165
 20
229.7769956075599
 30
0.0
 41
0.083333333333333
 42
0.083333333333333
 43
0.083333333333333
  0
INSERT
  5
369
330
1F
100
AcDbEntity
  8
0
 62
     7
100
AcDbBlockReference
  2
DTL0001
 10
242.4463363123983
 20
229.7769956075599
 30
0.0
 41
0.083333333333333
 42
0.083333333333333
 43
0.083333333333333
  0
INSERT
  5
36A
330
1F
100
AcDbEntity
  8
0
 62
     7
100
AcDbBlockReference
  2
DTL0001
 10
244.1130029542297
 20
229.7769956075599
 30
0.0
 41
0.083333333333333
 42
0.083333333333333
 43
0.083333333333333
  0
INSERT
  5
36B
330
1F
100
AcDbEntity
  8
0
 62
     7
100
AcDbBlockReference
  2
DTL0001
 10
246.1963362565189
 20
229.7769956075599
 30
0.0
 41
0.083333333333333
 42
0.083333333333333
 43
0.083333333333333
  0
INSERT
  5
36C
330
1F
100
AcDbEntity
  8
0
 62
     7
100
AcDbBlockReference
  2
DTL0001
 10
247.8630028983503
 20
229.7769956075599
 30
0.0
 41
0.083333333333333
 42
0.083333333333333
 43
0.083333333333333
  0
INSERT
  5
36D
330
1F
100
AcDbEntity
  8
0
 62
     7
100
AcDbBlockReference
  2
DTL0001
 10
231.4463263037851
 20
161.0269966320148
 30
0.0
 41
0.083333333333333
 42
0.083333333333333
 43
0.083333333333333
  0
INSERT
  5
36E
330
1F
100
AcDbEntity
  8
0
 62
     7
100
AcDbBlockReference
  2
DTL0001
 10
233.1129929456165
 20
161.0269966320148
 30
0.0
 41
0.083333333333333
 42
0.083333333333333
 43
0.083333333333333
  0
INSERT
  5
36F
330
1F
100
AcDbEntity
  8
0
 62
     7
100
AcDbBlockReference
  2
DTL0001
 10
242.4463363123983
 20
161.0269966320148
 30
0.0
 41
0.083333333333333
 42
0.083333333333333
 43
0.083333333333333
  0
INSERT
  5
370
330
1F
100
AcDbEntity
  8
0
 62
     7
100
AcDbBlockReference
  2
DTL0001
 10
244.1130029542297
 20
161.0269966320148
 30
0.0
 41
0.083333333333333
 42
0.083333333333333
 43
0.083333333333333
  0
INSERT
  5
371
330
1F
100
AcDbEntity
  8
0
 62
     7
100
AcDbBlockReference
  2
DTL0001
 10
246.1963362565189
 20
161.0269966320148
 30
0.0
 41
0.083333333333333
 42
0.083333333333333
 43
0.083333333333333
  0
INSERT
  5
372
330
1F
100
AcDbEntity
  8
0
 62
     7
100
AcDbBlockReference
  2
DTL0001
 10
247.8630028983503
 20
161.0269966320148
 30
0.0
 41
0.083333333333333
 42
0.083333333333333
 43
0.083333333333333
  0
INSERT
  5
373
330
1F
100
AcDbEntity
  8
0
 62
     7
100
AcDbBlockReference
  2
DTL0001
 10
231.4463263037851
 20
106.0269974515786
 30
0.0
 41
0.083333333333333
 42
0.083333333333333
 43
0.083333333333333
  0
INSERT
  5
374
330
1F
100
AcDbEntity
  8
0
 62
     7
100
AcDbBlockReference
  2
DTL0001
 10
233.1129929456165
 20
106.0269974515786
 30
0.0
 41
0.083333333333333
 42
0.083333333333333
 43
0.083333333333333
  0
INSERT
  5
375
330
1F
100
AcDbEntity
  8
0
 62
     7
100
AcDbBlockReference
  2
DTL0001
 10
242.4463363123983
 20
106.0269974515786
 30
0.0
 41
0.083333333333333
 42
0.083333333333333
 43
0.083333333333333
  0
INSERT
  5
376
330
1F
100
AcDbEntity
  8
0
 62
     7
100
AcDbBlockReference
  2
DTL0001
 10
244.1130029542297
 20
106.0269974515786
 30
0.0
 41
0.083333333333333
 42
0.083333333333333
 43
0.083333333333333
  0
INSERT
  5
377
330
1F
100
AcDbEntity
  8
0
 62
     7
100
AcDbBlockReference
  2
DTL0001
 10
246.1963362565189
 20
106.0269974515786
 30
0.0
 41
0.083333333333333
 42
0.083333333333333
 43
0.083333333333333
  0
INSERT
  5
378
330
1F
100
AcDbEntity
  8
0
 62
     7
100
AcDbBlockReference
  2
DTL0001
 10
247.8630028983503
 20
106.0269974515786
 30
0.0
 41
0.083333333333333
 42
0.083333333333333
 43
0.083333333333333
  0
DIMENSION
  5
379
330
1F
100
AcDbEntity
  8
0
 62
     7
100
AcDbDimension
  2
*D3
 10
141.6837625778899
 20
217.7769881569795
 30
0.0
 11
141.6837625778899
 21
225.2780007608781
 31
0.0
 70
   160
  1
180
 71
     5
 42
14.99999977648258
  3
ISO-25
100
AcDbAlignedDimension
 13
124.9879945568046
 23
232.776987933462
 33
0.0
 14
120.4046613724829
 24
217.7769881569795
 34
0.0
 50
90.00000000000001
100
AcDbRotatedDimension
1001
ACAD
1000
DSTYLE
1002
{
1070
   278
1070
    46
1070
   147
1040
0.675000011920929
1070
    77
1070
     1
1070
    74
1070
     0
1070
    73
1070
     0
1070
    42
1040
2.54
1070
    44
1040
1.905008923436071
1070
    76
1070
     0
1070
    75
1070
     1
1070
   279
1070
     0
1070
   271
1070
     0
1070
   173
1070
     1
1070
    41
1040
3.114
1070
   140
1040
2.700000047683716
1070
   344
1005
37A
1070
   343
1005
37A
1002
}
  0
DIMENSION
  5
38C
330
1F
100
AcDbEntity
  8
0
 62
     7
100
AcDbDimension
  2
*D4
 10
154.0403297765752
 20
97.77700266077609
 30
0.0
 11
154.0403297765752
 21
165.2780016549478
 31
0.0
 70
   160
  1
（端子板または試験弾器）　１６２０　（１８０×９）
 71
     5
 42
134.9999852726859
  3
ISO-25
100
AcDbAlignedDimension
 13
120.4046613724829
 23
232.776987933462
 33
0.0
 14
120.4046613724829
 24
97.77700266077613
 34
0.0
 50
90.00000000000001
100
AcDbRotatedDimension
1001
ACAD
1000
DSTYLE
1002
{
1070
   278
1070
    46
1070
   147
1040
0.675000011920929
1070
    77
1070
     1
1070
    74
1070
     0
1070
    73
1070
     0
1070
    42
1040
2.54
1070
    44
1040
1.905008923436071
1070
    76
1070
     0
1070
    75
1070
     0
1070
   279
1070
     0
1070
   271
1070
     0
1070
   173
1070
     1
1070
    41
1040
3.114
1070
   140
1040
2.700000047683716
1070
   344
1005
37A
1070
   343
1005
37A
1002
}
  0
DIMENSION
  5
399
330
1F
100
AcDbEntity
  8
0
 62
     7
100
AcDbDimension
  2
*D5
 10
180.0531869125388
 20
245.2769877471975
 30
0.0
 11
180.0531869125388
 21
161.9446556556276
 31
0.0
 70
   160
  1
2000
 71
     5
 42
166.6666641831398
  3
ISO-25
100
AcDbAlignedDimension
 13
113.2884199427304
 23
78.6103235640577
 33
0.0
 14
133.4996267135
 24
245.2769877471975
 34
0.0
 50
270.0
100
AcDbRotatedDimension
1001
ACAD
1000
DSTYLE
1002
{
1070
   278
1070
    46
1070
   147
1040
0.675000011920929
1070
    77
1070
     1
1070
    74
1070
     0
1070
    73
1070
     0
1070
    42
1040
2.54
1070
    44
1040
0.000012715657363
1070
    76
1070
     0
1070
    75
1070
     0
1070
   279
1070
     0
1070
   271
1070
     0
1070
   173
1070
     1
1070
    41
1040
3.114
1070
   140
1040
2.700000047683716
1070
   344
1005
37A
1070
   343
1005
37A
1002
}
  0
INSERT
  5
3AC
330
1F
100
AcDbEntity
  8
0
 62
     7
100
AcDbBlockReference
  2
SYM0001
 10
132.2667875975704
 20
245.4675749928435
 30
0.0
  0
INSERT
  5
3B5
330
1F
100
AcDbEntity
  8
0
 62
     7
100
AcDbBlockReference
  2
SYM0002
 10
245.1546584580748
 20
239.7737462321817
 30
0.0
  0
INSERT
  5
3BE
330
1F
100
AcDbEntity
  8
0
 62
     7
100
AcDbBlockReference
  2
SYM0003
 10
241.0540442429003
 20
204.7561575293904
 30
0.0
  0
INSERT
  5
3C7
330
1F
100
AcDbEntity
  8
0
 62
     7
100
AcDbBlockReference
  2
SYM0004
 10
237.1546548365238
 20
187.7770442441184
 30
0.0
  0
DIMENSION
  5
3CA
330
1F
100
AcDbEntity
  8
0
 62
     7
100
AcDbDimension
  2
*D10
 10
203.9063836052043
 20
229.7769956075599
 30
0.0
 11
203.9063836052043
 21
237.5279916773788
 31
0.0
 70
   160
  1
186
 71
     5
 42
15.49999213963759
  3
ISO-25
100
AcDbAlignedDimension
 13
230.487998070995
 23
245.2769877471975
 33
0.0
 14
230.487998070995
 24
229.7769956075599
 34
0.0
 50
90.00000000000001
100
AcDbRotatedDimension
1001
ACAD
1000
DSTYLE
1002
{
1070
   278
1070
    46
1070
   147
1040
0.675000011920929
1070
    77
1070
     1
1070
    74
1070
     0
1070
    73
1070
     0
1070
    42
1040
2.54
1070
    44
1040
1.499999977648258
1070
    76
1070
     0
1070
    75
1070
     0
1070
   279
1070
     0
1070
   271
1070
     0
1070
   173
1070
     1
1070
    41
1040
3.114
1070
   140
1040
2.700000047683716
1070
   344
1005
37A
1070
   343
1005
37A
1002
}
  0
DIMENSION
  5
3D7
330
1F
100
AcDbEntity
  8
0
 62
     7
100
AcDbDimension
  2
*D11
 10
203.9063836052043
 20
161.0269966320148
 30
0.0
 11
203.9063836052043
 21
195.4029961197874
 31
0.0
 70
   160
  1
825
 71
     5
 42
68.74999897554517
  3
ISO-25
100
AcDbAlignedDimension
 13
231.4463263037852
 23
229.7769956075599
 33
0.0
 14
230.487998070995
 24
161.0269966320148
 34
0.0
 50
90.00000000000001
100
AcDbRotatedDimension
1001
ACAD
1000
DSTYLE
1002
{
1070
   278
1070
    46
1070
   147
1040
0.675000011920929
1070
    77
1070
     1
1070
    74
1070
     0
1070
    73
1070
     0
1070
    42
1040
2.54
1070
    44
1040
1.499999977648258
1070
    76
1070
     0
1070
    75
1070
     1
1070
   279
1070
     0
1070
   271
1070
     0
1070
   173
1070
     1
1070
    41
1040
3.114
1070
   140
1040
2.700000047683716
1070
   344
1005
37A
1070
   343
1005
37A
1002
}
  0
DIMENSION
  5
3E3
330
1F
100
AcDbEntity
  8
0
 62
     7
100
AcDbDimension
  2
*D12
 10
203.9063836052043
 20
106.0269974515786
 30
0.0
 11
203.9063836052043
 21
133.5279970417967
 31
0.0
 70
   160
  1
660
 71
     5
 42
54.99999918043616
  3
ISO-25
100
AcDbAlignedDimension
 13
231.4463263037852
 23
161.0269966320148
 33
0.0
 14
230.487998070995
 24
106.0269974515786
 34
0.0
 50
90.00000000000001
100
AcDbRotatedDimension
1001
ACAD
1000
DSTYLE
1002
{
1070
   278
1070
    46
1070
   147
1040
0.675000011920929
1070
    77
1070
     1
1070
    74
1070
     0
1070
    73
1070
     0
1070
    42
1040
2.54
1070
    44
1040
1.499999977648258
1070
    76
1070
     0
1070
    75
1070
     1
1070
   279
1070
     0
1070
   271
1070
     0
1070
   173
1070
     1
1070
    41
1040
3.114
1070
   140
1040
2.700000047683716
1070
   344
1005
37A
1070
   343
1005
37A
1002
}
  0
DIMENSION
  5
3EF
330
1F
100
AcDbEntity
  8
0
 62
     7
100
AcDbDimension
  2
*D13
 10
203.9063836052043
 20
78.61032356405768
 30
0.0
 11
203.9063836052043
 21
92.31966050781814
 31
0.0
 70
   160
  1
329
 71
     5
 42
27.41667388752092
  3
ISO-25
100
AcDbAlignedDimension
 13
231.4463263037852
 23
106.0269974515786
 33
0.0
 14
230.1560558355442
 24
78.6103235640577
 34
0.0
 50
90.00000000000001
100
AcDbRotatedDimension
1001
ACAD
1000
DSTYLE
1002
{
1070
   278
1070
    46
1070
   147
1040
0.675000011920929
1070
    77
1070
     1
1070
    74
1070
     0
1070
    73
1070
     0
1070
    42
1040
2.54
1070
    44
1040
23.72498535258791
1070
    76
1070
     0
1070
    75
1070
     1
1070
   279
1070
     0
1070
   271
1070
     0
1070
   173
1070
     1
1070
    41
1040
3.114
1070
   140
1040
2.700000047683716
1070
   344
1005
37A
1070
   343
1005
37A
1002
}
  0
DIMENSION
  5
3FB
330
1F
100
AcDbEntity
  8
0
 62
     7
100
AcDbDimension
  2
*D14
 10
233.6546672336061
 20
67.63371854371749
 30
0.0
 11
221.232619613707
 21
67.63371854371749
 31
0.0
 70
   160
  1
40
 71
     5
 42
3.333333283662796
  3
ISO-25
100
AcDbAlignedDimension
 13
230.3213339499434
 23
78.61032356405768
 33
0.0
 14
233.6546672336061
 24
78.61032356405768
 34
0.0
 50
180.0
100
AcDbRotatedDimension
1001
ACAD
1000
DSTYLE
1002
{
1070
   278
1070
    46
1070
   147
1040
0.675000011920929
1070
    77
1070
     1
1070
    74
1070
     0
1070
    73
1070
     0
1070
    42
1040
2.54
1070
    44
1040
1.800000000000011
1070
    76
1070
     0
1070
    75
1070
     1
1070
   279
1070
     0
1070
   271
1070
     0
1070
   173
1070
     1
1070
    41
1040
3.114
1070
   140
1040
2.700000047683716
1070
   344
1005
37A
1070
   343
1005
37A
1002
}
  0
DIMENSION
  5
411
330
1F
100
AcDbEntity
  8
0
 62
     7
100
AcDbDimension
  2
*D16
 10
86.15465671587003
 20
59.7070479515883
 30
0.0
 11
75.739757017841
 21
59.7070479515883
 31
0.0
 70
   160
  1
19
 71
     5
 42
1.583328223476883
  3
ISO-25
100
AcDbAlignedDimension
 13
84.57132849239315
 23
78.61032356405768
 33
0.0
 14
86.15465671587003
 24
78.61032356405768
 34
0.0
 50
180.0
100
AcDbRotatedDimension
1001
ACAD
1000
DSTYLE
1002
{
1070
   278
1070
    46
1070
   147
1040
0.675000011920929
1070
    77
1070
     1
1070
    74
1070
     0
1070
    73
1070
     0
1070
    42
1040
2.54
1070
    44
1040
1.799999999999997
1070
    76
1070
     0
1070
    75
1070
     1
1070
   279
1070
     0
1070
   271
1070
     0
1070
   173
1070
     1
1070
    41
1040
3.114
1070
   140
1040
2.700000047683716
1070
   344
1005
412
1070
   343
1005
37A
1002
}
  0
DIMENSION
  5
427
330
1F
100
AcDbEntity
  8
0
 62
     7
100
AcDbDimension
  2
*D17
 10
112.1546665009658
 20
59.7070479515883
 30
0.0
 11
99.15566160841789
 21
59.7070479515883
 31
0.0
 70
   160
  1
312
 71
     5
 42
26.00000978509573
  3
ISO-25
100
AcDbAlignedDimension
 13
86.15465671587003
 23
78.61032356405768
 33
0.0
 14
112.1546665009658
 24
78.61032356405768
 34
0.0
 50
180.0
100
AcDbRotatedDimension
1001
ACAD
1000
DSTYLE
1002
{
1070
   278
1070
    46
1070
   147
1040
0.675000011920929
1070
    77
1070
     1
1070
    74
1070
     0
1070
    73
1070
     0
1070
    42
1040
2.54
1070
    44
1040
1.904999386693035
1070
    76
1070
     0
1070
    75
1070
     1
1070
   279
1070
     0
1070
   271
1070
     0
1070
   173
1070
     1
1070
    41
1040
3.114
1070
   140
1040
2.700000047683716
1070
   344
1005
37A
1070
   343
1005
37A
1002
}
  0
DIMENSION
  5
433
330
1F
100
AcDbEntity
  8
0
 62
     7
100
AcDbDimension
  2
*D18
 10
113.7379947244426
 20
59.7070479515883
 30
0.0
 11
122.5695661989948
 21
59.7070479515883
 31
0.0
 70
   160
  1
19
 71
     5
 42
1.583328223476883
  3
ISO-25
100
AcDbAlignedDimension
 13
112.1546665009658
 23
78.61032356405768
 33
0.0
 14
113.7379947244426
 24
78.61032356405768
 34
0.0
 50
180.0
100
AcDbRotatedDimension
1001
ACAD
1000
DSTYLE
1002
{
1070
   278
1070
    46
1070
   147
1040
0.675000011920929
1070
    77
1070
     1
1070
    74
1070
     0
1070
    73
1070
     0
1070
    42
1040
2.54
1070
    44
1040
1.799999999999997
1070
    76
1070
     1
1070
    75
1070
     1
1070
   279
1070
     0
1070
   271
1070
     0
1070
   173
1070
     1
1070
    41
1040
3.114
1070
   140
1040
2.700000047683716
1070
   344
1005
37A
1070
   343
1005
412
1002
}
  0
DIMENSION
  5
444
330
1F
100
AcDbEntity
  8
0
 62
     7
100
AcDbDimension
  2
*D19
 10
84.57132849239315
 20
49.34140301530952
 30
0.0
 11
99.15666160841792
 21
49.34140301530952
 31
0.0
 70
   160
  1
350
 71
     5
 42
29.16666623204949
  3
ISO-25
100
AcDbAlignedDimension
 13
113.7379947244426
 23
78.61032356405768
 33
0.0
 14
84.57132849239315
 24
78.61032356405768
 34
0.0
100
AcDbRotatedDimension
1001
ACAD
1000
DSTYLE
1002
{
1070
   278
1070
    46
1070
   147
1040
0.675000011920929
1070
    77
1070
     1
1070
    74
1070
     0
1070
    73
1070
     0
1070
    42
1040
2.54
1070
    44
1040
1.799999999999997
1070
    76
1070
     0
1070
    75
1070
     0
1070
   279
1070
     0
1070
   271
1070
     0
1070
   173
1070
     1
1070
    41
1040
3.114
1070
   140
1040
2.700000047683716
1070
   344
1005
37A
1070
   343
1005
37A
1002
}
  0
DIMENSION
  5
451
330
1F
100
AcDbEntity
  8
0
 62
     7
100
AcDbDimension
  2
*D20
 10
154.0413297765752
 20
232.776987933462
 30
0.0
 11
154.0413297765752
 21
239.0279941981585
 31
0.0
 70
   160
  1
150
 71
     5
 42
12.49999981373549
  3
ISO-25
100
AcDbAlignedDimension
 13
133.4996267135
 23
245.2769877471975
 33
0.0
 14
155.9443387000113
 24
232.776987933462
 34
0.0
 50
90.00000000000001
100
AcDbRotatedDimension
1001
ACAD
1000
DSTYLE
1002
{
1070
   278
1070
    46
1070
   147
1040
0.675000011920929
1070
    77
1070
     1
1070
    74
1070
     0
1070
    73
1070
     0
1070
    42
1040
2.54
1070
    44
1040
1.800000000000011
1070
    76
1070
     1
1070
    75
1070
     1
1070
   279
1070
     0
1070
   271
1070
     0
1070
   173
1070
     1
1070
    41
1040
3.114
1070
   140
1040
2.700000047683716
1070
   344
1005
37A
1070
   343
1005
37A
1002
}
  0
DIMENSION
  5
45C
330
1F
100
AcDbEntity
  8
0
 62
     7
100
AcDbDimension
  2
*D21
 10
154.0413297765752
 20
78.6103235640577
 30
0.0
 11
154.0413297765752
 21
88.1946631124169
 31
0.0
 70
   160
  1
230
 71
     5
 42
19.16667909671843
  3
ISO-25
100
AcDbAlignedDimension
 13
155.9443387000113
 23
97.77700266077613
 33
0.0
 14
128.5713176642162
 24
78.6103235640577
 34
0.0
 50
90.00000000000001
100
AcDbRotatedDimension
1001
ACAD
1000
DSTYLE
1002
{
1070
   278
1070
    46
1070
   147
1040
0.675000011920929
1070
    77
1070
     1
1070
    74
1070
     0
1070
    73
1070
     0
1070
    42
1040
2.54
1070
    44
1040
1.800000000000011
1070
    76
1070
     1
1070
    75
1070
     1
1070
   279
1070
     0
1070
   271
1070
     0
1070
   173
1070
     1
1070
    41
1040
3.114
1070
   140
1040
2.700000047683716
1070
   344
1005
37A
1070
   343
1005
37A
1002
}
  0
DIMENSION
  5
467
330
1F
100
AcDbEntity
  8
0
 62
     7
100
AcDbDimension
  2
*D22
 10
59.90370707451739
 20
231.9436546125463
 30
0.0
 11
59.90370707451738
 21
238.6113275377006
 31
0.0
 70
   160
  1
160
 71
     5
 42
13.33333313465119
  3
ISO-25
100
AcDbAlignedDimension
 13
84.30465572618462
 23
245.2769877471975
 33
0.0
 14
84.57132849239318
 24
231.9436546125463
 34
0.0
 50
90.00000000000001
100
AcDbRotatedDimension
1001
ACAD
1000
DSTYLE
1002
{
1070
   278
1070
    46
1070
   147
1040
0.675000011920929
1070
    77
1070
     1
1070
    74
1070
     0
1070
    73
1070
     0
1070
    42
1040
2.54
1070
    44
1040
1.905008923436036
1070
    76
1070
     0
1070
    75
1070
     0
1070
   279
1070
     0
1070
   271
1070
     0
1070
   173
1070
     1
1070
    41
1040
3.114
1070
   140
1040
2.700000047683716
1070
   344
1005
37A
1070
   343
1005
37A
1002
}
  0
DIMENSION
  5
474
330
1F
100
AcDbEntity
  8
0
 62
     7
100
AcDbDimension
  2
*D23
 10
59.90370707451741
 20
108.193656456565
 30
0.0
 11
59.90370707451738
 21
170.0696618923844
 31
0.0
 70
   160
  1
１４８５　（１６５×９）
 71
     5
 42
123.7499981559813
  3
ISO-25
100
AcDbAlignedDimension
 13
84.57132849239318
 23
231.9436546125463
 33
0.0
 14
84.57132849239318
 24
108.193656456565
 34
0.0
 50
90.00000000000001
100
AcDbRotatedDimension
1001
ACAD
1000
DSTYLE
1002
{
1070
   278
1070
    46
1070
   147
1040
0.675000011920929
1070
    77
1070
     1
1070
    74
1070
     0
1070
    73
1070
     0
1070
    42
1040
2.54
1070
    44
1040
1.905008923436036
1070
    76
1070
     0
1070
    75
1070
     1
1070
   279
1070
     0
1070
   271
1070
     0
1070
   173
1070
     1
1070
    41
1040
3.114
1070
   140
1040
2.700000047683716
1070
   344
1005
37A
1070
   343
1005
37A
1002
}
  0
DIMENSION
  5
480
330
1F
100
AcDbEntity
  8
0
 62
     7
100
AcDbDimension
  2
*D24
 10
59.90370707451739
 20
78.6103235640577
 30
0.0
 11
59.90370707451738
 21
93.40299001031134
 31
0.0
 70
   160
  1
355
 71
     5
 42
29.58333289250731
  3
ISO-25
100
AcDbAlignedDimension
 13
84.57132849239318
 23
108.193656456565
 33
0.0
 14
82.73798501385275
 24
78.6103235640577
 34
0.0
 50
90.00000000000001
100
AcDbRotatedDimension
1001
ACAD
1000
DSTYLE
1002
{
1070
   278
1070
    46
1070
   147
1040
0.675000011920929
1070
    77
1070
     1
1070
    74
1070
     0
1070
    73
1070
     0
1070
    42
1040
2.54
1070
    44
1040
1.905008923436036
1070
    76
1070
     0
1070
    75
1070
     1
1070
   279
1070
     0
1070
   271
1070
     0
1070
   173
1070
     1
1070
    41
1040
3.114
1070
   140
1040
2.700000047683716
1070
   344
1005
37A
1070
   343
1005
37A
1002
}
  0
DIMENSION
  5
48C
330
1F
100
AcDbEntity
  8
0
 62
     7
100
AcDbDimension
  2
*D25
 10
72.9106292846705
 20
218.1936548174373
 30
0.0
 11
72.9106292846705
 21
225.0696547149918
 31
0.0
 70
   160
  1
165
 71
     5
 42
13.74999979510903
  3
ISO-25
100
AcDbAlignedDimension
 13
84.57132849239318
 23
231.9436546125463
 33
0.0
 14
84.57132849239318
 24
218.1936548174373
 34
0.0
 50
90.00000000000001
100
AcDbRotatedDimension
1001
ACAD
1000
DSTYLE
1002
{
1070
   278
1070
    46
1070
   147
1040
0.675000011920929
1070
    77
1070
     1
1070
    74
1070
     0
1070
    73
1070
     0
1070
    42
1040
2.54
1070
    44
1040
1.905008923436043
1070
    76
1070
     0
1070
    75
1070
     1
1070
   279
1070
     0
1070
   271
1070
     0
1070
   173
1070
     1
1070
    41
1040
3.114
1070
   140
1040
2.700000047683716
1070
   344
1005
37A
1070
   343
1005
37A
1002
}
  0
INSERT
  5
49E
330
1F
100
AcDbEntity
  8
0
 62
     7
100
AcDbBlockReference
  2
SYM0005
 10
233.6233870807962
 20
78.53302306578254
 30
0.0
  0
INSERT
  5
4A7
330
1F
100
AcDbEntity
  8
0
 62
     7
100
AcDbBlockReference
  2
SYM0006
 10
246.4445187266925
 20
79.11033233397696
 30
0.0
  0
INSERT
  5
4B0
330
1F
100
AcDbEntity
  8
0
 62
     7
100
AcDbBlockReference
  2
SYM0007
 10
111.8692414612308
 20
245.2769924562484
 30
0.0
  0
INSERT
  5
4B9
330
1F
100
AcDbEntity
  8
0
 62
     7
100
AcDbBlockReference
  2
SYM0008
 10
118.2670586766975
 20
239.027115201251
 30
0.0
  0
INSERT
  5
4C2
330
1F
100
AcDbEntity
  8
0
 62
     7
100
AcDbBlockReference
  2
SYM0009
 10
86.2777977958814
 20
245.2769813043901
 30
0.0
  0
INSERT
  5
4CB
330
1F
100
AcDbEntity
  8
0
 62
     7
100
AcDbBlockReference
  2
SYM0010
 10
113.8222956273687
 20
92.00908959914635
 30
0.0
  0
INSERT
  5
4D4
330
1F
100
AcDbEntity
  8
0
 62
     7
100
AcDbBlockReference
  2
SYM0011
 10
112.1546715592503
 20
78.61032140917776
 30
0.0
  0
INSERT
  5
4DD
330
1F
100
AcDbEntity
  8
0
 62
     7
100
AcDbBlockReference
  2
SYM0012
 10
91.75384822997503
 20
80.18114329251532
 30
0.0
  0
INSERT
  5
4E6
330
1F
100
AcDbEntity
  8
0
 62
     7
100
AcDbBlockReference
  2
SYM0013
 10
245.3682872755721
 20
159.9853301213306
 30
0.0
  0
INSERT
  5
4EF
330
1F
100
AcDbEntity
  8
0
 62
     7
100
AcDbBlockReference
  2
SYM0014
 10
232.275867898855
 20
162.0687022636708
 30
0.0
  0
INSERT
  5
4F8
330
1F
100
AcDbEntity
  8
0
 62
     7
100
AcDbBlockReference
  2
SYM0015
 10
235.3046510548734
 20
81.71557295490334
 30
0.0
  0
DIMENSION
  5
4FB
330
1F
100
AcDbEntity
  8
0
 62
     7
100
AcDbDimension
  2
*D37
 10
245.1546696053743
 20
59.7070479515883
 30
0.0
 11
241.1556671218475
 21
59.7070479515883
 31
0.0
 70
   160
  1
96
 71
     5
 42
8.000004967053655
  3
ISO-25
100
AcDbAlignedDimension
 13
237.1546646383206
 23
78.61032356405768
 33
0.0
 14
245.1546696053743
 24
78.61032356405768
 34
0.0
 50
180.0
100
AcDbRotatedDimension
1001
ACAD
1000
DSTYLE
1002
{
1070
   278
1070
    46
1070
   147
1040
0.675000011920929
1070
    77
1070
     1
1070
    74
1070
     0
1070
    73
1070
     0
1070
    42
1040
2.54
1070
    44
1040
1.904999386693035
1070
    76
1070
     0
1070
    75
1070
     0
1070
   279
1070
     0
1070
   271
1070
     0
1070
   173
1070
     1
1070
    41
1040
3.114
1070
   140
1040
2.700000047683716
1070
   344
1005
37A
1070
   343
1005
37A
1002
}
  0
DIMENSION
  5
508
330
1F
100
AcDbEntity
  8
0
 62
     7
100
AcDbDimension
  2
*D38
 10
233.6546545179488
 20
67.63371854371749
 30
0.0
 11
239.4066620616616
 21
67.63371854371749
 31
0.0
 70
   160
  1
138
 71
     5
 42
11.50001508742551
  3
ISO-25
100
AcDbAlignedDimension
 13
245.1546696053743
 23
78.61032356405768
 33
0.0
 14
233.6546545179488
 24
77.70793468692003
 34
0.0
100
AcDbRotatedDimension
1001
ACAD
1000
DSTYLE
1002
{
1070
   278
1070
    46
1070
   147
1040
0.675000011920929
1070
    77
1070
     1
1070
    74
1070
     0
1070
    73
1070
     0
1070
    42
1040
2.54
1070
    44
1040
1.904999386693078
1070
    76
1070
     0
1070
    75
1070
     0
1070
   279
1070
     0
1070
   271
1070
     0
1070
   173
1070
     1
1070
    41
1040
3.114
1070
   140
1040
2.700000047683716
1070
   344
1005
37A
1070
   343
1005
37A
1002
}
  0
DIMENSION
  5
515
330
1F
100
AcDbEntity
  8
0
 62
     7
100
AcDbDimension
  2
*D39
 10
230.3213339499434
 20
59.7070479515883
 30
0.0
 11
233.739999294132
 21
59.7070479515883
 31
0.0
 70
   160
  1
82
 71
     5
 42
6.833330688377288
  3
ISO-25
100
AcDbAlignedDimension
 13
237.1546646383206
 23
78.61032356405768
 33
0.0
 14
230.3213339499434
 24
47.84040303766127
 34
0.0
100
AcDbRotatedDimension
1001
ACAD
1000
DSTYLE
1002
{
1070
   278
1070
    46
1070
   147
1040
0.675000011920929
1070
    77
1070
     1
1070
    74
1070
     0
1070
    73
1070
     0
1070
    42
1040
2.54
1070
    44
1040
1.499999977648251
1070
    76
1070
     0
1070
    75
1070
     1
1070
   279
1070
     0
1070
   271
1070
     0
1070
   173
1070
     1
1070
    41
1040
3.114
1070
   140
1040
2.700000047683716
1070
   344
1005
37A
1070
   343
1005
37A
1002
}
  0
DIMENSION
  5
529
330
1F
100
AcDbEntity
  8
0
 62
     7
100
AcDbDimension
  2
*D40
 10
230.3213339499434
 20
49.34140301530952
 30
0.0
 11
237.7400017776588
 21
49.34140301530952
 31
0.0
 70
   160
  1
178
 71
     5
 42
14.83333565543094
  3
ISO-25
100
AcDbAlignedDimension
 13
245.1546696053743
 23
78.6103235640577
 33
0.0
 14
230.3213339499434
 24
78.61032356405768
 34
0.0
100
AcDbRotatedDimension
1001
ACAD
1000
DSTYLE
1002
{
1070
   278
1070
    46
1070
   147
1040
0.675000011920929
1070
    77
1070
     1
1070
    74
1070
     0
1070
    73
1070
     0
1070
    42
1040
2.54
1070
    44
1040
1.799999999999997
1070
    76
1070
     0
1070
    75
1070
     0
1070
   279
1070
     0
1070
   271
1070
     0
1070
   173
1070
     1
1070
    41
1040
3.114
1070
   140
1040
2.700000047683716
1070
   344
1005
37A
1070
   343
1005
37A
1002
}
  0
ENDSEC
  0
SECTION
  2
OBJECTS
  0
DICTIONARY
  5
C
330
0
100
AcDbDictionary
281
     1
  3
ACAD_GROUP
350
D
  3
ACAD_LAYOUT
350
1A
  3
ACAD_MATERIAL
350
3B
  3
ACAD_MLEADERSTYLE
350
538
  3
ACAD_MLINESTYLE
350
17
  3
ACAD_PLOTSETTINGS
350
19
  3
ACAD_PLOTSTYLENAME
350
E
  3
ACAD_VISUALSTYLE
350
2A
  3
AcDbVariableDictionary
350
536
  0
DICTIONARY
  5
D
102
{ACAD_REACTORS
330
C
102
}
330
C
100
AcDbDictionary
281
     1
  0
DICTIONARY
  5
1A
102
{ACAD_REACTORS
330
C
102
}
330
C
100
AcDbDictionary
281
     1
  3
Layout1
350
1E
  3
Layout2
350
26
  3
Model
350
22
  0
DICTIONARY
  5
3B
102
{ACAD_REACTORS
330
C
102
}
330
C
100
AcDbDictionary
281
     1
  3
ByBlock
350
3D
  3
ByLayer
350
3C
  3
Global
350
3E
  0
DICTIONARY
  5
538
102
{ACAD_REACTORS
330
C
102
}
330
C
100
AcDbDictionary
281
     1
  0
DICTIONARY
  5
17
102
{ACAD_REACTORS
330
C
102
}
330
C
100
AcDbDictionary
281
     1
  3
Standard
350
18
  0
DICTIONARY
  5
19
102
{ACAD_REACTORS
330
C
102
}
330
C
100
AcDbDictionary
281
     1
  0
ACDBDICTIONARYWDFLT
  5
E
102
{ACAD_REACTORS
330
C
102
}
330
C
100
AcDbDictionary
281
     1
  3
Normal
350
F
100
AcDbDictionaryWithDefault
340
F
  0
DICTIONARY
  5
2A
102
{ACAD_REACTORS
330
C
102
}
330
C
100
AcDbDictionary
281
     1
  3
2dWireframe
350
2F
  3
3D Hidden
350
31
  3
3dWireframe
350
30
  3
Basic
350
32
  3
Brighten
350
36
  3
ColorChange
350
3A
  3
Conceptual
350
34
  3
Dim
350
35
  3
Facepattern
350
39
  3
Flat
350
2B
  3
FlatWithEdges
350
2C
  3
Gouraud
350
2D
  3
GouraudWithEdges
350
2E
  3
Linepattern
350
38
  3
Realistic
350
33
  3
Thicken
350
37
  0
DICTIONARY
  5
536
102
{ACAD_REACTORS
330
C
102
}
330
C
100
AcDbDictionary
281
     1
  3
DIMASSOC
350
53B
  3
HIDETEXT
350
53C
  3
PSOLHEIGHT
350
53A
  3
PSOLWIDTH
350
539
  0
LAYOUT
  5
1E
102
{ACAD_REACTORS
330
1A
102
}
330
1A
100
AcDbPlotSettings
  1

  2
none_device
  4

  6

 40
0.0
 41
0.0
 42
0.0
 43
0.0
 44
0.0
 45
0.0
 46
0.0
 47
0.0
 48
0.0
 49
0.0
140
0.0
141
0.0
142
1.0
143
1.0
 70
   688
 72
     0
 73
     0
 74
     5
  7

 75
    16
147
1.0
148
0.0
149
0.0
100
AcDbLayout
  1
Layout1
 70
     1
 71
     1
 10
-1.111111164093018
 20
0.0
 11
403.0
 21
284.0
 12
0.0
 22
0.0
 32
0.0
 14
1.000000000000000E+20
 24
1.000000000000000E+20
 34
1.000000000000000E+20
 15
-1.000000000000000E+20
 25
-1.000000000000000E+20
 35
-1.000000000000000E+20
146
0.0
 13
0.0
 23
0.0
 33
0.0
 16
1.0
 26
0.0
 36
0.0
 17
0.0
 27
1.0
 37
0.0
 76
     0
330
1B
  0
LAYOUT
  5
26
102
{ACAD_REACTORS
330
1A
102
}
330
1A
100
AcDbPlotSettings
  1

  2
none_device
  4

  6

 40
0.0
 41
0.0
 42
0.0
 43
0.0
 44
0.0
 45
0.0
 46
0.0
 47
0.0
 48
0.0
 49
0.0
140
0.0
141
0.0
142
1.0
143
1.0
 70
   688
 72
     0
 73
     0
 74
     5
  7

 75
    16
147
1.0
148
0.0
149
0.0
100
AcDbLayout
  1
Layout2
 70
     1
 71
     2
 10
0.0
 20
0.0
 11
0.0
 21
0.0
 12
0.0
 22
0.0
 32
0.0
 14
0.0
 24
0.0
 34
0.0
 15
0.0
 25
0.0
 35
0.0
146
0.0
 13
0.0
 23
0.0
 33
0.0
 16
1.0
 26
0.0
 36
0.0
 17
0.0
 27
1.0
 37
0.0
 76
     0
330
23
  0
LAYOUT
  5
22
102
{ACAD_REACTORS
330
1A
102
}
330
1A
100
AcDbPlotSettings
  1

  2
none_device
  4

  6

 40
0.0
 41
0.0
 42
0.0
 43
0.0
 44
0.0
 45
0.0
 46
0.0
 47
0.0
 48
0.0
 49
0.0
140
0.0
141
0.0
142
1.0
143
1.0
 70
  1712
 72
     0
 73
     0
 74
     0
  7

 75
     0
147
1.0
148
0.0
149
0.0
100
AcDbLayout
  1
Model
 70
     1
 71
     0
 10
-1.111111164093018
 20
0.0
 11
403.0
 21
284.0
 12
0.0
 22
0.0
 32
0.0
 14
-1.111111164093018
 24
0.0
 34
0.0
 15
403.0
 25
284.0
 35
0.0
146
0.0
 13
0.0
 23
0.0
 33
0.0
 16
1.0
 26
0.0
 36
0.0
 17
0.0
 27
1.0
 37
0.0
 76
     0
330
1F
331
29
  0
MATERIAL
  5
3D
102
{ACAD_REACTORS
330
3B
102
}
102
{ACAD_XDICTIONARY
360
55F
102
}
330
3B
100
AcDbMaterial
  1
ByBlock
  0
MATERIAL
  5
3C
102
{ACAD_REACTORS
330
3B
102
}
102
{ACAD_XDICTIONARY
360
55D
102
}
330
3B
100
AcDbMaterial
  1
ByLayer
  0
MATERIAL
  5
3E
102
{ACAD_REACTORS
330
3B
102
}
102
{ACAD_XDICTIONARY
360
561
102
}
330
3B
100
AcDbMaterial
  1
Global
  0
MLINESTYLE
  5
18
102
{ACAD_REACTORS
330
17
102
}
330
17
100
AcDbMlineStyle
  2
Standard
 70
     0
  3

 62
   256
 51
90.0
 52
90.0
 71
     2
 49
0.5
 62
   256
  6
BYLAYER
 49
-0.5
 62
   256
  6
BYLAYER
  0
ACDBPLACEHOLDER
  5
F
102
{ACAD_REACTORS
330
E
102
}
330
E
  0
VISUALSTYLE
  5
2F
102
{ACAD_REACTORS
330
2A
102
}
102
{ACAD_XDICTIONARY
360
545
102
}
330
2A
100
AcDbVisualStyle
  2
2dWireframe
 70
     4
 71
     0
 72
     2
 73
     0
 90
        0
 40
-0.6
 41
-30.0
 62
     5
 63
     7
 74
     1
 91
        4
 64
     7
 65
   257
 75
     1
175
     1
 42
1.0
 92
        0
 66
   257
 43
1.0
 76
     1
 77
     6
 78
     2
 67
     7
 79
     5
170
     0
171
     0
290
     0
174
     0
 93
        1
 44
0.0
173
     0
291
     0
 45
0.0
1001
ACAD
1000
AcDbSavedByObjectVersion
1070
     0
  0
VISUALSTYLE
  5
31
102
{ACAD_REACTORS
330
2A
102
}
102
{ACAD_XDICTIONARY
360
549
102
}
330
2A
100
AcDbVisualStyle
  2
3D Hidden
 70
     6
 71
     1
 72
     2
 73
     2
 90
        0
 40
-0.6
 41
-30.0
 62
     5
 63
     7
 74
     2
 91
        2
 64
     7
 65
   257
 75
     2
175
     1
 42
40.0
 92
        0
 66
   257
 43
1.0
 76
     1
 77
     6
 78
     2
 67
     7
 79
     3
170
     0
171
     0
290
     0
174
     0
 93
        1
 44
0.0
173
     0
291
     0
 45
0.0
1001
ACAD
1000
AcDbSavedByObjectVersion
1070
     0
  0
VISUALSTYLE
  5
30
102
{ACAD_REACTORS
330
2A
102
}
102
{ACAD_XDICTIONARY
360
547
102
}
330
2A
100
AcDbVisualStyle
  2
3dWireframe
 70
     5
 71
     0
 72
     2
 73
     0
 90
        0
 40
-0.6
 41
-30.0
 62
     5
 63
     7
 74
     1
 91
        4
 64
     7
 65
   257
 75
     1
175
     1
 42
1.0
 92
        0
 66
   257
 43
1.0
 76
     1
 77
     6
 78
     2
 67
     7
 79
     5
170
     0
171
     0
290
     0
174
     0
 93
        1
 44
0.0
173
     0
291
     0
 45
0.0
1001
ACAD
1000
AcDbSavedByObjectVersion
1070
     0
  0
VISUALSTYLE
  5
32
102
{ACAD_REACTORS
330
2A
102
}
102
{ACAD_XDICTIONARY
360
54B
102
}
330
2A
100
AcDbVisualStyle
  2
Basic
 70
     7
 71
     1
 72
     0
 73
     1
 90
        0
 40
-0.6
 41
-30.0
 62
     5
 63
     7
 74
     0
 91
        4
 64
     7
 65
   257
 75
     1
175
     1
 42
1.0
 92
        8
 66
     7
 43
1.0
 76
     1
 77
     6
 78
     2
 67
     7
 79
     5
170
     0
171
     0
290
     0
174
     0
 93
        1
 44
0.0
173
     0
291
     1
 45
0.0
1001
ACAD
1000
AcDbSavedByObjectVersion
1070
     0
  0
VISUALSTYLE
  5
36
102
{ACAD_REACTORS
330
2A
102
}
102
{ACAD_XDICTIONARY
360
553
102
}
330
2A
100
AcDbVisualStyle
  2
Brighten
 70
    12
 71
     2
 72
     2
 73
     0
 90
        0
 40
-0.6
 41
-30.0
 62
     5
 63
     7
 74
     1
 91
        4
 64
     7
 65
   257
 75
     1
175
     1
 42
1.0
 92
        8
 66
     7
 43
1.0
 76
     1
 77
     6
 78
     2
 67
     7
 79
     5
170
     0
171
     0
290
     0
174
     0
 93
        1
 44
50.0
173
     0
291
     1
 45
0.0
1001
ACAD
1000
AcDbSavedByObjectVersion
1070
     0
  0
VISUALSTYLE
  5
3A
102
{ACAD_REACTORS
330
2A
102
}
102
{ACAD_XDICTIONARY
360
55B
102
}
330
2A
100
AcDbVisualStyle
  2
ColorChange
 70
    16
 71
     2
 72
     2
 73
     3
 90
        0
 40
-0.6
 41
-30.0
 62
     5
 63
     8
 74
     1
 91
        4
 64
     7
 65
   257
 75
     1
175
     1
 42
1.0
 92
        8
 66
     8
 43
1.0
 76
     1
 77
     6
 78
     2
 67
     7
 79
     5
170
     0
171
     0
290
     0
174
     0
 93
        1
 44
0.0
173
     0
291
     1
 45
0.0
1001
ACAD
1000
AcDbSavedByObjectVersion
1070
     0
  0
VISUALSTYLE
  5
34
102
{ACAD_REACTORS
330
2A
102
}
102
{ACAD_XDICTIONARY
360
54F
102
}
330
2A
100
AcDbVisualStyle
  2
Conceptual
 70
     9
 71
     3
 72
     2
 73
     0
 90
        0
 40
-0.6
 41
-30.0
 62
     5
 63
     7
 74
     2
 91
        2
 64
     7
 65
   257
 75
     1
175
     1
 42
40.0
 92
        8
 66
     7
 43
1.0
 76
     1
 77
     6
 78
     2
 67
     7
 79
     3
170
     0
171
     0
290
     0
174
     0
 93
        1
 44
0.0
173
     0
291
     0
 45
0.0
1001
ACAD
1000
AcDbSavedByObjectVersion
1070
     0
  0
VISUALSTYLE
  5
35
102
{ACAD_REACTORS
330
2A
102
}
102
{ACAD_XDICTIONARY
360
551
102
}
330
2A
100
AcDbVisualStyle
  2
Dim
 70
    11
 71
     2
 72
     2
 73
     0
 90
        0
 40
-0.6
 41
-30.0
 62
     5
 63
     7
 74
     1
 91
        4
 64
     7
 65
   257
 75
     1
175
     1
 42
1.0
 92
        8
 66
     7
 43
1.0
 76
     1
 77
     6
 78
     2
 67
     7
 79
     5
170
     0
171
     0
290
     0
174
     0
 93
        1
 44
-50.0
173
     0
291
     1
 45
0.0
1001
ACAD
1000
AcDbSavedByObjectVersion
1070
     0
  0
VISUALSTYLE
  5
39
102
{ACAD_REACTORS
330
2A
102
}
102
{ACAD_XDICTIONARY
360
559
102
}
330
2A
100
AcDbVisualStyle
  2
Facepattern
 70
    15
 71
     2
 72
     2
 73
     0
 90
        0
 40
-0.6
 41
-30.0
 62
     5
 63
     7
 74
     1
 91
        4
 64
     7
 65
   257
 75
     1
175
     1
 42
1.0
 92
        8
 66
     7
 43
1.0
 76
     1
 77
     6
 78
     2
 67
     7
 79
     5
170
     0
171
     0
290
     0
174
     0
 93
        1
 44
0.0
173
     0
291
     1
 45
0.0
1001
ACAD
1000
AcDbSavedByObjectVersion
1070
     0
  0
VISUALSTYLE
  5
2B
102
{ACAD_REACTORS
330
2A
102
}
102
{ACAD_XDICTIONARY
360
53D
102
}
330
2A
100
AcDbVisualStyle
  2
Flat
 70
     0
 71
     2
 72
     1
 73
     1
 90
        2
 40
-0.6
 41
30.0
 62
     5
 63
     7
 74
     0
 91
        4
 64
     7
 65
   257
 75
     1
175
     1
 42
1.0
 92
        8
 66
     7
 43
1.0
 76
     1
 77
     6
 78
     2
 67
     7
 79
     5
170
     0
171
     0
290
     0
174
     0
 93
       13
 44
0.0
173
     0
291
     1
 45
0.0
1001
ACAD
1000
AcDbSavedByObjectVersion
1070
     0
  0
VISUALSTYLE
  5
2C
102
{ACAD_REACTORS
330
2A
102
}
102
{ACAD_XDICTIONARY
360
53F
102
}
330
2A
100
AcDbVisualStyle
  2
FlatWithEdges
 70
     1
 71
     2
 72
     1
 73
     1
 90
        2
 40
-0.6
 41
30.0
 62
     5
 63
     7
 74
     1
 91
        4
 64
     7
 65
   257
 75
     1
175
     1
 42
1.0
 92
        0
 66
   257
 43
1.0
 76
     1
 77
     6
 78
     2
 67
     7
 79
     5
170
     0
171
     0
290
     0
174
     0
 93
       13
 44
0.0
173
     0
291
     1
 45
0.0
1001
ACAD
1000
AcDbSavedByObjectVersion
1070
     0
  0
VISUALSTYLE
  5
2D
102
{ACAD_REACTORS
330
2A
102
}
102
{ACAD_XDICTIONARY
360
541
102
}
330
2A
100
AcDbVisualStyle
  2
Gouraud
 70
     2
 71
     2
 72
     2
 73
     1
 90
        2
 40
-0.6
 41
30.0
 62
     5
 63
     7
 74
     0
 91
        4
 64
     7
 65
   257
 75
     1
175
     1
 42
1.0
 92
        0
 66
     7
 43
1.0
 76
     1
 77
     6
 78
     2
 67
     7
 79
     5
170
     0
171
     0
290
     0
174
     0
 93
       13
 44
0.0
173
     0
291
     1
 45
0.0
1001
ACAD
1000
AcDbSavedByObjectVersion
1070
     0
  0
VISUALSTYLE
  5
2E
102
{ACAD_REACTORS
330
2A
102
}
102
{ACAD_XDICTIONARY
360
543
102
}
330
2A
100
AcDbVisualStyle
  2
GouraudWithEdges
 70
     3
 71
     2
 72
     2
 73
     1
 90
        2
 40
-0.6
 41
30.0
 62
     5
 63
     7
 74
     1
 91
        4
 64
     7
 65
   257
 75
     1
175
     1
 42
1.0
 92
        0
 66
   257
 43
1.0
 76
     1
 77
     6
 78
     2
 67
     7
 79
     5
170
     0
171
     0
290
     0
174
     0
 93
       13
 44
0.0
173
     0
291
     1
 45
0.0
1001
ACAD
1000
AcDbSavedByObjectVersion
1070
     0
  0
VISUALSTYLE
  5
38
102
{ACAD_REACTORS
330
2A
102
}
102
{ACAD_XDICTIONARY
360
557
102
}
330
2A
100
AcDbVisualStyle
  2
Linepattern
 70
    14
 71
     2
 72
     2
 73
     0
 90
        0
 40
-0.6
 41
-30.0
 62
     5
 63
     7
 74
     1
 91
        4
 64
     7
 65
   257
 75
     7
175
     7
 42
1.0
 92
        8
 66
     7
 43
1.0
 76
     1
 77
     6
 78
     2
 67
     7
 79
     5
170
     0
171
     0
290
     0
174
     0
 93
        1
 44
0.0
173
     0
291
     1
 45
0.0
1001
ACAD
1000
AcDbSavedByObjectVersion
1070
     0
  0
VISUALSTYLE
  5
33
102
{ACAD_REACTORS
330
2A
102
}
102
{ACAD_XDICTIONARY
360
54D
102
}
330
2A
100
AcDbVisualStyle
  2
Realistic
 70
     8
 71
     2
 72
     2
 73
     0
 90
        0
 40
-0.6
 41
-30.0
 62
     5
 63
     7
 74
     1
 91
        0
 64
     7
 65
   257
 75
     1
175
     1
 42
1.0
 92
        8
 66
     8
 43
1.0
 76
     1
 77
     6
 78
     2
 67
     7
 79
     5
170
     0
171
     0
290
     0
174
     0
 93
       13
 44
0.0
173
     0
291
     0
 45
0.0
1001
ACAD
1000
AcDbSavedByObjectVersion
1070
     0
  0
VISUALSTYLE
  5
37
102
{ACAD_REACTORS
330
2A
102
}
102
{ACAD_XDICTIONARY
360
555
102
}
330
2A
100
AcDbVisualStyle
  2
Thicken
 70
    13
 71
     2
 72
     2
 73
     0
 90
        0
 40
-0.6
 41
-30.0
 62
     5
 63
     7
 74
     1
 91
        4
 64
     7
 65
   257
 75
     1
175
     1
 42
1.0
 92
       12
 66
     7
 43
1.0
 76
     1
 77
     6
 78
     2
 67
     7
 79
     5
170
     0
171
     0
290
     0
174
     0
 93
        1
 44
0.0
173
     0
291
     1
 45
0.0
1001
ACAD
1000
AcDbSavedByObjectVersion
1070
     0
  0
DICTIONARYVAR
  5
53B
102
{ACAD_REACTORS
330
536
102
}
330
536
100
DictionaryVariables
280
     0
  1
2
  0
DICTIONARYVAR
  5
53C
102
{ACAD_REACTORS
330
536
102
}
330
536
100
DictionaryVariables
280
     0
  1
1
  0
DICTIONARYVAR
  5
53A
102
{ACAD_REACTORS
330
536
102
}
330
536
100
DictionaryVariables
280
     0
  1
80.000000
  0
DICTIONARYVAR
  5
539
102
{ACAD_REACTORS
330
536
102
}
330
536
100
DictionaryVariables
280
     0
  1
5.000000
  0
DICTIONARY
  5
55F
330
3D
100
AcDbDictionary
280
     1
281
     1
  3
ACAD_XREC_ROUNDTRIP
360
560
  0
DICTIONARY
  5
55D
330
3C
100
AcDbDictionary
280
     1
281
     1
  3
ACAD_XREC_ROUNDTRIP
360
55E
  0
DICTIONARY
  5
561
330
3E
100
AcDbDictionary
280
     1
281
     1
  3
ACAD_XREC_ROUNDTRIP
360
562
  0
DICTIONARY
  5
545
330
2F
100
AcDbDictionary
280
     1
281
     1
  3
ACAD_XREC_ROUNDTRIP
360
546
  0
DICTIONARY
  5
549
330
31
100
AcDbDictionary
280
     1
281
     1
  3
ACAD_XREC_ROUNDTRIP
360
54A
  0
DICTIONARY
  5
547
330
30
100
AcDbDictionary
280
     1
281
     1
  3
ACAD_XREC_ROUNDTRIP
360
548
  0
DICTIONARY
  5
54B
330
32
100
AcDbDictionary
280
     1
281
     1
  3
ACAD_XREC_ROUNDTRIP
360
54C
  0
DICTIONARY
  5
553
330
36
100
AcDbDictionary
280
     1
281
     1
  3
ACAD_XREC_ROUNDTRIP
360
554
  0
DICTIONARY
  5
55B
330
3A
100
AcDbDictionary
280
     1
281
     1
  3
ACAD_XREC_ROUNDTRIP
360
55C
  0
DICTIONARY
  5
54F
330
34
100
AcDbDictionary
280
     1
281
     1
  3
ACAD_XREC_ROUNDTRIP
360
550
  0
DICTIONARY
  5
551
330
35
100
AcDbDictionary
280
     1
281
     1
  3
ACAD_XREC_ROUNDTRIP
360
552
  0
DICTIONARY
  5
559
330
39
100
AcDbDictionary
280
     1
281
     1
  3
ACAD_XREC_ROUNDTRIP
360
55A
  0
DICTIONARY
  5
53D
330
2B
100
AcDbDictionary
280
     1
281
     1
  3
ACAD_XREC_ROUNDTRIP
360
53E
  0
DICTIONARY
  5
53F
330
2C
100
AcDbDictionary
280
     1
281
     1
  3
ACAD_XREC_ROUNDTRIP
360
540
  0
DICTIONARY
  5
541
330
2D
100
AcDbDictionary
280
     1
281
     1
  3
ACAD_XREC_ROUNDTRIP
360
542
  0
DICTIONARY
  5
543
330
2E
100
AcDbDictionary
280
     1
281
     1
  3
ACAD_XREC_ROUNDTRIP
360
544
  0
DICTIONARY
  5
557
330
38
100
AcDbDictionary
280
     1
281
     1
  3
ACAD_XREC_ROUNDTRIP
360
558
  0
DICTIONARY
  5
54D
330
33
100
AcDbDictionary
280
     1
281
     1
  3
ACAD_XREC_ROUNDTRIP
360
54E
  0
DICTIONARY
  5
555
330
37
100
AcDbDictionary
280
     1
281
     1
  3
ACAD_XREC_ROUNDTRIP
360
556
  0
XRECORD
  5
560
102
{ACAD_REACTORS
330
55F
102
}
330
55F
100
AcDbXrecord
280
     1
102
MATERIAL
148
0.0
149
0.0
149
0.0
 93
        0
 94
      127
282
     0
 72
     1
 77
     1
171
     1
175
     1
179
     1
273
     0
  0
XRECORD
  5
55E
102
{ACAD_REACTORS
330
55D
102
}
330
55D
100
AcDbXrecord
280
     1
102
MATERIAL
148
0.0
149
0.0
149
0.0
 93
        0
 94
      127
282
     0
 72
     1
 77
     1
171
     1
175
     1
179
     1
273
     0
  0
XRECORD
  5
562
102
{ACAD_REACTORS
330
561
102
}
330
561
100
AcDbXrecord
280
     1
102
MATERIAL
148
0.0
149
0.0
149
0.0
 93
        0
 94
      127
282
     0
 72
     1
 77
     1
171
     1
175
     1
179
     1
273
     0
  0
XRECORD
  5
546
102
{ACAD_REACTORS
330
545
102
}
330
545
100
AcDbXrecord
280
     1
102
RTVSPropertyOp0
 70
     1
102
RTVSPropertyOp1
 70
     1
102
RTVSPropertyOp2
 70
     1
102
RTVSPropertyOp3
 70
     1
102
RTVSPropertyOp4
 70
     1
102
RTVSPropertyOp5
 70
     1
102
RTVSPropertyOp6
 70
     1
102
RTVSPropertyOp7
 70
     1
102
RTVSPropertyOp8
 70
     1
102
RTVSPropertyOp9
 70
     1
102
RTVSPropertyOp10
 70
     1
102
RTVSPropertyOp11
 70
     1
102
RTVSPropertyOp12
 70
     1
102
RTVSPropertyOp13
 70
     1
102
RTVSPropertyOp14
 70
     1
102
RTVSPropertyOp15
 70
     1
102
RTVSPropertyOp16
 70
     1
102
RTVSPropertyOp17
 70
     1
102
RTVSPropertyOp18
 70
     1
102
RTVSPropertyOp19
 70
     1
102
RTVSPropertyOp20
 70
     1
102
RTVSPropertyOp21
 70
     1
102
RTVSPropertyOp22
 70
     1
102
RTVSPropertyOp23
 70
     1
102
RTVSPropertyOp24
 70
     1
102
RTVSPropertyOp25
 70
     1
102
RTVSPropertyOp26
 70
     1
102
RTVSPropertyOp27
 70
     1
102
RTVSPropertyOp28
 70
     1
102
RTVSPropertyOp29
 70
     1
102
RTVSPropertyOp30
 70
     1
102
RTVSPropertyOp31
 70
     1
102
RTVSPropertyOp32
 70
     1
  0
XRECORD
  5
54A
102
{ACAD_REACTORS
330
549
102
}
330
549
100
AcDbXrecord
280
     1
102
RTVSPropertyOp0
 70
     1
102
RTVSPropertyOp1
 70
     1
102
RTVSPropertyOp2
 70
     1
102
RTVSPropertyOp3
 70
     1
102
RTVSPropertyOp4
 70
     1
102
RTVSPropertyOp5
 70
     1
102
RTVSPropertyOp6
 70
     1
102
RTVSPropertyOp7
 70
     1
102
RTVSPropertyOp8
 70
     1
102
RTVSPropertyOp9
 70
     1
102
RTVSPropertyOp10
 70
     1
102
RTVSPropertyOp11
 70
     1
102
RTVSPropertyOp12
 70
     1
102
RTVSPropertyOp13
 70
     1
102
RTVSPropertyOp14
 70
     1
102
RTVSPropertyOp15
 70
     1
102
RTVSPropertyOp16
 70
     1
102
RTVSPropertyOp17
 70
     1
102
RTVSPropertyOp18
 70
     1
102
RTVSPropertyOp19
 70
     1
102
RTVSPropertyOp20
 70
     1
102
RTVSPropertyOp21
 70
     1
102
RTVSPropertyOp22
 70
     1
102
RTVSPropertyOp23
 70
     1
102
RTVSPropertyOp24
 70
     1
102
RTVSPropertyOp25
 70
     1
102
RTVSPropertyOp26
 70
     1
102
RTVSPropertyOp27
 70
     1
102
RTVSPropertyOp28
 70
     1
102
RTVSPropertyOp29
 70
     1
102
RTVSPropertyOp30
 70
     1
102
RTVSPropertyOp31
 70
     1
102
RTVSPropertyOp32
 70
     1
  0
XRECORD
  5
548
102
{ACAD_REACTORS
330
547
102
}
330
547
100
AcDbXrecord
280
     1
102
RTVSPropertyOp0
 70
     1
102
RTVSPropertyOp1
 70
     1
102
RTVSPropertyOp2
 70
     1
102
RTVSPropertyOp3
 70
     1
102
RTVSPropertyOp4
 70
     1
102
RTVSPropertyOp5
 70
     1
102
RTVSPropertyOp6
 70
     1
102
RTVSPropertyOp7
 70
     1
102
RTVSPropertyOp8
 70
     1
102
RTVSPropertyOp9
 70
     1
102
RTVSPropertyOp10
 70
     1
102
RTVSPropertyOp11
 70
     1
102
RTVSPropertyOp12
 70
     1
102
RTVSPropertyOp13
 70
     1
102
RTVSPropertyOp14
 70
     1
102
RTVSPropertyOp15
 70
     1
102
RTVSPropertyOp16
 70
     1
102
RTVSPropertyOp17
 70
     1
102
RTVSPropertyOp18
 70
     1
102
RTVSPropertyOp19
 70
     1
102
RTVSPropertyOp20
 70
     1
102
RTVSPropertyOp21
 70
     1
102
RTVSPropertyOp22
 70
     1
102
RTVSPropertyOp23
 70
     1
102
RTVSPropertyOp24
 70
     1
102
RTVSPropertyOp25
 70
     1
102
RTVSPropertyOp26
 70
     1
102
RTVSPropertyOp27
 70
     1
102
RTVSPropertyOp28
 70
     1
102
RTVSPropertyOp29
 70
     1
102
RTVSPropertyOp30
 70
     1
102
RTVSPropertyOp31
 70
     1
102
RTVSPropertyOp32
 70
     1
  0
XRECORD
  5
54C
102
{ACAD_REACTORS
330
54B
102
}
330
54B
100
AcDbXrecord
280
     1
102
RTVSPropertyOp0
 70
     1
102
RTVSPropertyOp1
 70
     1
102
RTVSPropertyOp2
 70
     1
102
RTVSPropertyOp3
 70
     1
102
RTVSPropertyOp4
 70
     1
102
RTVSPropertyOp5
 70
     1
102
RTVSPropertyOp6
 70
     1
102
RTVSPropertyOp7
 70
     1
102
RTVSPropertyOp8
 70
     1
102
RTVSPropertyOp9
 70
     1
102
RTVSPropertyOp10
 70
     1
102
RTVSPropertyOp11
 70
     1
102
RTVSPropertyOp12
 70
     1
102
RTVSPropertyOp13
 70
     1
102
RTVSPropertyOp14
 70
     1
102
RTVSPropertyOp15
 70
     1
102
RTVSPropertyOp16
 70
     1
102
RTVSPropertyOp17
 70
     1
102
RTVSPropertyOp18
 70
     1
102
RTVSPropertyOp19
 70
     1
102
RTVSPropertyOp20
 70
     1
102
RTVSPropertyOp21
 70
     1
102
RTVSPropertyOp22
 70
     1
102
RTVSPropertyOp23
 70
     1
102
RTVSPropertyOp24
 70
     1
102
RTVSPropertyOp25
 70
     1
102
RTVSPropertyOp26
 70
     1
102
RTVSPropertyOp27
 70
     1
102
RTVSPropertyOp28
 70
     1
102
RTVSPropertyOp29
 70
     1
102
RTVSPropertyOp30
 70
     1
102
RTVSPropertyOp31
 70
     1
102
RTVSPropertyOp32
 70
     1
  0
XRECORD
  5
554
102
{ACAD_REACTORS
330
553
102
}
330
553
100
AcDbXrecord
280
     1
102
RTVSPropertyOp0
 70
     1
102
RTVSPropertyOp1
 70
     1
102
RTVSPropertyOp2
 70
     1
102
RTVSPropertyOp3
 70
     1
102
RTVSPropertyOp4
 70
     1
102
RTVSPropertyOp5
 70
     1
102
RTVSPropertyOp6
 70
     1
102
RTVSPropertyOp7
 70
     1
102
RTVSPropertyOp8
 70
     1
102
RTVSPropertyOp9
 70
     1
102
RTVSPropertyOp10
 70
     1
102
RTVSPropertyOp11
 70
     1
102
RTVSPropertyOp12
 70
     1
102
RTVSPropertyOp13
 70
     1
102
RTVSPropertyOp14
 70
     1
102
RTVSPropertyOp15
 70
     1
102
RTVSPropertyOp16
 70
     1
102
RTVSPropertyOp17
 70
     1
102
RTVSPropertyOp18
 70
     1
102
RTVSPropertyOp19
 70
     1
102
RTVSPropertyOp20
 70
     1
102
RTVSPropertyOp21
 70
     1
102
RTVSPropertyOp22
 70
     1
102
RTVSPropertyOp23
 70
     1
102
RTVSPropertyOp24
 70
     1
102
RTVSPropertyOp25
 70
     1
102
RTVSPropertyOp26
 70
     1
102
RTVSPropertyOp27
 70
     1
102
RTVSPropertyOp28
 70
     1
102
RTVSPropertyOp29
 70
     1
102
RTVSPropertyOp30
 70
     1
102
RTVSPropertyOp31
 70
     1
102
RTVSPropertyOp32
 70
     1
  0
XRECORD
  5
55C
102
{ACAD_REACTORS
330
55B
102
}
330
55B
100
AcDbXrecord
280
     1
102
RTVSPropertyOp0
 70
     1
102
RTVSPropertyOp1
 70
     1
102
RTVSPropertyOp2
 70
     1
102
RTVSPropertyOp3
 70
     1
102
RTVSPropertyOp4
 70
     1
102
RTVSPropertyOp5
 70
     1
102
RTVSPropertyOp6
 70
     1
102
RTVSPropertyOp7
 70
     1
102
RTVSPropertyOp8
 70
     1
102
RTVSPropertyOp9
 70
     1
102
RTVSPropertyOp10
 70
     1
102
RTVSPropertyOp11
 70
     1
102
RTVSPropertyOp12
 70
     1
102
RTVSPropertyOp13
 70
     1
102
RTVSPropertyOp14
 70
     1
102
RTVSPropertyOp15
 70
     1
102
RTVSPropertyOp16
 70
     1
102
RTVSPropertyOp17
 70
     1
102
RTVSPropertyOp18
 70
     1
102
RTVSPropertyOp19
 70
     1
102
RTVSPropertyOp20
 70
     1
102
RTVSPropertyOp21
 70
     1
102
RTVSPropertyOp22
 70
     1
102
RTVSPropertyOp23
 70
     1
102
RTVSPropertyOp24
 70
     1
102
RTVSPropertyOp25
 70
     1
102
RTVSPropertyOp26
 70
     1
102
RTVSPropertyOp27
 70
     1
102
RTVSPropertyOp28
 70
     1
102
RTVSPropertyOp29
 70
     1
102
RTVSPropertyOp30
 70
     1
102
RTVSPropertyOp31
 70
     1
102
RTVSPropertyOp32
 70
     1
  0
XRECORD
  5
550
102
{ACAD_REACTORS
330
54F
102
}
330
54F
100
AcDbXrecord
280
     1
102
RTVSPropertyOp0
 70
     1
102
RTVSPropertyOp1
 70
     1
102
RTVSPropertyOp2
 70
     1
102
RTVSPropertyOp3
 70
     1
102
RTVSPropertyOp4
 70
     1
102
RTVSPropertyOp5
 70
     1
102
RTVSPropertyOp6
 70
     1
102
RTVSPropertyOp7
 70
     1
102
RTVSPropertyOp8
 70
     1
102
RTVSPropertyOp9
 70
     1
102
RTVSPropertyOp10
 70
     1
102
RTVSPropertyOp11
 70
     1
102
RTVSPropertyOp12
 70
     1
102
RTVSPropertyOp13
 70
     1
102
RTVSPropertyOp14
 70
     1
102
RTVSPropertyOp15
 70
     1
102
RTVSPropertyOp16
 70
     1
102
RTVSPropertyOp17
 70
     1
102
RTVSPropertyOp18
 70
     1
102
RTVSPropertyOp19
 70
     1
102
RTVSPropertyOp20
 70
     1
102
RTVSPropertyOp21
 70
     1
102
RTVSPropertyOp22
 70
     1
102
RTVSPropertyOp23
 70
     1
102
RTVSPropertyOp24
 70
     1
102
RTVSPropertyOp25
 70
     1
102
RTVSPropertyOp26
 70
     1
102
RTVSPropertyOp27
 70
     1
102
RTVSPropertyOp28
 70
     1
102
RTVSPropertyOp29
 70
     1
102
RTVSPropertyOp30
 70
     1
102
RTVSPropertyOp31
 70
     1
102
RTVSPropertyOp32
 70
     1
  0
XRECORD
  5
552
102
{ACAD_REACTORS
330
551
102
}
330
551
100
AcDbXrecord
280
     1
102
RTVSPropertyOp0
 70
     1
102
RTVSPropertyOp1
 70
     1
102
RTVSPropertyOp2
 70
     1
102
RTVSPropertyOp3
 70
     1
102
RTVSPropertyOp4
 70
     1
102
RTVSPropertyOp5
 70
     1
102
RTVSPropertyOp6
 70
     1
102
RTVSPropertyOp7
 70
     1
102
RTVSPropertyOp8
 70
     1
102
RTVSPropertyOp9
 70
     1
102
RTVSPropertyOp10
 70
     1
102
RTVSPropertyOp11
 70
     1
102
RTVSPropertyOp12
 70
     1
102
RTVSPropertyOp13
 70
     1
102
RTVSPropertyOp14
 70
     1
102
RTVSPropertyOp15
 70
     1
102
RTVSPropertyOp16
 70
     1
102
RTVSPropertyOp17
 70
     1
102
RTVSPropertyOp18
 70
     1
102
RTVSPropertyOp19
 70
     1
102
RTVSPropertyOp20
 70
     1
102
RTVSPropertyOp21
 70
     1
102
RTVSPropertyOp22
 70
     1
102
RTVSPropertyOp23
 70
     1
102
RTVSPropertyOp24
 70
     1
102
RTVSPropertyOp25
 70
     1
102
RTVSPropertyOp26
 70
     1
102
RTVSPropertyOp27
 70
     1
102
RTVSPropertyOp28
 70
     1
102
RTVSPropertyOp29
 70
     1
102
RTVSPropertyOp30
 70
     1
102
RTVSPropertyOp31
 70
     1
102
RTVSPropertyOp32
 70
     1
  0
XRECORD
  5
55A
102
{ACAD_REACTORS
330
559
102
}
330
559
100
AcDbXrecord
280
     1
102
RTVSPropertyOp0
 70
     1
102
RTVSPropertyOp1
 70
     1
102
RTVSPropertyOp2
 70
     1
102
RTVSPropertyOp3
 70
     1
102
RTVSPropertyOp4
 70
     1
102
RTVSPropertyOp5
 70
     1
102
RTVSPropertyOp6
 70
     1
102
RTVSPropertyOp7
 70
     1
102
RTVSPropertyOp8
 70
     1
102
RTVSPropertyOp9
 70
     1
102
RTVSPropertyOp10
 70
     1
102
RTVSPropertyOp11
 70
     1
102
RTVSPropertyOp12
 70
     1
102
RTVSPropertyOp13
 70
     1
102
RTVSPropertyOp14
 70
     1
102
RTVSPropertyOp15
 70
     1
102
RTVSPropertyOp16
 70
     1
102
RTVSPropertyOp17
 70
     1
102
RTVSPropertyOp18
 70
     1
102
RTVSPropertyOp19
 70
     1
102
RTVSPropertyOp20
 70
     1
102
RTVSPropertyOp21
 70
     1
102
RTVSPropertyOp22
 70
     1
102
RTVSPropertyOp23
 70
     1
102
RTVSPropertyOp24
 70
     1
102
RTVSPropertyOp25
 70
     1
102
RTVSPropertyOp26
 70
     1
102
RTVSPropertyOp27
 70
     1
102
RTVSPropertyOp28
 70
     1
102
RTVSPropertyOp29
 70
     1
102
RTVSPropertyOp30
 70
     1
102
RTVSPropertyOp31
 70
     1
102
RTVSPropertyOp32
 70
     1
  0
XRECORD
  5
53E
102
{ACAD_REACTORS
330
53D
102
}
330
53D
100
AcDbXrecord
280
     1
102
RTVSPropertyOp0
 70
     1
102
RTVSPropertyOp1
 70
     1
102
RTVSPropertyOp2
 70
     1
102
RTVSPropertyOp3
 70
     1
102
RTVSPropertyOp4
 70
     1
102
RTVSPropertyOp5
 70
     1
102
RTVSPropertyOp6
 70
     1
102
RTVSPropertyOp7
 70
     1
102
RTVSPropertyOp8
 70
     1
102
RTVSPropertyOp9
 70
     1
102
RTVSPropertyOp10
 70
     1
102
RTVSPropertyOp11
 70
     1
102
RTVSPropertyOp12
 70
     1
102
RTVSPropertyOp13
 70
     1
102
RTVSPropertyOp14
 70
     1
102
RTVSPropertyOp15
 70
     1
102
RTVSPropertyOp16
 70
     1
102
RTVSPropertyOp17
 70
     1
102
RTVSPropertyOp18
 70
     1
102
RTVSPropertyOp19
 70
     1
102
RTVSPropertyOp20
 70
     1
102
RTVSPropertyOp21
 70
     1
102
RTVSPropertyOp22
 70
     1
102
RTVSPropertyOp23
 70
     1
102
RTVSPropertyOp24
 70
     1
102
RTVSPropertyOp25
 70
     1
102
RTVSPropertyOp26
 70
     1
102
RTVSPropertyOp27
 70
     1
102
RTVSPropertyOp28
 70
     1
102
RTVSPropertyOp29
 70
     1
102
RTVSPropertyOp30
 70
     1
102
RTVSPropertyOp31
 70
     1
102
RTVSPropertyOp32
 70
     1
  0
XRECORD
  5
540
102
{ACAD_REACTORS
330
53F
102
}
330
53F
100
AcDbXrecord
280
     1
102
RTVSPropertyOp0
 70
     1
102
RTVSPropertyOp1
 70
     1
102
RTVSPropertyOp2
 70
     1
102
RTVSPropertyOp3
 70
     1
102
RTVSPropertyOp4
 70
     1
102
RTVSPropertyOp5
 70
     1
102
RTVSPropertyOp6
 70
     1
102
RTVSPropertyOp7
 70
     1
102
RTVSPropertyOp8
 70
     1
102
RTVSPropertyOp9
 70
     1
102
RTVSPropertyOp10
 70
     1
102
RTVSPropertyOp11
 70
     1
102
RTVSPropertyOp12
 70
     1
102
RTVSPropertyOp13
 70
     1
102
RTVSPropertyOp14
 70
     1
102
RTVSPropertyOp15
 70
     1
102
RTVSPropertyOp16
 70
     1
102
RTVSPropertyOp17
 70
     1
102
RTVSPropertyOp18
 70
     1
102
RTVSPropertyOp19
 70
     1
102
RTVSPropertyOp20
 70
     1
102
RTVSPropertyOp21
 70
     1
102
RTVSPropertyOp22
 70
     1
102
RTVSPropertyOp23
 70
     1
102
RTVSPropertyOp24
 70
     1
102
RTVSPropertyOp25
 70
     1
102
RTVSPropertyOp26
 70
     1
102
RTVSPropertyOp27
 70
     1
102
RTVSPropertyOp28
 70
     1
102
RTVSPropertyOp29
 70
     1
102
RTVSPropertyOp30
 70
     1
102
RTVSPropertyOp31
 70
     1
102
RTVSPropertyOp32
 70
     1
  0
XRECORD
  5
542
102
{ACAD_REACTORS
330
541
102
}
330
541
100
AcDbXrecord
280
     1
102
RTVSPropertyOp0
 70
     1
102
RTVSPropertyOp1
 70
     1
102
RTVSPropertyOp2
 70
     1
102
RTVSPropertyOp3
 70
     1
102
RTVSPropertyOp4
 70
     1
102
RTVSPropertyOp5
 70
     1
102
RTVSPropertyOp6
 70
     1
102
RTVSPropertyOp7
 70
     1
102
RTVSPropertyOp8
 70
     1
102
RTVSPropertyOp9
 70
     1
102
RTVSPropertyOp10
 70
     1
102
RTVSPropertyOp11
 70
     1
102
RTVSPropertyOp12
 70
     1
102
RTVSPropertyOp13
 70
     1
102
RTVSPropertyOp14
 70
     1
102
RTVSPropertyOp15
 70
     1
102
RTVSPropertyOp16
 70
     1
102
RTVSPropertyOp17
 70
     1
102
RTVSPropertyOp18
 70
     1
102
RTVSPropertyOp19
 70
     1
102
RTVSPropertyOp20
 70
     1
102
RTVSPropertyOp21
 70
     1
102
RTVSPropertyOp22
 70
     1
102
RTVSPropertyOp23
 70
     1
102
RTVSPropertyOp24
 70
     1
102
RTVSPropertyOp25
 70
     1
102
RTVSPropertyOp26
 70
     1
102
RTVSPropertyOp27
 70
     1
102
RTVSPropertyOp28
 70
     1
102
RTVSPropertyOp29
 70
     1
102
RTVSPropertyOp30
 70
     1
102
RTVSPropertyOp31
 70
     1
102
RTVSPropertyOp32
 70
     1
  0
XRECORD
  5
544
102
{ACAD_REACTORS
330
543
102
}
330
543
100
AcDbXrecord
280
     1
102
RTVSPropertyOp0
 70
     1
102
RTVSPropertyOp1
 70
     1
102
RTVSPropertyOp2
 70
     1
102
RTVSPropertyOp3
 70
     1
102
RTVSPropertyOp4
 70
     1
102
RTVSPropertyOp5
 70
     1
102
RTVSPropertyOp6
 70
     1
102
RTVSPropertyOp7
 70
     1
102
RTVSPropertyOp8
 70
     1
102
RTVSPropertyOp9
 70
     1
102
RTVSPropertyOp10
 70
     1
102
RTVSPropertyOp11
 70
     1
102
RTVSPropertyOp12
 70
     1
102
RTVSPropertyOp13
 70
     1
102
RTVSPropertyOp14
 70
     1
102
RTVSPropertyOp15
 70
     1
102
RTVSPropertyOp16
 70
     1
102
RTVSPropertyOp17
 70
     1
102
RTVSPropertyOp18
 70
     1
102
RTVSPropertyOp19
 70
     1
102
RTVSPropertyOp20
 70
     1
102
RTVSPropertyOp21
 70
     1
102
RTVSPropertyOp22
 70
     1
102
RTVSPropertyOp23
 70
     1
102
RTVSPropertyOp24
 70
     1
102
RTVSPropertyOp25
 70
     1
102
RTVSPropertyOp26
 70
     1
102
RTVSPropertyOp27
 70
     1
102
RTVSPropertyOp28
 70
     1
102
RTVSPropertyOp29
 70
     1
102
RTVSPropertyOp30
 70
     1
102
RTVSPropertyOp31
 70
     1
102
RTVSPropertyOp32
 70
     1
  0
XRECORD
  5
558
102
{ACAD_REACTORS
330
557
102
}
330
557
100
AcDbXrecord
280
     1
102
RTVSPropertyOp0
 70
     1
102
RTVSPropertyOp1
 70
     1
102
RTVSPropertyOp2
 70
     1
102
RTVSPropertyOp3
 70
     1
102
RTVSPropertyOp4
 70
     1
102
RTVSPropertyOp5
 70
     1
102
RTVSPropertyOp6
 70
     1
102
RTVSPropertyOp7
 70
     1
102
RTVSPropertyOp8
 70
     1
102
RTVSPropertyOp9
 70
     1
102
RTVSPropertyOp10
 70
     1
102
RTVSPropertyOp11
 70
     1
102
RTVSPropertyOp12
 70
     1
102
RTVSPropertyOp13
 70
     1
102
RTVSPropertyOp14
 70
     1
102
RTVSPropertyOp15
 70
     1
102
RTVSPropertyOp16
 70
     1
102
RTVSPropertyOp17
 70
     1
102
RTVSPropertyOp18
 70
     1
102
RTVSPropertyOp19
 70
     1
102
RTVSPropertyOp20
 70
     1
102
RTVSPropertyOp21
 70
     1
102
RTVSPropertyOp22
 70
     1
102
RTVSPropertyOp23
 70
     1
102
RTVSPropertyOp24
 70
     1
102
RTVSPropertyOp25
 70
     1
102
RTVSPropertyOp26
 70
     1
102
RTVSPropertyOp27
 70
     1
102
RTVSPropertyOp28
 70
     1
102
RTVSPropertyOp29
 70
     1
102
RTVSPropertyOp30
 70
     1
102
RTVSPropertyOp31
 70
     1
102
RTVSPropertyOp32
 70
     1
  0
XRECORD
  5
54E
102
{ACAD_REACTORS
330
54D
102
}
330
54D
100
AcDbXrecord
280
     1
102
RTVSPropertyOp0
 70
     1
102
RTVSPropertyOp1
 70
     1
102
RTVSPropertyOp2
 70
     1
102
RTVSPropertyOp3
 70
     1
102
RTVSPropertyOp4
 70
     1
102
RTVSPropertyOp5
 70
     1
102
RTVSPropertyOp6
 70
     1
102
RTVSPropertyOp7
 70
     1
102
RTVSPropertyOp8
 70
     1
102
RTVSPropertyOp9
 70
     1
102
RTVSPropertyOp10
 70
     1
102
RTVSPropertyOp11
 70
     1
102
RTVSPropertyOp12
 70
     1
102
RTVSPropertyOp13
 70
     1
102
RTVSPropertyOp14
 70
     1
102
RTVSPropertyOp15
 70
     1
102
RTVSPropertyOp16
 70
     1
102
RTVSPropertyOp17
 70
     1
102
RTVSPropertyOp18
 70
     1
102
RTVSPropertyOp19
 70
     1
102
RTVSPropertyOp20
 70
     1
102
RTVSPropertyOp21
 70
     1
102
RTVSPropertyOp22
 70
     1
102
RTVSPropertyOp23
 70
     1
102
RTVSPropertyOp24
 70
     1
102
RTVSPropertyOp25
 70
     1
102
RTVSPropertyOp26
 70
     1
102
RTVSPropertyOp27
 70
     1
102
RTVSPropertyOp28
 70
     1
102
RTVSPropertyOp29
 70
     1
102
RTVSPropertyOp30
 70
     1
102
RTVSPropertyOp31
 70
     1
102
RTVSPropertyOp32
 70
     1
  0
XRECORD
  5
556
102
{ACAD_REACTORS
330
555
102
}
330
555
100
AcDbXrecord
280
     1
102
RTVSPropertyOp0
 70
     1
102
RTVSPropertyOp1
 70
     1
102
RTVSPropertyOp2
 70
     1
102
RTVSPropertyOp3
 70
     1
102
RTVSPropertyOp4
 70
     1
102
RTVSPropertyOp5
 70
     1
102
RTVSPropertyOp6
 70
     1
102
RTVSPropertyOp7
 70
     1
102
RTVSPropertyOp8
 70
     1
102
RTVSPropertyOp9
 70
     1
102
RTVSPropertyOp10
 70
     1
102
RTVSPropertyOp11
 70
     1
102
RTVSPropertyOp12
 70
     1
102
RTVSPropertyOp13
 70
     1
102
RTVSPropertyOp14
 70
     1
102
RTVSPropertyOp15
 70
     1
102
RTVSPropertyOp16
 70
     1
102
RTVSPropertyOp17
 70
     1
102
RTVSPropertyOp18
 70
     1
102
RTVSPropertyOp19
 70
     1
102
RTVSPropertyOp20
 70
     1
102
RTVSPropertyOp21
 70
     1
102
RTVSPropertyOp22
 70
     1
102
RTVSPropertyOp23
 70
     1
102
RTVSPropertyOp24
 70
     1
102
RTVSPropertyOp25
 70
     1
102
RTVSPropertyOp26
 70
     1
102
RTVSPropertyOp27
 70
     1
102
RTVSPropertyOp28
 70
     1
102
RTVSPropertyOp29
 70
     1
102
RTVSPropertyOp30
 70
     1
102
RTVSPropertyOp31
 70
     1
102
RTVSPropertyOp32
 70
     1
  0
ENDSEC
  0
EOF
